#TITLE:Strangeprogram;
#SUBTITLE:;
#ARTIST:DJ Sharpnel;
#TITLETRANSLIT:;
#SUBTITLETRANSLIT:;
#ARTISTTRANSLIT:;
#CREDIT:;
#BANNER:../bn.png;
#BACKGROUND:../veyron.png;
#LYRICSPATH:;
#CDTITLE:;
#MUSIC:Strangeprogram.ogg;
#OFFSET:-3.890;
#SAMPLESTART:61.689;
#SAMPLELENGTH:18.060;
#SELECTABLE:YES;
#BPMS:0.000=215.000;
#STOPS:;
#BGCHANGES:;
// cache tags:
#FIRSTBEAT:0.000;
#LASTBEAT:439.500;
#SONGFILENAME:Songs/Cirque du Veyron/Zaia - Strangeprogam/Strangeprogram.sm;
#HASMUSIC:1;
#HASBANNER:1;
#MUSICLENGTH:126.693;
// end cache tags

//---------------dance-single - Zaia----------------
#NOTES:
     dance-single:
     Zaia:
     Challenge:
     16:
     1.000,1.000,0.205,0.292,1.000,1225.000,26.000,37.000,0.000,0.000:
1000
0000
0010
0100
0000
0001
0100
0000
,
1001
0000
0001
0010
0000
0001
1000
0000
,
1100
0000
0100
1000
0000
0100
0010
0000
,
0011
0000
0001
0010
0000
0001
0100
0000
,
0110
0000
0010
1000
0000
0001
0100
0000
,
0101
0000
0100
0010
0000
1000
0001
0000
,
1001
0000
1000
0100
0000
0010
0100
0000
,
1000
0001
1000
0001
1000
0001
1000
0001
,
1000
0100
1000
0001
1000
0100
0010
0100
1000
0001
1000
0010
0100
0001
1000
0010
,
1000
0100
1000
0010
1000
0001
0100
0010
1000
0001
1000
0100
0010
0001
1000
0010
,
1000
0100
0010
0001
1000
0010
0100
0001
1000
0001
0100
0010
1000
0001
0100
0010
,
1000
0100
1000
0001
0100
0001
1000
0100
0010
0100
1000
0001
0100
0001
1000
0100
,
1000
0010
0100
0010
0100
0001
1000
0100
0010
0001
1000
0001
0100
0001
1000
0100
,
1000
0010
0100
0001
1000
0010
1000
0001
0010
0100
1000
0001
0100
0001
1000
0100
,
1000
0010
1000
0001
1000
0010
0100
0001
1000
0001
0010
0001
1000
0100
0010
0001
,
0010
0100
0010
0100
0010
0100
0010
0100
,
0110
0000
0000
0000
,
0000
0000
0000
0000
,
0000
0000
0000
0000
,
0000
0000
0000
0000
,
1000
0100
0010
0001
1000
0010
0100
0001
0010
0001
1000
0010
1000
0100
0010
0100
,
1000
0001
0100
0010
0100
0001
0010
0100
0010
0100
1000
0001
0100
0010
1000
0001
,
1000
0100
0010
0100
1000
0001
0100
0001
1000
0001
0100
0010
0100
0010
1000
0100
,
1000
0010
0100
0001
1000
0001
0100
0010
0100
0001
1000
0001
0010
0000
0100
0000
,
1000
0001
0010
0001
1000
0010
0100
0001
0010
0001
1000
0001
1000
0010
0100
0001
,
1000
0001
1000
0100
0010
0001
1000
0010
1000
0001
0100
0001
1000
0100
0010
0001
,
1000
0001
0010
0100
1000
0001
1000
0010
0100
0010
0100
0001
1000
0100
1000
0001
,
0200
0302
2003
3200
2300
3020
2030
3002
,
1003
0010
1000
0001
0100
0010
1000
0001
0100
0010
0100
0010
1000
0001
1000
0010
,
0100
0001
0010
0100
1000
0100
0010
0001
1000
0100
1000
0001
0010
0100
0010
0001
,
0100
0010
1000
0001
0100
0001
1000
0010
0100
0001
1000
0001
0100
0010
1000
0001
,
0010
0100
1000
0001
1000
0100
1000
0001
1000
0001
0010
0100
1000
0000
0001
0000
,
1000
0010
0100
0001
0010
0100
0000
1000
,
0100
0010
0100
1000
0000
0001
0100
0000
,
0001
0010
0000
0100
1000
0000
0001
1000
,
0000
0010
0100
0000
0001
2000
0000
0000
,
3001
0100
0001
0100
0010
1000
0010
1000
0001
0100
0010
1000
0001
0100
0010
1000
,
0001
0010
0001
0010
0100
1000
0100
1000
0001
0010
0100
1000
0001
0010
0100
1000
,
0001
1000
0001
1000
0010
0100
0010
0100
0001
1000
0010
0100
0001
1000
0010
0100
,
0001
1000
0100
1000
0100
1000
0001
1000
0001
0000
0000
0000
0010
0000
0001
0000
,
1000
0100
1000
0100
0010
0001
0010
0001
1000
0010
0100
0001
1000
0010
0100
0001
,
1000
0010
1000
0010
0100
0001
0100
0001
1000
0100
0010
0001
1000
0100
0010
0001
,
1000
0001
1000
0001
0010
0100
0010
0100
1000
0001
0100
0010
1000
0001
0100
0010
,
1000
0001
0010
0100
1000
0100
0010
0001
1000
0000
0000
0000
1001
0000
0000
0000
,
1000
0010
0100
0001
1000
0100
0010
0001
1000
0001
1000
0001
0100
0001
0100
0001
,
1000
0100
0010
0001
1000
0010
0100
0001
1000
0100
1000
0100
0010
0100
0010
0100
,
1000
0001
0100
0010
1000
0001
0010
0100
1000
0001
1000
0001
1000
0010
1000
0010
,
1000
0001
0100
0010
1000
0001
1000
0010
0100
0000
0000
0000
0010
0000
1000
0000
,
0002
0003
0000
0000
0200
0300
0000
0000
0002
0003
0000
0000
2000
3000
0000
0000
0002
0003
0000
0000
0200
0300
0000
0000
0002
0003
0000
0000
2000
3000
0000
0000
,
0020
0030
2000
3000
0002
0003
2000
3000
0020
0030
2000
3000
0002
0003
2000
3000
,
0020
0230
0320
2030
3200
0320
0230
2300
,
3010
0000
0000
0000
0000
0100
0001
1000
,
1010
0000
1001
0000
1100
0000
0100
0010
,
0000
0001
0010
0001
1000
0010
0100
0001
,
1001
0000
1010
0000
0101
0000
0001
1000
,
0000
0100
0010
0100
1000
0010
0100
0001
,
0011
0000
0110
0000
1100
0000
0100
0010
,
0000
0001
0010
0100
0000
1000
0010
0100
,
0000
0001
0100
0010
0000
1000
0100
0010
,
0000
0100
1000
0000
0001
0100
0010
1000
,
0101
0001
1001
0001
0011
0000
0001
0010
,
0000
0100
1000
0001
0010
0001
1000
0001
,
1010
1000
1001
1000
1100
0000
0100
0010
,
0000
0100
1000
0010
0100
0001
0100
0010
,
2000
0000
3002
0000
0023
0000
0130
1000
,
0000
0010
0100
0001
0000
0010
0100
1000
,
0000
0100
0010
0001
0000
1000
0010
0100
,
0000
0001
0100
0000
0000
0000
0000
0000
,
0001
1000
0001
0000
0100
0001
0100
0000
0010
0100
0010
0000
1000
0000
0010
0000
,
0110
0100
0001
0010
0000
0001
1000
0100
,
0010
0001
0010
0000
0001
1000
0001
0000
1000
0010
1000
0000
0010
0000
0100
0000
,
0101
0001
0000
1000
0000
0001
0100
0001
,
1000
0100
1000
0000
0001
0010
0001
0000
1000
0001
1000
0000
0010
0000
0100
0000
,
0110
0010
1000
0001
0000
0010
0100
1000
,
0100
1000
0100
0000
1000
0001
1000
0000
0001
0100
0001
0100
0010
0000
1000
0000
,
0001
1000
0000
0010
0000
0010
0100
0010
,
1000
0010
0100
0001
1000
0010
0100
0001
1000
0010
1000
0100
0010
0001
0100
0010
,
1000
0001
0010
0100
1000
0001
0010
0100
1000
0010
0100
0001
0010
0100
1000
0010
,
1000
0001
0100
0010
1000
0001
0100
0010
1000
0100
0010
0001
0100
0010
1000
0001
,
1000
0100
0010
0001
1000
0100
0010
0001
1000
0100
1000
0010
0100
0001
0010
0100
,
1000
0010
0100
0001
1000
0010
0100
0001
0010
0001
0100
0010
1000
0100
0010
0001
,
1000
0001
0010
0100
1000
0001
0010
0100
1000
0010
0100
0001
0010
0100
1000
0010
,
1000
0001
0100
0010
1000
0001
0100
0010
1000
0100
0010
0001
0100
0010
1000
0001
,
1000
0100
0010
0001
1000
0100
0010
0001
1000
0100
1000
0010
0100
0001
0010
0100
,
1000
0010
0100
0001
1000
0010
0100
0001
0010
0001
0100
0010
1000
0100
0010
0001
,
1000
0001
0010
0100
1000
0001
0010
0100
1000
0010
0100
0001
0010
0100
1000
0010
,
1000
0001
0100
0010
1000
0001
0100
0010
1000
0100
0010
0001
0100
0010
1000
0001
,
1000
0100
0010
0001
1000
0100
0010
0001
1000
0010
0100
0001
0010
0100
1000
0001
,
1000
0010
0100
0001
1000
0010
0100
0001
1000
0100
1000
0010
0100
0001
0010
0001
,
1000
0001
0010
0100
1000
0001
0010
0100
1000
0010
0100
0001
0010
0100
1000
0010
,
1000
0001
0100
0010
1000
0001
0100
0010
1000
0100
0010
0001
0100
0010
1000
0100
,
0010
0001
0000
1000
0000
0001
0100
0001
,
1000
0001
1000
0001
0100
0010
1000
0100
0010
0001
1000
0100
1000
0001
0010
0100
,
1000
0001
1000
0001
0100
0010
1000
0100
1000
0001
0100
0010
1000
0001
0100
0010
,
1000
0001
1000
0001
0100
0010
1000
0100
1000
0001
0010
0100
0010
0001
1000
0100
,
1000
0001
1000
0001
0100
0010
1000
0100
1000
0001
0100
0001
1000
0010
1000
0001
,
0100
0010
0100
0010
1000
0001
1000
0100
0010
0001
1000
0100
1000
0001
0010
0001
,
0100
0010
0100
0010
1000
0001
0010
0100
1000
0001
0100
0010
0100
0001
1000
0001
,
0100
0010
0100
0010
1000
0001
1000
0100
1000
0001
0010
0100
1000
0001
0010
0001
,
0100
0010
0100
0010
1000
0001
0010
0100
1000
0001
0100
0010
1000
0001
0100
0010
,
1000
0001
1000
0001
0010
0100
1000
0010
0100
0001
1000
0010
1000
0001
0100
0010
,
1000
0001
1000
0001
0010
0100
1000
0010
1000
0001
0010
0100
1000
0001
0010
0100
,
1000
0001
1000
0001
0010
0100
1000
0010
1000
0001
0100
0010
0100
0001
1000
0010
,
1000
0001
1000
0001
0010
0100
1000
0010
1000
0001
0010
0001
1000
0100
1000
0001
,
0010
0100
0010
0100
1000
0001
1000
0010
0100
0001
1000
0001
0100
0010
1000
0001
,
0010
0100
0010
0100
1000
0001
0100
0010
1000
0001
0010
0100
1000
0001
0100
0001
,
0010
0001
0100
0001
0010
0001
0100
0001
,
1000
1000
0000
0001
0000
1000
0001
1000
,
0002
0000
0000
0000
,
0003
1000
0000
1000
0000
1000
0000
1000
;
