#TITLE:Oi Rock;
#SUBTITLE:;
#ARTIST:S.S.H.;
#TITLETRANSLIT:;
#SUBTITLETRANSLIT:;
#ARTISTTRANSLIT:;
#CREDIT:DukAmok;
#BANNER:Oi_Rock.png;
#BACKGROUND:Oi_Rock-bg.png;
#LYRICSPATH:;
#CDTITLE:!duktitle.png;
#MUSIC:Oi_Rock.mp3;
#OFFSET:1.200;
#SAMPLESTART:37.500;
#SAMPLELENGTH:10.000;
#SELECTABLE:YES;
#BPMS:0.000=120.000;
#STOPS:;
#BGCHANGES:;
// cache tags:
#FIRSTBEAT:3.000;
#LASTBEAT:149.750;
#SONGFILENAME:Songs/Community Keyboard Megapack - Volume 1/(DukAmok) Oi Rock/Oi_Rock.sm;
#HASMUSIC:1;
#HASBANNER:1;
#MUSICLENGTH:79.109;
// end cache tags

//---------------dance-single - Heavy----------------
#NOTES:
     dance-single:
     Heavy:
     Hard:
     10:
     1.000,1.000,1.000,0.025,1.000,459.000,132.000,2.000,0.000,0.000:
0000
0000
0000
0000
0000
0000
0000
0000
0000
0000
0000
0000
0000
0000
0000
0000
0000
0000
1000
0010
0100
0001
0000
0000
,
0011
0010
0100
1000
0010
0000
0110
0000
0101
0001
0100
0010
1000
0100
0010
0000
,
0011
0000
0000
0001
0000
0000
1000
0000
0000
0010
0000
0000
0100
0000
0000
0000
0000
0000
0001
0000
0000
1000
0000
0000
0010
0000
0000
0000
0000
0000
0100
0000
0001
0000
0010
0000
0100
0000
0000
0000
0000
0000
0110
0000
0000
0000
0000
0000
,
1100
0100
0010
0001
0100
0000
0110
0000
1010
1000
0010
0100
0001
0010
0100
0000
,
1100
0000
0000
1000
0000
0000
0001
0000
0000
0100
0000
0000
0010
0000
0000
0000
0000
0000
1000
0000
0000
0001
0000
0000
0100
0000
0010
0000
1000
0000
0100
0000
0010
0000
0001
0000
1000
0000
0010
0000
0100
0000
0010
0000
0100
0000
0001
0000
,
0010
0000
0110
0000
0001
0101
0000
0110
0000
0010
1010
0000
1100
0000
0110
0000
,
1100
0000
1001
0000
0001
0101
0000
0110
1010
0110
0000
0001
0011
0010
0110
0000
,
1100
0000
1001
0000
0101
0011
0000
1010
0000
0101
0110
0000
0101
0000
0011
0000
,
0110
0000
0110
0000
0110
0000
0110
0000
1000
1001
0000
0001
1001
1000
0000
1000
,
0110
0000
0000
0011
0000
0000
0101
0000
0000
0110
0000
0000
1010
0000
1100
1000
,
1010
0000
0000
1100
0000
0000
1010
0000
0000
0100
0101
0000
0011
0000
1100
0000
,
0011
0000
0000
0101
0000
0000
0110
0000
0000
1010
0000
0000
0101
0000
0110
0100
,
0101
0000
0110
0000
1010
0000
1100
0000
0100
0010
0100
0010
0001
0010
0001
0100
,
0101
0000
0000
1010
0000
0000
1001
0000
0000
0011
0000
0000
0110
0000
0101
0100
,
0110
0000
0000
0101
0000
0000
0110
0000
0000
0001
1001
0000
1010
0000
0101
0000
,
1010
0000
0000
1001
0000
0000
0011
0000
0000
0110
0000
0000
1001
0000
0011
0001
,
1001
0000
0011
0000
0010
0110
0000
0100
1000
0010
0100
1001
0000
0000
0110
0000
,
0101
0000
0000
0101
0000
0000
0001
0100
0001
0100
0001
0100
0010
1000
0010
1000
0010
1000
0100
0010
0001
0100
0000
0000
,
0110
0000
0000
0000
0000
0000
0110
0000
0000
0000
0000
0000
0001
0000
0000
0101
0000
0000
0000
0000
0000
0110
0000
0000
0000
0000
0000
0010
0000
0000
1010
0000
0000
0000
0000
0000
1000
0000
0001
0000
0010
0000
0100
0000
0000
0000
0000
0000
,
1100
0000
1100
0010
0001
0100
0010
1000
0000
0010
0100
0001
0010
0100
0010
0000
,
0001
0010
0100
1000
0000
0000
0100
0010
0001
0100
0000
0000
0010
1000
0010
0100
0000
0000
0001
0010
0100
0010
0000
0000
,
0110
0000
0011
0000
0010
0110
0000
1100
0000
1000
1010
0000
0110
0000
0101
0000
,
0011
0000
1001
0000
1000
1010
0000
0110
0000
0100
0101
0000
1001
0000
0110
0000
,
0101
0000
0000
0000
1000
0000
0000
0000
0100
0000
0010
0001
0010
0000
0100
0000
1000
0000
0010
0000
0001
0000
0010
0000
1000
0000
0100
0000
0010
0000
0001
0000
,
0010
0000
0001
0000
0100
0000
0001
0000
1000
0000
0100
0000
0010
0000
0100
0000
1000
0010
0100
0000
0001
0000
0010
0000
0100
0000
1000
0000
0001
0000
0010
0000
,
0110
0000
1100
0000
0100
0110
0000
0011
0000
0001
0101
0000
0110
0000
1010
0000
,
1100
0000
1001
0000
0001
0101
0000
0110
0000
0010
1010
0000
1001
0000
0110
0000
,
0010
0000
0000
1000
0000
0000
0001
0000
0000
0100
0000
0000
0010
0000
0000
1000
0000
0000
0001
0000
0000
0010
0000
0000
0100
0000
0000
0000
0010
0000
0000
0000
0100
0000
0000
0000
1000
0000
0000
0000
0010
0000
0000
0000
0100
0000
0000
0000
,
1010
0000
1001
0000
0011
0000
1001
0000
0010
0110
0000
0100
0001
0101
0000
0001
,
0010
0000
0100
0000
0010
0000
0001
0000
1000
0000
0010
0000
0100
0000
0001
0000
0010
0100
0010
0000
0001
0000
0000
0000
0101
0000
0000
0000
0010
0000
1000
0000
,
0100
0000
0000
0000
0000
0000
0000
0000
0000
0000
0000
0000
0010
0000
0000
0000
0000
0000
0000
0000
0000
0000
0000
0000
0001
0000
0000
0000
0000
0000
1000
0000
0000
0000
0000
0000
0010
0000
0000
0000
0000
0000
0000
0000
0000
0000
0000
0000
0100
0000
0000
0000
0000
0000
0000
0000
0000
0000
0000
0000
0001
0000
0000
0000
0000
0000
0000
0000
0000
0000
0000
0000
0010
0000
0000
0000
0000
0000
0000
0000
0000
0000
0000
0000
0100
0000
0000
0000
0000
0000
0000
0000
0000
0000
0000
0000
1000
0000
0000
0000
0000
0000
0000
0000
0000
0000
0000
0000
0001
0000
0000
0000
0000
0000
0000
0000
0000
0000
0000
0000
0000
0000
0000
0000
0000
0000
0000
0000
0000
0000
0000
0000
0001
0000
0000
0000
0000
0000
0000
0000
0000
0000
0000
0000
1000
0000
0000
0000
0000
0000
0000
0000
0010
0000
0000
0000
0000
0000
0000
0000
0100
0000
0000
0000
0000
0000
0000
0000
0001
0000
0000
0000
0000
0000
0000
0000
0010
0000
0000
0000
0000
0000
0000
0000
0100
0000
0000
0000
0000
0000
0000
0000
,
1000
0000
0010
0000
0100
0000
0001
0000
0010
0000
0100
0000
1000
0000
0001
0000
0100
0001
0010
0000
0100
0000
1000
0000
0000
0000
0001
0000
1000
0000
0100
0000
,
1000
0001
0100
0010
0100
0001
0010
0001
0010
0100
0010
0100
1000
0010
1000
0010
,
0100
0000
0001
0000
0010
0000
0100
0000
0010
0000
0001
0000
1000
0000
0010
0000
0100
0001
0100
0000
0001
0000
0000
0000
1001
0000
0000
0000
1000
0000
0100
0000
,
0010
0000
0000
0000
0000
0000
0000
0000
0000
0000
0000
0000
0001
0000
0000
0000
0000
0000
0000
0000
0000
0000
0000
0000
1000
0000
0000
0000
0000
0000
0000
0000
0000
0000
0000
0000
0010
0000
0000
0000
0000
0000
0000
0000
0000
0000
0000
0000
0100
0000
0000
0000
0000
0000
0000
0000
0000
0000
0000
0000
0001
0000
0000
0000
0000
0000
0000
0000
0000
0000
0000
0000
0010
0000
0000
0000
0000
0000
0000
0000
0000
0000
0000
0000
0100
0000
0000
0000
0000
0000
0000
0000
0000
0000
0000
0000
1000
0000
0000
0000
0000
0000
0100
0000
0000
0000
0000
0000
0010
0000
0000
0000
0000
0000
0000
0000
0000
0000
0000
0000
0001
0000
0000
0000
0000
0000
0010
0000
0000
0000
0000
0000
0100
0000
0000
0000
0000
0000
0000
0000
0000
0000
0000
0000
0010
0000
0000
0000
0000
0000
0000
0000
0001
0000
0000
0000
0000
0000
0000
0000
0100
0000
0000
0000
0000
0000
0000
0000
0010
0000
0000
0000
0000
0000
0000
0000
1000
0000
0000
0000
0000
0000
0000
0000
0100
0000
0000
0000
0000
0000
0000
0000
,
0010
0001
0010
0100
1000
0001
0010
0100
1000
0010
0100
0001
1000
0010
0100
0001
0010
0100
1000
0100
0010
0001
0100
0010
,
1000
0000
0000
0001
0000
0000
1000
0000
0000
0100
0000
0000
0010
0000
0000
0001
0000
0000
0010
0000
0000
0100
0000
0000
1000
0000
0100
0000
0010
0000
0001
0000
0000
0101
0000
0000
0000
0000
0000
0100
0000
0000
0110
0000
0000
0000
0000
0000
,
2001
0000
0000
0000
0002
0000
0000
0000
0000
0000
0003
0000
0001
0010
3100
0000
0000
0000
0000
0000
0000
0000
0000
0000
0000
0000
0000
0000
0000
0000
0000
0000
;

//---------------dance-single - Challenge----------------
#NOTES:
     dance-single:
     Challenge:
     Challenge:
     12:
     1.000,1.000,1.000,0.025,1.000,500.000,238.000,2.000,0.000,0.000:
0000
0000
0000
0000
0000
0000
0000
0000
0000
0000
0000
0000
0000
0000
0000
0000
0000
0000
0101
0010
0100
1001
0000
0000
,
0011
0100
0010
1000
0101
0000
0110
1000
0101
0010
0100
0010
1000
0001
0110
0000
,
0101
0000
0000
1000
0000
0000
0010
0000
0000
0100
0000
0000
1010
0000
0000
0000
0000
0000
0011
0000
0000
1000
0000
0000
0110
0000
0000
0000
0000
0000
1100
0000
0010
0000
1000
0000
0101
0000
0000
0000
0000
0000
0110
0000
0000
0000
0000
0000
,
1001
0010
0100
0001
1010
0000
0110
0000
0101
1000
0010
0100
0001
1000
0110
0001
,
1010
0000
0000
0001
0000
0000
0100
0000
0000
0010
0000
0000
1100
0000
0000
0000
0000
0000
0101
0000
0000
1000
0000
0000
0110
0000
0001
0000
0100
0000
0010
0000
1000
0000
0100
0000
1010
0000
0001
0000
0010
0000
0100
0000
1000
0000
0010
0000
,
0101
0000
0011
1000
0110
1010
0000
0110
0000
0011
0110
0000
0011
0000
1100
0001
,
0110
0000
1010
0000
1100
1001
0000
1100
0110
1010
0000
0101
0110
1010
0011
0000
,
0011
0000
1010
0000
1100
0011
0000
0101
0000
0011
0110
0001
1100
0000
1001
0010
,
0101
0000
0101
0000
0101
0000
0101
0000
1100
0101
0000
0001
1010
0011
1000
0010
,
0101
0000
1001
0110
1000
0000
1001
0000
0001
0000
1001
0000
1100
0000
1001
0010
,
0101
0000
1001
0110
1000
0000
1001
0000
0001
0100
1001
0000
1010
0000
1001
0010
,
1100
0000
0000
0000
0000
0000
0110
0000
1000
0000
0001
0000
0010
0000
0000
0000
0000
0000
0110
0000
0000
0000
0000
0000
0100
0000
0000
1001
0000
0000
0110
0000
0000
0000
0000
0000
1010
0000
0000
0000
0000
0000
0110
0000
0000
0001
0000
0000
,
1100
0000
0000
0000
0000
0000
0110
0000
0000
1001
0000
0000
0010
0000
0000
0000
0000
0000
0110
0000
0000
1000
0000
0000
0011
0000
0000
0100
0000
0000
1001
0000
0000
0100
0000
0000
0011
0000
0000
1000
0000
0000
0110
0000
0001
0000
0100
0000
,
1010
0000
1001
0110
0001
0000
1001
0000
1000
0110
1001
0000
0011
0000
1001
0100
,
1010
0000
1001
0110
0001
0000
1001
0000
1000
0010
1001
0000
0101
0000
1001
0100
,
0011
0000
0000
0000
0000
0000
0110
0000
0001
0000
1000
0000
0100
0000
0000
0000
0000
0000
0110
0000
0000
0000
0000
0000
0010
0000
0000
1001
0000
0000
0110
0000
0000
0000
0000
0000
0101
0000
0000
0000
0000
0000
0110
0000
0000
1000
0000
0000
,
0011
0000
1000
0000
0100
0000
0011
0000
0100
0000
0010
0000
0001
0000
0000
1100
0000
0000
0000
0000
0000
1000
0000
0000
0010
0000
1000
0000
0100
0000
0011
0000
0000
1001
0000
0000
0000
0000
0000
0000
0000
0000
0101
0000
0000
0000
0000
0000
,
0011
0000
0000
0101
0000
0000
1000
0100
0010
1000
0100
0010
0001
0010
0100
0001
0010
0100
1000
0010
0100
1001
0000
0000
,
1100
0000
0000
0000
0000
0000
0110
0000
0000
0000
0000
0000
0101
0000
0000
1010
0000
0000
0000
0000
0000
0110
0000
0000
0000
0000
0000
0011
0000
0000
0110
0000
0000
0000
0000
0000
0101
0000
0010
0000
0100
0000
1010
0000
0000
0000
0000
0000
,
0101
0000
0000
0000
0110
0000
0010
0001
1000
0000
0100
0000
0010
0000
0001
0000
0000
0000
0001
0000
0010
0001
0010
0000
0100
0000
1000
0000
0011
0000
0100
0000
,
0001
1000
0010
0101
0000
0000
0001
0010
0100
1010
0000
0000
0100
0001
1000
0011
1000
0100
0010
0001
0010
1100
0010
0001
,
0110
0000
0000
0000
0101
0000
0000
0000
0011
0000
0110
0000
0000
0000
1100
0000
0000
0000
0110
0000
0101
0000
0000
0000
0011
0000
0000
0000
0110
0000
0001
0100
,
1010
0000
0000
0000
0101
0000
0000
0000
0011
0000
1100
0000
0000
0000
1010
0000
0000
0000
0110
0000
0101
0000
0000
0000
0011
0000
1010
0000
0000
0000
0010
0100
,
1001
0000
0000
0010
1000
0010
0101
0000
0000
0001
0010
0100
1001
0000
0000
1000
0010
0100
0011
0000
0000
0010
1000
0001
,
0110
0000
0000
0000
0000
0000
0000
0000
0000
0000
0000
0000
0000
0000
0000
0000
0000
0000
0000
0000
0000
0000
0000
0000
1000
0000
0000
0000
0000
0000
0000
0000
0001
0000
0000
0000
0000
0000
0000
0000
0010
0000
0000
0000
0000
0000
0000
0000
0101
0000
0000
0000
0000
0000
0000
0000
0000
0000
0000
0000
0000
0000
0000
0000
0000
0000
0000
0000
0000
0000
0000
0000
0001
0000
0000
0000
0000
0000
0000
0000
0100
0000
0000
0000
0000
0000
0000
0000
0010
0000
0000
0000
0000
0000
0000
0000
1100
0000
0000
0000
0000
0000
0010
0000
0000
0000
0000
0000
0001
0000
0000
0000
0000
0000
0000
0000
0000
0000
0000
0000
0010
0000
0000
0000
0000
0000
0000
0000
0100
0000
0000
0000
0000
0000
0000
0000
0010
0000
0000
0000
0000
0000
0000
0000
1100
0000
0000
0000
0000
0000
0000
0000
0000
0000
0000
0000
0110
0000
0000
0000
0000
0000
0000
0000
0000
0000
0000
0000
0000
0000
0000
0000
0000
0000
0000
0000
0000
0000
0000
0000
0000
0000
0000
0000
0000
0000
0000
0000
0000
0000
0000
0000
,
1001
0000
0000
0000
1100
0000
0000
0000
0101
0000
1001
0000
0000
0000
1010
0000
0000
0000
1001
0000
1100
0000
0000
0000
0101
0000
0010
0000
1001
0000
0100
1000
,
0011
0000
0000
0000
1100
0000
0000
0000
0101
0000
1010
0000
0000
0000
0011
0000
0000
0000
1001
0000
1100
0000
0000
0000
0101
0000
0011
0000
0000
0000
0001
1000
,
0110
0000
0000
0001
0000
0000
0010
0000
0000
0100
0000
0000
0010
0000
0000
0001
0000
0000
1000
0000
0000
0010
0000
0000
0100
0000
0000
0000
0001
0000
0000
0000
0010
0000
0000
0000
0100
0000
0000
0000
1100
0000
0000
0000
0110
0000
0000
0000
,
1001
0000
1001
0000
1001
0000
1001
0000
1001
0110
0000
0110
0011
1100
0000
0110
,
1010
0000
0000
0000
1001
0000
0110
0000
0001
0000
0000
0000
1001
0000
0010
0000
1000
0010
0100
0000
1001
0000
0000
0000
0011
0000
0000
0000
1001
0000
0100
0000
,
1010
0000
0000
0000
0000
0000
0000
0000
0000
0000
0000
0000
0000
0000
0000
0000
0000
0000
0000
0000
0000
0000
0000
0000
1001
0000
0000
0000
0000
0000
0010
0000
0000
0000
0000
0000
0100
0000
0000
0000
0000
0000
0000
0000
0000
0000
0000
0000
0010
0000
0000
0000
0000
0000
0000
0000
0000
0000
0000
0000
0001
0000
0000
0000
0000
0000
0000
0000
0000
0000
0000
0000
1010
0000
0000
0000
0000
0000
0000
0000
0000
0000
0000
0000
0000
0000
0000
0000
0000
0000
0000
0000
0000
0000
0000
0000
1000
0000
0000
0000
0000
0000
0000
0000
0000
0000
0000
0000
0010
0000
0000
0000
0000
0000
0000
0000
0000
0000
0000
0000
1001
0000
0000
0000
0000
0000
0000
0000
0000
0000
0000
0000
0000
0000
0000
0000
0000
0000
0000
0000
0000
0000
0000
0000
0101
0000
0000
0000
0000
0000
0000
0000
0010
0000
0000
0000
0000
0000
0000
0000
1000
0000
0000
0000
0000
0000
0000
0000
0110
0000
0000
0000
0000
0000
0000
0000
0001
0000
0000
0000
0000
0000
0000
0000
0100
0000
0000
0000
0000
0000
0000
0000
,
1010
0000
0000
0000
0000
0000
0110
0000
1000
0000
0100
0000
0010
0000
0000
0000
0000
0000
0110
0000
0000
0000
0000
0000
0010
0000
0000
1001
0000
0000
0110
0000
0000
0000
0000
0000
0101
0000
0000
0000
0000
0000
0110
0000
0000
1000
0000
0000
,
0011
0000
0000
0000
0000
0000
0110
0000
0000
1001
0000
0000
0100
0000
0000
0000
0000
0000
0110
0000
0000
0001
0000
0000
1100
0000
0000
0010
0000
0000
1001
0000
0000
0010
0000
0000
1100
0000
0000
0001
0000
0000
0110
0000
1000
0000
0010
0000
,
0101
0000
0000
0000
1001
0000
0110
0000
1000
0000
0000
0000
1001
0000
0000
0000
0001
0010
0100
0000
1001
0000
0000
0000
1100
0000
0000
0000
1001
0000
0010
0000
,
0101
0000
0000
0000
0000
0000
0000
0000
0000
0000
0000
0000
0000
0000
0000
0000
0000
0000
0000
0000
0000
0000
0000
0000
1001
0000
0000
0000
0000
0000
0000
0000
0000
0000
0000
0000
0110
0000
0000
0000
0000
0000
0000
0000
0000
0000
0000
0000
1000
0000
0000
0000
0000
0000
0000
0000
0000
0000
0000
0000
0000
0000
0000
0000
0000
0000
0000
0000
0000
0000
0000
0000
1001
0000
0000
0000
0000
0000
0000
0000
0000
0000
0000
0000
0000
0000
0000
0000
0000
0000
0000
0000
0000
0000
0000
0000
0001
0000
0000
0000
0000
0000
0100
0000
0000
0000
0000
0000
0001
0000
0000
0000
0000
0000
0000
0000
0000
0000
0000
0000
0100
0000
0000
0000
0000
0000
0010
0000
0000
0000
0000
0000
0100
0000
0000
0000
0000
0000
0000
0000
0000
0000
0000
0000
0010
0000
0000
0000
0000
0000
0000
0000
1000
0000
0000
0000
0000
0000
0000
0000
0100
0000
0000
0000
0000
0000
0000
0000
0010
0000
0000
0000
0000
0000
0000
0000
0001
0000
0000
0000
0000
0000
0000
0000
0010
0000
0000
0000
0000
0000
0000
0000
,
1100
0010
0001
0100
0001
0010
0100
1000
0010
0100
0010
1000
0100
0010
0001
0010
0100
0010
0001
1000
0010
0100
0001
0010
,
0100
0000
0000
1000
0000
0000
0010
0000
0000
0100
0000
0000
0001
0000
0000
0010
0000
0000
0100
0000
0000
0010
0000
0000
0001
0000
0010
0000
0100
0000
1000
0000
0000
0101
0000
0000
0000
0000
0000
1000
0000
0000
0110
0000
0000
0000
0000
0000
,
1002
0000
0000
0000
2000
0000
0000
0000
0000
0000
3000
0000
1000
0100
0013
0000
0000
0000
0000
0000
0000
0000
0000
0000
0000
0000
0000
0000
0000
0000
0000
0000
;
