#TITLE:Boundary;
#SUBTITLE:;
#ARTIST:Sparker;
#TITLETRANSLIT:;
#SUBTITLETRANSLIT:;
#ARTISTTRANSLIT:;
#CREDIT:;
#BANNER:Boundary-BN.png;
#BACKGROUND:Boundary-BG.png;
#LYRICSPATH:;
#CDTITLE:!cattitle.png;
#MUSIC:Boundary.mp3;
#OFFSET:1.100;
#SAMPLESTART:55.000;
#SAMPLELENGTH:11.000;
#SELECTABLE:YES;
#BPMS:0.000=160.000,284.500=40.000;
#STOPS:;
#BGCHANGES:;
// cache tags:
#FIRSTBEAT:4.000;
#LASTBEAT:288.000;
#SONGFILENAME:Songs/Fresh Flock of Fantastic Files F4/(cat) Boundary/Boundary.sm;
#HASMUSIC:1;
#HASBANNER:1;
#MUSICLENGTH:114.419;
// end cache tags

//---------------dance-single - ----------------
#NOTES:
     dance-single:
     :
     Hard:
     11:
     1.000,1.000,1.000,0.420,0.677,574.000,243.000,48.000,0.000,0.000:
0000
0000
0000
0000
,
0002
0003
0100
0000
0100
0000
0000
0000
0000
0000
0101
0000
0100
0000
0010
0000
,
0002
0003
1010
0000
0100
0000
1000
0000
0000
0000
1001
0000
0010
0000
0100
0000
,
0002
0003
1010
0000
1000
0000
0000
0000
0000
0000
0110
0000
0001
0000
0010
0000
,
2000
3000
0101
0000
0001
0000
1000
0000
0000
0000
0110
0000
1000
0000
0001
0000
,
2000
3000
1010
0000
0010
0000
0000
0000
0000
0000
0110
0000
1000
0000
0001
0000
,
2000
3000
0110
0000
0100
0000
0010
0000
0000
0000
1010
0000
0100
0000
0001
0000
,
1002
0003
0110
0000
1010
0000
0000
0100
1000
0000
0011
0000
1001
0000
0000
0010
,
1002
0003
0101
0000
1001
0000
0000
0001
1000
0000
0101
0000
1001
0000
0011
0000
,
1002
0003
0101
0000
1001
0000
0000
0001
1000
0000
0011
0000
1001
0000
0000
0001
,
2001
3000
0101
0000
1001
0000
0000
0001
1000
0000
0110
0000
1010
0000
0110
0000
,
2001
3000
0101
0000
1001
0000
0000
0001
1000
0000
0101
0000
1001
0000
0000
0001
,
2001
3000
0110
0000
1010
0000
0000
0001
1000
0000
0101
0000
1001
0000
0101
0000
,
1002
0003
0011
0000
1001
0000
0000
0001
1000
0000
0101
0000
1001
0000
0000
0010
,
1001
0000
1001
0000
0110
0000
0000
0110
0000
0000
1001
0000
1001
0000
1001
0000
,
0002
0003
1010
0000
1010
0000
0000
1010
0000
0000
0110
0000
0110
0000
0000
0100
,
2000
3000
1010
0000
1010
0000
0000
1010
0000
0000
0101
0000
0101
0000
0101
0000
,
2000
3000
0110
0000
0110
0000
0000
0110
0000
0000
1010
0000
1010
0000
0000
0100
,
2000
3000
1010
0000
1010
0000
0000
1010
0000
0000
1100
0000
1100
0000
1100
0000
,
0002
0003
0101
0000
0101
0000
0000
0101
0000
0000
1010
0000
1010
0000
0000
1000
,
0002
0003
0110
0000
0110
0000
0000
0110
0000
0000
0011
0000
0011
0000
0011
0000
,
0002
0003
0110
0000
0110
0000
0000
0110
0000
0000
1100
0000
1100
0000
0000
0000
,
1000
0010
0100
0001
0010
0100
1000
0001
0010
0100
1000
0010
0100
0001
2000
3000
,
0000
0000
1010
0000
1000
0110
0000
0000
1001
0000
0000
1001
0000
0000
1010
0000
,
1000
0110
0000
0000
1001
0000
0000
1001
0000
0000
1010
0000
1000
0110
0000
0000
,
1001
0000
0000
1001
0000
0000
1010
0000
1000
0110
0000
0000
1001
0000
0000
1001
,
0000
0000
0110
0000
0000
0000
0110
0000
0000
0000
1100
0000
1000
0110
0000
0000
,
1010
0000
0000
1010
0000
0000
1100
0000
1000
0110
0000
0000
1001
0000
0000
1001
,
0000
0000
1010
0000
1000
0110
0000
0000
1001
0000
0000
1001
0000
0000
1010
0000
,
0001
0110
0000
0000
1001
0000
0000
1001
0000
0000
0101
0000
0000
0000
1001
0000
,
0000
0000
0101
0000
0001
0110
0000
0000
0101
0000
0000
0101
0000
0000
0011
0000
,
1000
0110
0000
0000
1001
0000
0000
1001
0000
0000
1010
0000
1000
0110
0000
0000
,
1010
0000
0000
1010
0000
0000
1010
0000
1000
0110
0000
0000
1001
0000
0000
1001
,
0000
0000
0101
0000
0000
0000
1001
0000
0000
0000
0101
0000
0001
0110
0000
0000
,
0101
0000
0000
0101
0000
0000
1010
0000
1000
0110
0000
0000
1010
0000
0000
1010
,
0000
0000
1010
0000
1000
0110
0000
0000
1001
0000
0000
1001
0000
0000
1010
0000
,
1000
0110
0000
0000
1001
0000
0000
1001
0000
0000
1010
0000
0000
0000
1001
0000
,
0000
0000
0000
0000
0000
0000
0000
0000
0002
0000
0000
0000
0000
0000
0000
0003
,
2000
0000
0000
0000
0000
0000
0000
3000
0000
0000
0000
0000
0000
0000
0000
0000
,
0000
0000
0000
0000
0000
0000
0000
0000
0000
0000
0000
0000
0000
0000
0000
0000
0000
0000
0000
0000
0000
0000
0000
0000
0000
0000
0000
0000
0000
0000
0000
0000
0000
0000
0000
0000
0000
0000
0000
0000
0000
0000
0000
0000
0000
0000
0000
0000
0000
0000
0000
0000
0000
0000
0000
0000
0000
0000
0000
0000
0000
0000
0000
0000
0000
0000
0000
0000
0000
0000
0000
0000
0000
0000
0000
0000
0000
0000
0000
0000
0000
0000
0000
0000
0000
0000
0000
0000
0000
0000
0000
0000
0000
0000
0000
0000
1000
0000
0000
0000
0000
0000
0000
0000
0000
0000
0000
0000
0000
0000
0000
0000
0000
0000
0000
0000
0000
0000
0000
0000
0000
0000
0000
0000
0000
0000
0010
0000
0000
0000
0000
0000
0000
0000
0000
0000
0000
0000
0000
0000
0000
0000
0000
0000
0000
0000
0000
0000
0000
0000
0000
0000
0000
0000
0000
0000
0000
0000
0000
0000
0100
0000
0000
0000
0000
0000
0000
0000
0000
0000
0000
0000
0000
0000
0000
0000
0000
0000
0000
0000
0000
0000
0000
0000
0000
0000
0000
0000
0000
0000
0000
0000
,
0001
0000
0000
0000
0000
0000
0000
0000
0000
0000
0000
0000
0000
0000
0000
0000
0000
0000
0000
0000
0000
0000
0000
0000
0000
0000
0000
0000
0000
0000
0010
0000
0000
0000
0000
0000
0000
0000
0000
0000
0000
0000
0000
0000
0000
0000
0000
0000
0000
0000
0000
0000
0000
0000
0000
0000
0000
0000
0000
0000
0000
0000
0000
0000
0100
0000
0000
0000
0000
0000
0000
0000
0000
0000
0000
0000
0000
0000
0000
0000
0000
0000
0000
0000
0000
0000
0000
0000
0000
0000
0000
0000
0000
0000
0000
0000
1000
0000
0000
0000
0000
0000
0000
0000
0000
0000
0000
0000
0000
0000
0000
0000
0000
0000
0000
0000
0000
0000
0000
0000
0000
0000
0000
0000
0000
0000
0010
0000
0000
0000
0000
0000
0000
0000
0000
0000
0000
0000
0000
0000
0000
0000
0000
0000
0000
0000
0000
0000
0000
0000
0000
0000
0000
0000
0000
0000
0000
0000
0000
0000
0100
0000
0000
0000
0000
0000
0000
0000
0000
0000
0000
0000
0000
0000
0000
0000
0000
0000
0000
0000
0000
0000
0000
0000
0000
0000
0000
0000
0000
0000
0000
0000
,
2001
3000
0110
0000
1010
0000
0000
0010
1000
0000
0101
0000
1001
0000
0000
0001
,
2001
3000
0101
0000
1001
0000
0000
0001
1000
0000
0011
0000
1001
0000
0011
0000
,
1002
0003
1010
0000
1010
0000
0000
0001
1000
0000
0101
0000
1001
0000
0000
0010
,
1002
0003
0110
0000
1010
0000
0000
0010
1000
0000
1010
0000
1010
0000
1100
0000
,
1002
0003
0101
0000
1001
0000
0000
0001
1000
0000
0101
0000
1001
0000
0000
0010
,
2001
3000
0110
0000
1010
0000
0000
0010
1000
0000
0101
0000
1001
0000
0101
0000
,
2001
3000
0011
0000
1001
0000
0000
0001
1000
0000
0101
0000
1001
0000
0000
0100
,
2001
3000
1001
0000
0110
0000
0000
0110
0000
0000
1001
0000
1001
0000
1001
0000
,
1002
0003
0100
0000
1100
0000
0010
0000
1001
0000
0100
0000
1010
0000
0100
0000
,
1002
0003
0010
0000
0011
0000
0100
0000
1001
0000
0010
0000
0101
0000
0010
0000
,
1002
0003
0100
0000
1100
0000
0010
0000
1001
0000
0100
0000
1010
0000
0100
0000
,
2001
3000
0010
0000
0011
0000
0100
0000
1001
0000
0010
0000
0101
0000
0010
0000
,
2001
3010
0000
0000
1001
0000
0010
0000
1000
0100
0000
0000
1001
0000
0010
0000
,
2001
3010
0000
0000
1001
0000
0100
0000
0001
0010
0000
0000
1001
0000
0100
0000
,
1002
0103
0000
0000
1001
0000
0010
0000
1000
0100
0000
0000
1001
0000
0010
0000
,
0002
0103
0010
1000
0001
0010
0100
1000
0001
0010
0100
1000
0010
0100
0001
0000
,
0002
0003
1000
0000
0100
0000
1000
0000
0010
0000
1000
0000
0100
0000
1000
0000
,
1002
0003
1000
0000
0100
0000
1000
0000
0010
0000
1000
0000
0100
0000
1000
0000
,
2010
3000
0001
0000
0010
0000
0001
0000
0100
0000
0001
0000
0010
0000
0001
0000
,
2100
3000
0001
0000
0010
0000
0001
0000
0100
0000
0001
0000
0010
0000
0001
0000
,
2100
3000
0001
0000
0010
0000
0001
0000
0100
0000
0001
0000
0010
0000
0001
0000
,
0102
0003
1000
0000
0100
0000
1000
0000
0010
0000
1000
0000
0100
0000
1000
0000
,
0012
0103
1000
0010
0100
0001
0010
0100
1000
0001
1000
0010
0100
0001
0010
0100
,
0012
0103
1000
0010
0100
0001
1000
0100
0010
0001
1000
0100
0010
0001
0100
0000
,
1000
0010
0100
0001
0010
0100
0010
0001
0010
0100
1000
0010
0100
0001
0010
0100
,
1000
0100
0010
0100
1000
0010
0100
0001
0010
0100
1000
0001
0010
0100
1000
0010
,
0100
0001
1000
0100
0010
0001
0100
0010
1000
0001
0010
0100
1000
0100
0010
0100
,
1000
0001
0010
0100
0010
0001
1000
0001
0100
0010
1000
0001
0100
0010
1000
0001
,
0010
0100
1000
0001
0010
0100
1000
0001
0010
0100
1000
0010
0100
0001
0010
0100
,
1000
0010
0100
0001
0010
0100
0010
0001
1000
0100
0010
0100
1000
0010
0100
0001
,
2000
0000
0000
0000
,
3000
0000
0000
0000
;
