#TITLE:Revolution Deathsquad;
#SUBTITLE:;
#ARTIST:Dragonforce;
#TITLETRANSLIT:;
#SUBTITLETRANSLIT:;
#ARTISTTRANSLIT:;
#CREDIT:B. Abear;
#BANNER:Bn-Death.png;
#BACKGROUND:Bg-Death.png;
#LYRICSPATH:;
#CDTITLE:;
#MUSIC:Revolution Deathsquad.ogg;
#OFFSET:-0.259;
#SAMPLESTART:83.450;
#SAMPLELENGTH:12.000;
#SELECTABLE:YES;
#BPMS:0.000=125.000,15.000=35.600,16.000=200.000;
#STOPS:360.000=1.050
,364.500=1.050
,1071.000=0.300
,1416.000=2.100
;
#BGCHANGES:;
// cache tags:
#FIRSTBEAT:0.000;
#LASTBEAT:1535.500;
#SONGFILENAME:Songs/Dragonforce/Revolution Deathsquad/Revolution Deathsquad.sm;
#HASMUSIC:1;
#HASBANNER:1;
#MUSICLENGTH:472.946;
// end cache tags

//---------------dance-single - B. Abear----------------
#NOTES:
     dance-single:
     B. Abear:
     Challenge:
     16:
     1.000,1.000,0.590,0.729,1.000,4250.000,279.000,345.000,89.000,5.000:




1001
1000
0010
0010
0100
0100
0001
0001
0010
0010
0100
0100
1000
1000
0001
0002
,
0000
0000
0013
0000
0100
0000
0100
0000
1000
0000
1000
0000
0001
0000
0001
0000
1000
0001
1000
0001
1000
0001
1000
0001
1000
0001
1000
0001
1000
0000
0020
0000
,
0000
1030
0001
0010
0010
0001
0001
0010
0010
0100
0100
1000
1000
0001
0001
1002
,
0000
0100
0013
0010
0010
0010
0010
1010
0000
1001
0000
1100
00MM
0000
MMM0
0000
,
1000
0100
1000
0000
0001
0100
0001
0000
0100
0010
0100
0000
0010
1000
0010
0000
,
0100
0001
0100
0000
0001
1000
0001
0000
1000
0100
1000
0000
0001
0010
0001
1000
,
0100
0000
0010
0000
0001
0010
0001
0000
1000
0000
0010
0000
0100
0010
0100
0000
,
0001
0000
1000
0000
0100
1000
0100
0000
0010
0000
0001
0000
1000
0001
1000
0001
,
0100
0010
0100
0010
0100
0010
1000
0010
1000
0010
1000
0010
1000
0001
1000
0001
,
0010
0001
0010
0001
0010
0001
1000
0001
1000
0001
1000
0001
0200
0000
0320
0000
,
1030
0000
0100
0000
0010
0001
0010
0000
0001
0000
1000
0000
0010
1000
0010
0000
,
0100
0001
0100
0001
1000
0000
0100
1000
0100
1000
0010
0000
0100
0010
0100
0000
,
0001
1000
0001
1000
0001
1000
0100
1000
0100
1000
0100
1000
0002
0000
0203
0000
,
0310
1000
0010
1000
0010
1000
0001
1000
0001
1000
0001
1000
0200
0000
0320
0000
,
0031
0000
1000
0000
0010
1000
0010
0000
0100
0000
0001
0000
1000
0100
1000
0000
,
0001
0100
0001
0100
0002
0000
2003
0000
3100
0010
0100
0010
0200
0000
2300
0000
,
3001
0010
0001
0010
0001
0010
0100
1000
0100
1000
0100
1000
0001
1000
0001
1000
,
0020
0000
0230
0302
0000
1003
0100
0010
,
0001
0100
0001
0100
0010
1000
0001
0100
0001
0100
0001
0100
0010
1000
0001
1000
,
0100
0010
0001
1000
0100
0010
0002
0000
1003
0010
0100
0001
1000
0010
0100
0001
,
0201
0000
0040
0000
0000
0000
0000
0330
,
0101
0000
2002
3003
4004
0000
0000
3003
,
1001
0000
M11M
0000
0000
0000
M11M
0000
1001
0000
0000
0000
0001
1000
0001
0000
,
1001
0000
M11M
0000
0000
0000
M11M
0000
1001
0000
0000
0000
1000
0001
1000
0000
,
0001
0010
0001
1000
0010
1000
0001
0100
0010
1000
0001
1000
,
0400
0000
000M
0000
0000
0000
M000
0000
0000
0000
0000
0000
00M0
0000
0000
0000
000M
0000
M000
0000
0000
0300
0000
0000
,
1000
0001
1000
0001
1000
0001
1000
0001
0100
0010
0100
0010
0100
0010
0100
0010
,
1000
0000
0200
0000
0000
0000
0310
0000
0001
0000
1000
0000
0001
0100
0010
1000
,
0100
1000
0100
1000
0100
1000
0100
1000
0001
0100
0001
0100
0001
0100
0001
0100
,
0010
0000
1000
0000
0100
0010
0002
0000
1003
0000
0001
0000
0100
0010
2000
0000
,
3001
0000
0100
0000
0010
1000
0010
0000
1000
0000
0001
0000
0010
0001
0010
0000
,
0100
0000
1000
0000
0001
1000
0001
0000
0100
0000
0010
0000
1000
0010
1000
0000
,
0001
0000
0100
0000
0010
0100
0010
0000
0100
0000
0001
0000
1000
0100
1000
0000
,
0100
1000
0100
1000
0001
0100
0001
0100
0010
1000
0010
1000
0001
0010
0001
0010
,
0001
1000
0001
1000
0001
1000
0001
1000
0010
0100
0010
0100
0010
0100
0010
0100
,
0001
0000
0020
0000
0000
0000
0130
0000
1000
0000
0001
0000
1000
0010
0100
0001
,
0010
0001
0010
0001
0010
0001
0010
0001
1000
0010
1000
0010
1000
0010
1000
0010
,
0100
0000
0001
0000
0010
0100
2000
0000
3001
0000
1000
0000
0010
0100
0002
0000
,
1003
0000
0010
0000
0100
0001
0100
0000
0001
0000
1000
0000
0100
1000
0100
0000
,
0010
0000
0001
0000
1000
0001
1000
0000
0010
0000
0100
0000
0001
0100
0001
0000
,
1000
0000
0010
0000
0100
0010
0100
0000
0010
0000
1000
0000
0001
0010
0001
0000
,
0010
0001
0010
0001
1000
0010
1000
0010
0100
0001
0100
0001
1000
0100
1000
0100
,
0010
0000
0001
0000
1000
0010
1000
0000
0001
0000
1000
0000
1100
0000
1001
0000
,
0001
0000
0100
0000
0010
1000
0010
0000
0100
0000
0001
0000
0010
0001
0010
0000
,
0100
0000
1000
0000
0001
0100
0001
0000
1000
0000
0100
0000
0010
0100
0010
0000
,
0001
0000
0100
0000
0010
1000
0010
0000
0100
0001
0100
0001
1000
0100
1000
0100
,
0010
0000
0010
0000
0001
1000
0001
0000
0100
0000
0100
0000
0010
1000
0010
0000
,
0100
0000
0100
0000
0001
1000
0001
0000
1000
0000
1000
0000
0100
1000
0100
0000
,
0010
0000
0001
0000
1000
0001
1000
0000
0010
0000
0100
0000
0001
0100
0001
0000
,
1000
0000
1100
0000
0100
0010
0001
1000
0001
0100
0001
0100
0010
1000
0010
1000
,
0001
0000
0100
0000
0001
0100
0001
0000
1000
0000
0100
0000
0010
0100
0010
0000
,
0001
0000
1000
0000
0010
0100
0010
0000
0100
0000
0001
0000
0010
0001
0010
0001
,
1001
0000
1100
0000
0100
0110
0000
0011
,
0000
0000
0001
1000
0001
0100
0010
1000
0100
0010
0001
0010
0001
1000
0100
1000
,
0001
0100
0001
0100
0001
0100
0001
0100
0001
0100
0001
0100
0001
0100
0001
0100
,
0001
0100
0001
0100
0001
0100
0001
0100
0001
0100
0001
0100
0001
0100
0001
0100
,
0010
1000
0010
1000
0001
0010
0001
0010
0100
1000
0100
1000
0001
0100
0001
0100
,
0010
1000
0010
0100
0010
1000
0010
0100
0001
1000
0001
0100
0001
1000
0001
0100
,
2002
0000
0000
3003
0000
0000
0000
0000
0000
0000
0000
0000
00M0
0000
0000
0000
0000
0000
0000
0000
M000
0000
0000
0000
0000
0000
0000
0000
0000
0000
0000
0000
0000
0000
0000
0000
000M
0000
0000
0000
0000
0000
0000
0000
0000
0220
0000
0000
,
0330
0000
M000
0000
0M00
0000
0000
0000
000M
0000
0M00
0000
,
1010
0000
0100
0000
0101
0000
1000
0000
1100
0000
0001
0000
0110
0000
0010
0100
,
0001
0000
1000
0000
0101
0000
0010
0000
1100
0000
0001
0000
0011
0000
0010
0100
,
1000
0000
1000
0000
0001
0000
0101
0000
0100
0000
0010
0000
1010
0000
0010
0100
,
1001
0001
0010
0110
0100
1000
1001
0001
,
0100
0010
1000
0001
1000
0001
0010
0100
1000
0100
1000
0001
0100
0010
1000
0001
,
0011
1001
1010
0110
,
0010
0000
0100
0000
0001
0100
0001
0000
1000
0000
0100
0000
0010
0001
0010
0000
,
0100
0000
1000
0000
0001
1000
0001
0000
0100
0000
0010
0000
1000
0010
1000
0000
,
0002
0000
1003
0100
1000
0100
0020
0000
0031
0100
0001
0100
0020
0000
0130
0001
,
0100
0001
1000
0001
1000
0000
0001
0100
0001
0000
1000
0100
1000
0001
0100
0001
,
1000
0100
1000
0100
1000
0100
1000
0100
0010
0001
0010
0001
0010
0001
0010
0001
,
1000
0010
1000
0010
1000
0010
1000
0010
0100
0001
0100
0001
0100
0001
0100
0001
,
1000
0001
1000
0001
1000
0001
1000
0001
0100
0010
0100
0010
0100
0010
0100
0010
,
1000
0100
0010
0001
1000
0100
0010
0100
1000
0001
0100
0010
1000
0001
1000
0100
,
0010
0000
0001
0000
1000
0100
1000
0000
0001
0000
0100
0000
0010
0100
0010
0000
,
1000
0000
0001
0000
0010
0001
0010
0000
0100
0000
1000
0000
0001
0100
0001
0000
,
1000
0000
0010
0000
0100
0001
0100
0000
0001
0000
1000
0000
0001
0010
0001
0000
,
1000
0000
0100
0000
1000
0100
1000
0000
0001
0000
1000
0000
0010
0100
0010
0100
,
0001
1000
0001
1000
0001
1000
0001
1000
0001
1000
0001
1000
0001
1000
0001
1000
,
0010
0100
0010
0100
0010
0100
0010
0100
0010
0100
0010
0100
0010
0100
0010
0100
,
0001
1000
0100
1000
0001
0000
1000
0001
0100
0001
1000
0000
0001
1000
0001
0000
,
1000
0100
1000
0100
0010
0001
0010
0001
1000
0010
1000
0010
0100
0001
1000
0000
,
1001
1001
0101
0101
1100
1100
0110
0110
,
0011
0011
1010
1010
0110
0110
1001
1001
,
0101
0101
0110
0110
1001
1001
0101
0101
,
0001
0010
0001
0010
0100
1000
0100
1000
0001
0100
0001
0100
0010
1000
0010
1000
,
0002
0000
2003
0000
3001
0010
0100
0000
2000
0000
3020
0000
0130
0001
1000
0000
,
0200
0000
0320
0000
0031
1000
0010
0000
0100
0001
0100
0001
1000
0100
1000
0000
,
2100
0000
3001
0201
0000
0310
1000
0001
,
0021
0000
0130
2100
0000
3010
0100
0001
,
M111
0000
0101
1100
0110
0011
1100
0220
,
0000
0000
0000
0330
1001
0000
0000
0000
1000
0000
0000
0000
0100
0000
0000
0000
0010
0000
0001
0000
0010
0000
0000
0000
0100
0000
0000
0000
1000
0000
0000
0000
,
0001
0100
0001
0000
1000
0000
0020
0000
0000
0000
0130
0000
0002
0000
0000
0000
,
1003
0000
0100
0000
0010
0001
0010
0001
0010
0001
0010
0001
1000
0100
1000
0100
,
1000
0100
1000
0100
0010
0000
0002
0000
0000
0000
1003
0000
0020
0000
0000
0000
,
0430
0000
0000
0000
0301
0000
1000
0000
0001
0010
0001
0000
1000
0000
0100
0000
,
1000
0000
0000
0010
0000
0000
1000
0000
0000
0000
0000
0000
0100
0000
0000
0000
0000
0000
0010
0000
0000
0000
0000
0000
0001
0000
0000
0000
1000
0000
0000
0000
0010
0000
0000
0000
0100
0000
0000
0000
0001
0000
0000
0000
1000
0000
0000
0000
,
0100
0000
0010
0000
0001
0000
1000
0000
0001
0010
0001
0000
1000
0000
0010
0000
,
0100
0001
0100
0000
0001
1000
0100
1000
0010
0100
0010
1000
0001
0010
0001
1000
,
0100
1000
0001
0100
0010
1000
0010
1000
0010
1000
0010
1000
0001
0100
0001
0100
,
0001
0100
0001
0100
0010
0000
2000
0000
0000
0000
3001
0000
0020
0000
0000
0030
,
1100
0000
1001
0000
0001
1000
0001
1000
0001
1000
0001
1000
0100
0010
0100
0010
,
0100
0010
0100
0010
0001
0000
2000
0000
0000
0000
3001
0000
0200
0000
0000
0000
,
0310
0000
1000
0000
1001
0000
1100
0000
0100
0010
0001
0000
0011
0000
1001
0000
,
1000
0000
0000
0010
0000
0000
0100
0000
0000
0000
0000
0000
0100
0000
0000
0000
0001
0000
0000
0000
1000
0000
0000
0000
0100
0000
0000
0000
1000
0000
0000
0000
0001
0000
0000
0000
0010
0000
0000
0000
0001
0000
0000
0000
1000
0000
0000
0000
,
0001
0000
0000
0000
0100
0000
0000
0000
0001
0000
0000
0000
1000
0000
0000
0001
0000
0000
1000
0000
0000
0010
0000
0000
0100
0000
0000
0010
0000
0000
1000
0000
0000
0001
0000
0000
0010
0000
0000
0001
0000
0000
1000
0000
0000
0100
0000
0000
,
1000
0010
0100
0001
1000
0100
0010
0001
0010
0001
1000
0010
0100
0001
1000
0001
,
0040
0000
0000
0000
0130
0000
1000
0000
0001
0100
0001
0000
1000
0000
0001
0000
,
0010
0001
0010
0000
0100
0000
1000
0000
0001
0100
0001
0000
0100
0000
0010
0000
,
1000
0001
1000
0000
0001
0000
1000
0000
0100
1000
0100
0000
0010
0000
0001
0000
,
1000
0010
1000
0000
0001
0000
0100
0000
0010
1000
0010
0000
1000
0000
0001
0000
,
0010
0100
0010
0000
0001
0000
1000
0000
0100
1000
0100
0000
0010
0000
0001
0000
,
1000
0100
1000
0000
0001
0000
0010
0000
0001
1000
0001
0000
0100
0000
0010
0000
,
1000
0010
1000
0000
0001
0000
0010
0000
0001
1000
0001
0000
1000
0000
0100
0000
,
0010
0001
0010
0000
0001
1000
0001
1000
0100
1000
0100
1000
0001
0100
0001
0100
,
0010
0100
0010
0100
0001
1000
0001
1000
0001
1000
0001
1000
0001
1000
0001
1000
,
0200
0000
0320
0000
0130
1000
0100
1000
0100
1000
0100
1000
0100
1000
0100
0010
,
0001
1000
0001
0000
1001
0000
00M0
0000
0101
0000
0000
0000
0001
0000
01M1
0000
,
0000
0000
0110
0000
0000
0000
0010
1000
0010
1000
0001
0100
0001
0100
0001
0010
,
0001
0010
0100
1000
0100
0010
0100
0010
0100
0010
0100
0010
0100
0010
0100
0010
,
0100
0010
0100
0010
0001
1000
0001
1000
0001
1000
0001
1000
0001
1000
0001
1000
,
0001
1000
0001
1000
0001
0100
0001
0100
0010
1000
0010
1000
0001
0010
0001
0010
,
0100
1000
0100
1000
0001
0100
0001
1000
0001
0100
0001
1000
0100
0010
0100
1000
,
0100
0000
0000
0010
0000
0000
0001
0000
0000
0000
0000
0000
2002
0000
0000
3003
0000
0000
0000
0000
0000
0000
0000
0000
0000
0000
0000
0000
M000
0000
0000
0000
0000
0000
0000
0000
0000
0000
0000
0000
00M0
0000
0000
0000
0000
0000
0000
0000
,
0000
0000
0000
0000
0000
0000
0220
0000
000M
0330
0000
0000
0000
0000
0000
0000
0000
0000
0000
0000
M000
0000
0000
0000
0000
0000
0000
0000
0000
0000
0000
0000
00M0
0000
0000
0000
000M
0000
0000
0000
0000
0000
0000
0000
0000
0000
0000
0000
,
0000
0000
0M00
0000
0000
0000
1010
0000
0000
0100
0000
0000
0101
0000
0000
1000
0000
0000
1100
0000
0000
0001
0000
0000
,
0110
0000
0010
0100
0001
0000
1000
0000
0101
0000
0010
0000
1100
0000
0010
0000
,
0011
0000
0001
1000
0010
0100
0010
1000
0001
0100
0001
0100
0010
1000
0001
0100
,
0001
1000
0100
1000
0001
0010
0001
0010
0100
1000
0100
1000
0001
1000
0001
1000
,
0010
0100
0001
0000
2002
0000
0000
0000
0000
0000
0000
0000
0000
0000
0000
0000
,
0000
0000
0000
0000
0000
0000
0000
3003
,
M00M
0000
0000
0000
0001
0000
1000
0000
0001
0010
0001
0000
1000
0000
0010
0000
,
1010
0000
1001
0000
0001
0000
0010
0000
0100
1000
0100
0000
0010
0000
0001
0000
,
1001
0000
0101
0000
0100
0010
1000
0100
0010
0001
0100
0010
1000
0001
1000
0001
,
0100
0010
1000
0001
1000
0100
1000
0100
0010
0001
0010
0001
1000
0010
1000
0010
,
0100
0001
0100
0001
1000
0000
0100
0000
0010
0001
0010
0000
0001
0000
1000
0000
,
0010
1000
0010
0000
0100
0000
0001
0000
1000
0001
1000
0000
0001
0000
0010
0000
,
0100
1000
0100
0000
0010
0000
0001
0000
1000
0001
1000
0000
0010
0000
0100
0000
,
0001
0100
0001
0000
1000
0100
0010
0001
1000
0100
0010
0001
1000
0010
1000
0001
,
1000
0010
1000
0001
0010
0100
0010
0100
0010
0100
0010
0100
1000
0001
1000
0001
,
1000
0001
1000
0001
0100
0001
0100
0001
0100
0001
0100
0001
1000
0010
1000
0010
,
1000
0010
1000
0010
0100
0010
0100
0010
0100
0010
0100
0010
1000
0001
1000
0001
,
1000
0001
1000
0001
0010
0000
0100
0000
1000
0001
1000
0000
0001
0000
1000
0000
,
1010
0000
1001
0000
0001
0000
0010
0000
0100
1000
0100
0000
1000
0000
0001
0000
,
0100
0001
0100
0000
0010
0000
1000
0000
0001
0010
0001
0000
1000
0000
0010
0000
,
0100
0001
0100
0000
0001
1000
0100
1000
0001
0100
0001
1000
0010
1000
0001
0100
,
0001
0010
0001
1000
0010
1000
0001
0100
0001
1000
0100
1000
0001
0100
0001
0100
,
0010
1000
0001
0000
1001
0000
1001
0000
0011
0000
0011
0000
1100
0000
1100
0000
,
0110
0110
0011
0011
1010
1010
0110
0110
,
1001
1001
0101
0101
1010
1010
0011
0011
,
1100
0000
1100
0000
1000
0100
1000
0100
0010
0001
0010
0001
1000
0010
0100
0001
,
4000
0000
0000
0000
3002
0000
0023
0000
0130
1000
0001
0000
0200
0000
0320
0000
,
1030
0001
0010
0000
0002
0000
2003
0000
3001
0010
0100
0000
1000
0001
0100
0001
,
1000
0001
0010
0100
2000
0000
0000
0000
3001
0000
0021
0000
0000
0000
0130
0000
,
1000
0001
0102
0000
1003
1200
0000
0310
,
0001
0000
0000
1000
0000
0000
0100
0000
0000
0000
0000
0000
0040
0000
0000
0004
M000
0000
0000
0000
0000
0000
0000
0000
0000
0000
0000
0000
0M00
0000
0000
0000
0000
0000
0000
0000
0M00
0000
0000
0000
M000
0000
0000
0000
0000
0000
0000
0000
,
0033
0000
0000
0000
0001
0100
0001
0100
0010
1000
0010
1000
0001
0010
0001
0010
,
0100
1000
0100
1000
0002
0000
0000
0003
1001
0000
1100
0000
0110
0000
0011
0000
,
1100
0000
1001
0000
0110
0000
0101
0000
1010
0000
0011
0000
0001
1000
0100
0010
,
0011
0000
0000
0000
1001
0000
0001
0000
0100
0000
1001
0000
0000
0000
0010
1000
,
0001
0000
0000
0000
0011
0000
0010
0000
0100
0000
1010
0000
0000
0000
0001
1000
,
0010
0000
0102
0000
1003
0100
0010
0001
,
0010
0000
0000
0001
0200
0000
0000
0000
0000
0310
0000
0000
1000
0000
0000
0001
0000
0000
0010
0000
0000
0010
0000
0000
,
0100
0000
1000
0000
1001
0000
0001
0100
0010
0000
0101
0000
0000
0000
1100
0000
,
0000
0000
0000
0000
1100
0000
0001
0100
0000
0000
1001
0000
0000
0000
1001
0000
,
0001
1000
0100
0010
0002
0000
0000
0000
0010
0000
0000
0000
1000
0000
1000
0000
,
0013
0000
0010
0100
1000
0001
0100
0001
1000
0010
0100
0001
0010
0100
1000
0100
,
0010
0001
1000
0000
1001
0000
0001
0100
0000
0000
0101
0000
0000
0000
0001
1000
,
0100
0000
0000
0000
0011
0000
0001
1000
0010
0000
0110
0000
0000
0000
0100
0001
,
1000
0000
1200
0000
0010
0000
1000
1000
,
0310
0002
0000
0000
0000
0000
0103
0000
0000
0010
0000
0000
1000
0000
0000
0001
0000
0000
1000
0000
0000
1000
0000
0000
,
0001
0000
0100
0000
1001
0000
1000
0100
0010
0000
0011
0000
0000
0000
0101
0000
,
0000
0000
0000
0000
0011
0000
0001
0100
0000
0000
1001
0000
0000
0000
1000
0100
,
0010
0000
0120
0000
0100
0000
0001
0001
,
0130
0000
1000
0000
0001
0100
0010
1000
0001
1000
0001
0010
0100
1000
0100
1000
,
0001
0000
0000
0100
0000
0000
0010
0000
0000
1000
0000
0000
0001
0000
0000
1000
0000
0000
0010
0000
0000
1000
0000
0000
0001
0000
0000
1000
0000
0000
0100
0000
0000
1000
0000
0000
0001
0000
0100
0000
0010
0000
1000
0000
0100
0000
1000
0000
,
0100
0000
0000
0010
0000
0000
0001
0000
0000
0000
1000
0000
0000
0000
0000
0100
0000
0000
0010
0000
0000
0001
0000
0000
1000
0000
0000
0001
0000
0000
0100
0000
0000
0010
0000
0000
1000
0000
0001
0000
0100
0000
0001
0000
0000
1000
0000
0000
,
0400
0000
0000
0000
0000
0000
0000
0000
0000
0300
0000
0000
0021
0000
0000
0000
0000
0000
0031
0000
0000
1000
0000
0000
0001
0000
0100
0000
0010
0000
1000
0000
0000
0100
0000
0000
0010
0000
0000
0001
0000
0000
1000
0000
0000
0100
0000
0000
,
1000
0000
0001
0000
0100
0000
0001
0000
1000
0000
0001
0000
0100
0000
0000
0010
0000
0000
1000
0000
0001
0000
1000
0000
0100
0000
0000
0010
0000
0000
0001
0000
1000
0000
0001
0000
0100
0000
0000
0000
0000
0000
0202
0000
0000
0303
0000
0000
,
0000
0000
0000
0000
0000
0000
2200
0000
0000
3300
0000
0000
1000
0000
0000
0001
0000
0000
0100
0000
0000
0010
0000
0000
1000
0000
0001
0000
0100
0000
0001
0000
0000
0000
1000
0000
0000
0000
0000
0100
0000
0000
0010
0000
0000
0001
0000
0000
,
1000
0000
0000
0000
0000
0000
0000
0000
0000
0000
0000
0000
0100
0000
0000
0000
0000
0000
0000
0000
0000
0000
0000
0000
1000
0000
0000
0000
0000
0000
0000
0000
0001
0000
0000
0000
0000
0000
0000
0000
0100
0000
0000
0000
0000
0000
0000
0000
0001
0000
0000
0000
0000
0000
0000
0000
0000
0000
0000
0000
1000
0000
0000
0000
0000
0000
0000
0000
0000
0000
0000
0000
0100
0000
0000
0000
0000
0000
0000
0000
0010
0000
0000
0000
0000
0000
0000
0000
0001
0000
0000
0000
0000
0000
0000
0000
1000
0000
0000
0000
0000
0000
0000
0000
0000
0000
0000
0000
0100
0000
0000
0000
0000
0000
0000
0000
0000
0000
0000
0000
0010
0000
0000
0000
0000
0000
0000
0000
0000
0000
0000
0000
0001
0000
0000
0000
0000
0000
0000
0000
0000
0000
0000
0000
1000
0000
0000
0000
0000
0000
0000
0000
0001
0000
0000
0000
0000
0000
0000
0000
0100
0000
0000
0000
0000
0000
0000
0000
0002
0000
0000
0000
0000
0000
0000
0000
0000
0000
0000
0000
0000
0000
0000
0000
0000
0000
0003
0000
0000
0000
0000
0000
,
1100
0000
0101
0000
0000
0000
0101
0000
1100
0000
0101
0000
0001
0100
0010
1000
,
0001
0000
0201
0000
0000
0000
0301
0000
0011
0000
0001
0000
1000
0010
1000
0000
,
1001
2001
0000
3100
0010
0010
0100
1000
,
0001
0201
0000
0310
1000
1000
1000
0001
,
0010
0001
0010
0100
1000
0001
0100
0010
,
0100
0000
0201
0000
0000
0000
0310
1000
0001
0000
0001
1000
0100
0000
0010
0001
,
0100
0000
0101
0001
1000
0100
0010
0100
,
1000
1002
0000
1003
0010
0100
0001
0100
,
0001
1000
0100
1000
0010
0100
0001
1000
,
0100
0000
0010
0000
0001
0010
0001
0010
0100
1000
0100
1000
0001
0100
0001
0100
,
0010
1000
0010
1000
0001
0000
0001
0000
1000
0000
0001
0000
0010
0000
0001
0000
,
1000
1200
0000
0310
0001
1000
0001
0100
,
0010
0100
0001
1000
0001
1000
0010
1000
,
0010
0000
1000
0000
0002
0000
1003
0100
1000
0000
0100
0010
0001
0000
1000
0001
,
0100
0100
0101
0001
1000
0100
0010
0001
,
0010
0012
0000
1003
0010
0100
0010
0100
,
0001
0100
0001
1000
1000
0100
0010
0100
,
1000
0000
0001
0000
1000
0010
1000
0001
0010
0100
1000
0100
0010
0100
1000
0001
,
0100
0000
0000
0010
0000
0000
0100
0000
0000
0010
0000
0000
1000
0000
0000
0000
0000
0000
1000
0000
0000
0000
0000
0000
0001
0000
0000
0000
0000
0000
0001
0000
0000
0000
0000
0000
1000
0000
0000
0000
0100
0000
0000
0000
0010
0000
0000
0000
,
0001
0000
0000
2000
0000
0000
0000
0000
0000
3001
0000
0000
0101
0000
0100
0000
0010
0000
1000
0000
0000
0001
0000
0000
,
0020
0000
0230
0000
2300
0000
3001
0100
,
0010
1000
0010
0100
0001
0100
0001
1000
,
0200
0000
0310
0001
0200
0000
0310
1000
,
0200
0000
0000
0000
0000
0000
0310
0000
0000
0001
0000
0000
1000
0000
0000
0001
0200
0000
0000
0000
0000
0020
0000
0000
,
0300
0000
0000
0000
0130
0000
0001
1000
0001
0000
0010
0000
0001
1000
0001
0000
,
0100
0010
0100
0000
0010
1000
0001
1000
0100
0010
0001
0010
0001
1000
0010
0100
,
0001
1000
0100
0010
0002
0000
M100
0000
0100
0000
M100
0000
0103
0000
0000
0000
,
1001
0000
2000
010M
0100
010M
3100
0000
,
0011
0000
0020
010M
0100
010M
0130
0000
,
1100
0000
2000
0M10
0010
0M10
3010
0200
,
0001
0000
0302
0010
1M00
0010
0013
0000
,
1001
0000
0200
0001
M010
0001
0301
0000
,
0011
0000
0020
0100
M001
0100
0130
0000
,
1100
0000
0000
0000
1000
0100
0010
0001
1000
0001
0100
0010
1000
0001
0010
0100
,
1000
0001
0100
0010
2000
0000
3002
0000
0203
0000
0320
0000
2030
0000
3200
0000
,
0320
0032
0000
2003
3020
0230
0302
2003
,
3200
0320
0230
2300
3002
0203
0320
2030
,
3002
2003
3200
0320
0032
2003
0000
0000
,
0000
0000
3002
0023
0032
2003
3020
0230
,
0302
0023
0000
0230
2300
3002
0023
0032
,
2003
0000
3002
0000
0013
0100
1000
0001
2000
0000
3020
0000
0230
0000
0302
0000
,
2003
0000
3002
0000
1003
0100
1000
0100
0010
0001
1000
0100
1000
0100
0010
0001
,
1000
0100
1000
0100
0020
0000
0032
0000
2003
0000
3020
0000
0230
0000
0302
0000
,
2003
3200
0000
0320
0032
2003
3020
0230
,
0302
0203
0320
2030
3002
2003
3200
0320
,
0032
0000
0023
0000
0230
0000
1300
0001
0100
0000
0100
0001
1000
0000
0010
0100
,
0001
0001
2000
3200
0320
0032
2003
3020
,
0230
0302
0000
2003
3020
0230
0302
0203
,
0320
0230
0302
2003
3002
0203
0320
0230
,
0302
0000
2003
0000
3100
0010
0001
1000
0001
0100
0010
1000
0001
1000
0001
0010
,
0100
0000
0000
1000
0000
0000
0001
0000
0000
0000
0000
0000
1001
0000
0000
0000
0000
0000
0001
0000
0000
0000
0000
0000
0100
0000
0000
0000
0000
0000
0100
0000
0000
0000
0000
0000
0010
0000
1000
0000
0010
0000
1000
0000
0000
0000
0000
0000
,
0001
0000
0000
1001
0000
0000
1000
0000
0000
0001
0000
0000
0010
0001
0010
0001
0000
0000
1000
0001
1000
0001
0000
0000
,
0100
0001
0100
0001
0000
0000
0101
0000
0000
0100
0000
0000
0010
0000
0000
1000
0000
0000
0001
1000
0001
1000
0000
0000
,
0010
0100
0010
0100
0000
0000
0110
0000
0000
0000
1010
0000
0000
0000
0000
2002
0000
0000
0000
0000
0000
3113
0000
0000
,
1001
0000
0000
0000
0000
0000
0011
0000
0000
0001
0010
0100
1000
0000
0000
0001
0000
0000
1000
0010
1000
0010
0000
0000
,
0100
0000
0000
0101
0000
0000
0001
0000
0000
1000
0000
0000
0001
0010
0001
0010
0000
0000
0100
1000
0100
1000
0000
0000
,
0001
1000
0001
1000
0000
0000
1010
0000
0000
0010
0100
0001
1000
0000
0000
0100
0000
0000
1000
0100
1000
0100
0000
0000
,
0010
0000
0001
0000
0010
0000
0001
0000
0000
0000
0000
0000
0011
0000
0000
0000
0000
0000
0000
0000
1001
0000
0000
0000
0000
0000
0000
0000
0000
0000
0202
0000
0000
0000
0000
0000
0000
0000
0000
0000
0000
0000
0313
0000
0000
1000
0000
0000
,
0100
0010
0001
0000
1001
0MM0
0000
M00M
M00M
M00M
0000
0MM0
1001
0MM0
0000
M00M
,
M00M
M00M
0000
0MM0
1000
0100
0010
0001
1000
0001
0100
0010
0200
0000
0302
0000
,
2003
0000
3002
0000
0103
0010
1000
0001
0100
0001
1000
0100
2000
0000
3002
0000
,
0203
0000
0302
0000
1003
0100
0010
0001
1000
0100
0010
0100
0020
0000
0032
0000
,
2003
0000
3020
0000
0130
0001
0100
0001
1000
0100
0010
0001
1000
0010
1000
0010
,
0100
0001
1000
0001
1000
0100
0010
0001
0010
0100
1000
0001
0100
0001
0010
0100
,
1000
0010
0100
0010
1000
0001
1000
0100
0010
0001
1000
0001
0100
0010
1000
0001
,
2000
0000
0000
0000
3001
0010
0100
1000
0001
0100
0001
1000
0010
0100
0001
1000
,
0001
0010
0100
1000
0001
0100
0001
0100
0010
1000
0001
0010
0001
0010
0100
1000
,
0002
0000
0000
0000
0000
0000
2003
0000
0000
3200
0000
0000
0310
0000
0001
0000
1000
0000
0020
0000
0000
0230
0000
0000
,
0301
0000
0000
0000
1000
0000
0000
0000
0100
0000
0000
0000
2000
0000
0000
0000
0000
0000
3002
0000
0000
0000
0000
0000
0103
0000
0000
0000
0010
0000
0000
0000
1000
0000
0000
0000
0001
0000
0000
0010
0000
0000
0100
0000
0000
1000
0000
0000
,
0002
0000
0000
0000
0000
0000
2003
0000
0000
3200
0000
0000
0310
0000
0001
0000
1000
0000
0002
0000
0000
0203
0000
0000
,
0310
0000
0000
0000
1000
0000
0000
0000
0100
0000
0000
0000
0010
0000
0000
0001
0000
0000
1000
0000
0000
0001
0000
0000
1000
0000
0000
0010
0000
0000
1000
0000
0000
0001
0000
0000
0010
0000
0000
0100
0000
0000
1000
0000
0000
0001
0000
0000
,
1000
0000
0000
0010
0000
0000
0100
0000
0000
0001
0000
0000
2000
0000
0000
0000
0000
0000
3020
0000
0000
0000
0000
0000
0130
0000
0000
0000
0001
0000
0000
0000
1000
0000
0000
0000
0002
0000
0000
0000
0000
0000
2003
0000
0000
0000
0000
0000
,
3001
0000
0000
0000
0010
0000
0000
0000
0100
0000
0000
0000
2000
0000
0000
0000
0000
0000
3002
0000
0000
0000
0000
0000
0103
0000
0000
0000
0010
0000
0000
0000
0100
0000
0000
0000
0001
0000
0000
1000
0000
0000
0100
0000
0000
1000
0000
0000
,
0002
0000
0000
0000
0000
0000
2003
0000
0000
3020
0000
0000
0130
0000
0001
0000
0010
0000
0200
0000
0000
2300
0000
0000
,
3001
0000
0000
0000
0100
0000
0000
0000
0001
0000
0000
0000
1000
0000
0000
0100
0000
0000
0010
0000
0000
0001
0000
0000
1000
0000
0000
0001
0000
0000
1000
0000
0000
0100
0000
0000
0010
0000
0000
0001
0000
0000
1000
0000
0000
0001
0000
0000
,
0200
0000
0000
0000
0310
1000
0001
1000
0100
0010
0001
1000
0001
0000
0101
0000
,
1001
0000
1010
0000
0010
1000
0001
1000
0100
1000
0100
0010
0001
0000
0011
0000
,
0110
0000
0011
0000
0010
0100
1000
0001
0100
0001
1000
0100
0010
0000
0011
0000
,
1001
0000
0101
0000
0100
0001
0100
0010
1000
0001
1000
0100
0010
0001
1000
0001
,
0200
0000
0320
0000
1030
0100
1000
0100
0010
0001
0010
0001
1000
0010
0100
0001
,
1000
0001
0010
0100
1000
0001
1000
0001
0100
0010
0100
0010
1000
0001
0100
0001
,
0020
0000
0000
0000
0031
1000
0001
1000
0100
0010
0001
0010
0001
1000
0010
0100
,
0001
1000
0100
0010
0001
0100
0001
0100
0010
1000
0010
1000
0001
0010
0001
0010
,
0100
1000
0100
0000
2200
0000
0000
3300
0001
0000
2200
0000
0000
3300
0001
0000
,
1001
0000
0000
0000
0101
0000
0110
0000
0000
0000
2020
0000
0000
3030
0001
0000
,
1001
0000
0000
0000
0000
0000
0000
0000
0000
0000
0000
0000
1000
0000
0000
0100
0000
0000
0010
0000
0000
0001
0000
0000
1000
0000
0000
0000
0000
0000
0000
0000
0001
0000
0000
0000
0000
0000
0000
0000
1000
0000
0000
0000
0000
0000
0000
0000
,
0001
0000
0000
0000
0000
0000
0000
0000
1000
0000
0000
0000
20M2
0000
0000
0000
0000
0000
0000
0000
0000
0000
0000
0000
3M03
0000
0000
0000
0000
0000
0001
0000
0000
1000
0000
0000
2MM2
0000
0000
3003
0000
0000
0000
0000
0000
0000
0000
0000
,
0001
0000
0100
0000
0010
1000
0010
0000
1000
0000
0001
0000
0010
0001
0010
0000
,
0100
0000
1000
0000
0001
1000
0001
0000
1000
0000
0010
0000
0100
0010
0100
0000
,
0001
0000
0100
0000
0001
0100
0001
0000
1000
0000
0100
0000
0010
0001
0010
0000
,
0001
0000
1000
0000
0100
1000
0100
0000
0010
0000
0001
0000
1000
0001
1000
0001
,
0200
0320
2030
3002
2003
3200
0320
0032
,
2003
0000
3200
0000
0310
0001
1000
0001
0200
0000
0320
0000
0230
0000
0000
0000
,
0301
0100
0001
0100
0001
0100
0001
0100
0001
1000
0001
1000
0001
1000
0001
1000
,
0010
0100
0010
0100
0010
0100
0010
0100
0001
0100
0001
0100
0001
0100
0001
0100
,
0010
0000
0000
0000
1000
0000
0000
0000
0010
0000
0000
0000
0100
0000
0000
0000
0001
0000
0000
0000
0100
0000
0000
0000
0010
0000
0000
1000
0000
0000
0010
0000
0000
1000
0000
0000
0001
0000
0000
0010
0000
0000
0001
0000
0000
0010
0000
0000
,
0100
1000
0001
0100
0001
1000
0100
1000
0100
0010
0001
1000
0004
0000
0000
0000
,
1003
0000
0010
0100
0001
1000
0001
0010
0100
1000
0001
1000
0001
0100
0001
0100
,
0001
0010
0001
0010
0100
1000
0100
1000
0001
0100
0001
0100
0020
0000
0000
0000
,
1030
0000
0000
0100
0000
0000
0010
0000
0000
0001
0000
0000
1000
0000
0000
0100
0000
0000
0010
0000
0000
0001
0000
0000
1000
0000
0200
0000
0000
0000
0000
0000
0000
0000
0000
0000
0310
0000
0002
0000
0000
0000
0000
0000
0000
0000
0000
0000
,
1003
0000
0000
0010
0000
0000
0100
0000
0000
0001
0000
0000
1000
0000
0000
0010
0000
0000
0100
0000
0000
0001
0000
0000
1000
0000
0020
0000
0000
0000
0000
0000
0000
0000
0000
0000
0130
0000
0002
0000
0000
0000
0000
0000
0000
0000
0000
0000
,
1003
0010
0100
0001
1000
0001
1000
0100
0010
0001
1000
0100
0010
0100
1000
0001
,
0100
0010
0100
0010
1000
0001
1000
0001
0100
0010
0100
0010
1000
0001
1000
0001
,
0200
0000
0310
1000
0001
1000
0100
0010
0002
0000
1003
0100
0010
0001
1000
0001
,
0200
0000
0310
1000
0001
1000
0100
0010
0002
0000
1003
0010
0200
0000
0000
0000
,
0310
0100
0010
0100
0001
0100
0001
0100
0010
1000
0010
1000
0010
0100
0010
0100
,
M0M4
0000
4MM3
0000
,
3001
0000
0001
0000
0100
0010
0100
0000
0001
0000
0001
0000
0010
0100
0010
0000
,
0100
1000
0001
1000
0001
0010
0100
1000
0010
1000
0010
1000
0001
0100
0010
0100
,
0001
1000
0001
1000
0100
0010
0001
0010
0001
1000
0001
1000
0100
0010
0001
1000
,
0010
0100
0010
0100
0001
1000
0010
1000
0010
0100
0010
0100
0001
1000
0010
1000
,
0020
0000
0000
0230
0000
0000
0302
0000
,
2003
3200
0000
0320
0000
0000
0032
0000
,
1003
0010
0100
0001
1000
0001
0010
0100
1000
0001
0010
0100
1000
0001
0100
0010
,
1000
0100
1000
0100
1000
0100
1000
0100
0010
0001
0100
0010
0200
0000
0000
0000
,
0302
0000
1003
0100
1000
0010
0100
0010
0200
0000
0301
1000
0001
0010
0100
1000
,
0001
0100
0001
0100
0010
1000
0010
1000
0001
0010
0002
0000
2003
0000
3000
0000
,
0001
0100
0001
0100
0002
0000
1003
0100
1000
0100
2000
0000
3010
0100
0010
0000
,
0110
1010
1001
0011
0220
0330
2002
3003
,
0101
0000
1001
0000
1000
0100
1000
0000
1100
0000
0011
0000
0001
0100
0001
0000
,
0101
0000
0110
0000
0010
1000
0010
0000
1010
0000
2002
0000
3003
0000
1001
0000
,
1100
0100
0010
0001
1000
0001
1000
0010
0100
0001
1000
0100
,
0010
0000
0000
0000
0001
0000
0000
0000
1000
0000
0000
0000
0001
0000
0000
0000
1000
0000
0000
0000
0010
0000
0000
0000
0100
0000
0000
0000
0000
0000
2020
0000
0000
0000
0000
0000
0000
0000
0000
3030
0000
0000
0000
0000
0000
0000
0000
0000
,
2001
0000
3001
0010
0001
1000
0100
1000
0001
0010
0001
1000
0010
1000
0001
0100
,
0001
1000
0100
1000
0001
0010
0001
1000
0001
0000
2002
0000
0000
3003
0101
0000
,
1001
1000
0100
0010
0001
0010
0100
1000
0001
2002
0000
3003
,
0001
0100
0001
0100
0010
1000
0001
0100
0001
0100
0010
1000
0002
0000
0000
0003
,
1100
0000
0100
0000
0010
0000
0001
0000
1001
0000
1000
0000
0010
1000
0010
0000
,
0100
0000
0000
0000
0001
0000
0000
0000
1000
0000
0100
0000
1000
0000
0000
0000
0001
0000
0100
0000
0001
0000
0100
0000
0002
0000
0000
0000
0000
0000
0000
0003
,
1000
0100
0010
0001
1000
0001
0100
0010
1000
0001
0100
0001
1000
0100
0010
0001
,
1000
0010
0100
0001
1000
0100
0010
0001
0010
0100
1000
0001
2000
0000
0000
0000
,
3001
0000
0000
0000
0100
0000
0010
0000
0000
1000
0000
0000
0001
0000
0000
1000
0000
0000
0100
0000
0010
0000
0000
0000
0001
0000
0000
1000
0000
0000
0001
0000
0000
0100
0000
0000
0010
0000
0000
0100
0000
0000
0001
0000
0000
1000
0000
0000
,
0100
0000
0000
0010
0000
0000
0100
0000
0000
0010
0000
0000
0001
0000
0000
1000
0000
0000
0001
0000
0000
1000
0000
0000
0010
0000
0100
0000
0000
0000
0001
0000
0000
1000
0000
0000
0001
0000
0000
0010
0000
0000
0100
0000
0000
1000
0000
0000
,
0002
0003
0000
0000
2002
3003
0000
0000
2022
3033
0000
0000
2222
3333
0000
0000
,
0001
0100
0001
0100
0020
0000
0000
0000
1030
0100
1000
0100
0020
0000
0000
0000
,
0031
0000
1000
0000
0001
0010
0001
0000
1000
0000
0100
0000
0010
0100
0010
0000
,
0001
0000
1000
0000
0010
1000
0010
0000
0100
0000
0001
0000
1000
0100
1000
0000
,
0001
0100
0001
0100
0001
0100
0001
0100
0010
0100
0010
0100
0010
0100
0010
0100
,
0002
2003
0000
3200
0000
0320
0000
0000
,
0031
0000
0000
0000
1000
0000
0000
0000
0100
0000
0000
0000
0010
0000
0000
0001
0000
0000
1000
0000
0000
0010
0000
0000
1000
0000
0000
0001
0000
0000
0100
0000
0000
0010
0000
0000
0100
0000
0000
0001
0000
0000
1000
0000
0000
0001
0000
0000
,
0010
0000
0000
0000
0100
0000
0000
0000
1000
0000
0000
0000
0001
0000
0000
0000
0100
0000
0000
0000
0010
0000
0000
0000
1000
0000
0000
0001
0000
0000
0100
0000
0000
0001
0000
0000
1000
0000
0000
0100
0000
0000
0010
0000
0000
0001
0000
0000
,
2000
3200
0320
0032
2003
3002
0203
0320
,
1030
0001
1000
0001
0100
0010
0100
0010
1000
0001
1000
0001
0010
0100
0010
0100
,
1000
0001
1000
0010
0100
0010
1000
0001
1000
0100
0010
0001
0010
0001
0100
0010
,
1000
0010
0100
0010
1000
0001
1000
0100
0010
0001
0010
0100
1000
0001
0100
0010
,
1000
0001
1000
0100
0010
0100
1000
0001
0100
0010
0100
0001
0100
0010
1000
0001
,
0010
0001
1000
0001
0010
0100
1000
0100
0010
0100
1000
0001
0100
0010
1000
0001
,
1000
0010
0100
0001
1000
0010
0100
0001
1000
0100
0010
0001
,
2000
0000
3020
0000
0000
0000
0230
0000
0301
1000
0100
0010
0002
0000
0000
0000
,
1003
0100
1000
0100
1000
0100
0010
0001
1000
0100
1000
0100
0010
0001
1000
0100
,
0010
0001
0010
0001
0200
0000
0000
0000
0310
1000
0010
1000
0200
0000
0000
0000
,
0310
0001
0010
0001
0010
0001
0010
0001
0010
0001
0010
0001
1000
0001
1000
0001
,
0010
0001
0010
0001
0010
0001
1000
0010
1000
0010
1000
0010
0100
0001
0100
0001
,
1000
0100
1000
0100
1000
0100
1000
0100
1000
0100
1000
0100
0010
0001
0010
0001
,
1000
0000
0000
0010
0000
0000
1000
0000
0000
0010
0000
0000
1000
0000
0000
0010
0000
0000
1000
0000
0000
0010
0000
0000
1000
0000
0000
0M00
0000
0000
000M
0000
0000
0000
0000
0000
M000
0000
0000
0000
0M00
0000
0000
0000
00M0
0000
0000
0000
,
0001
0100
0001
0100
0001
0100
0001
0100
0001
0100
0001
0100
0010
1000
0010
1000
,
0001
1000
0001
1000
0001
1000
0100
1000
0100
1000
0100
1000
0001
0010
0001
0010
,
0100
1000
0100
1000
0001
0100
0010
1000
0010
1000
0001
1000
0100
0010
0001
1000
,
0100
0010
0100
0010
0001
1000
0001
1000
0010
0100
0010
0100
0001
1000
0001
1000
,
0001
0100
0001
0100
0001
0100
0001
0100
0001
0100
0001
0100
0010
1000
0010
1000
,
0001
0010
0001
0010
0001
0010
0100
0010
0100
0010
0100
0010
0100
1000
0100
1000
,
0001
0100
0001
0100
0001
0100
0001
0100
0001
0100
0001
0100
0010
1000
0010
1000
,
0001
0000
0000
0010
0000
0000
0001
0000
0000
0010
0000
0000
0001
0000
0000
0010
0000
0000
0001
0000
0000
0010
0000
0000
0001
0000
0000
0M00
0000
0000
0000
0000
0000
000M
0000
0000
0000
0000
0000
0000
0000
0000
00M0
0000
M000
0000
0000
0000
,
1000
0100
1000
0100
1000
0100
1000
0100
1000
0100
1000
0100
0010
0001
0010
0001
,
1000
0010
1000
0010
1000
0010
0100
0001
0100
0001
0100
0001
1000
0001
1000
0001
,
0100
0010
0100
0010
0100
0010
0100
0010
0100
0010
0100
0010
1000
0001
1000
0001
,
0100
0010
0100
0010
1000
0001
0100
0010
0100
0010
1000
0100
0010
0001
1000
0001
,
0100
0000
0010
0000
1000
0001
1000
0000
0100
0000
0010
0000
0001
0010
0001
0000
,
1000
0000
0010
0000
0100
0010
0100
0000
0001
0000
1000
0000
0100
1000
0100
0000
,
0010
0000
0001
0000
1000
0010
1000
0000
0001
0000
0100
0000
0001
1000
0001
0000
,
1000
0100
1000
0000
0001
0100
0001
0000
1000
0010
1000
0000
0001
0100
0001
0000
,
1000
0100
0010
0001
1000
0100
1000
0100
0010
0001
1000
0100
1000
0100
0010
0001
,
1000
0010
1000
0010
0100
0001
0100
0001
1000
0100
1000
0100
0010
0001
1000
0000
,
2002
3003
0000
0000
1000
0000
0010
0000
0100
0001
0100
0000
0001
0000
1000
0000
,
0100
1000
0100
0000
0010
0000
0001
0000
1000
0001
1000
0000
0010
0000
0100
0000
,
0001
0100
0001
0000
1000
0001
1000
0001
0100
0010
1000
0001
1000
0001
0100
0010
,
1000
0001
1000
0010
0100
0001
0100
0001
1000
0100
1000
0100
0010
0001
0010
0001
,
1000
0010
1000
0010
1000
0000
0001
0000
0100
0001
0100
0000
0010
0000
1000
0000
,
0001
1000
0001
0000
1000
0000
0100
0000
1000
0100
1000
0000
0001
0000
1000
0000
,
0001
0100
0001
0000
1000
0000
0100
0000
0010
0100
0010
0000
0001
0000
1000
0000
,
0010
1000
0010
0000
0100
0001
1000
0010
1000
0001
0100
0010
0100
0001
0100
0010
,
1000
0010
1000
0001
1000
0000
0001
0000
1000
0100
1000
0000
0001
0000
0010
0000
,
0100
0010
0100
0000
0010
0000
0001
0000
1000
0010
1000
0000
0001
0000
0100
0000
,
0001
0100
0001
0000
1000
0100
1000
0100
1000
0100
1000
0100
0010
0001
0010
0001
,
0010
0001
0010
0001
1000
0010
1000
0010
1000
0010
1000
0010
0100
0001
0100
0001
,
0100
0001
0100
0001
1000
0000
0100
0000
0010
0001
0010
0000
0001
0000
1000
0000
,
0010
1000
0010
0000
0100
0000
0001
0000
1000
0100
1000
0000
0001
0000
0010
0000
,
0100
1000
0100
0000
0440
0000
0000
0000
0000
0000
0000
0000
0000
0000
0000
0330
,
0000
0000
0000
0010
0001
4000
0004
0000
0000
0000
0000
0000
0000
0000
0000
0000
0000
0000
0000
0000
0000
0000
0000
0000
,
3003
0000
0000
0000
1000
0001
0100
0001
1000
0001
0100
0001
0100
0010
1000
0010
,
0100
0010
1000
0010
0100
0001
1000
0001
0100
0001
1000
0001
1000
0100
0010
0001
,
1000
0100
0010
0001
1000
0010
1000
0001
1000
0010
1000
0001
0010
0001
1000
0010
,
0100
0001
1000
0100
0010
0001
0100
0001
1000
0100
0010
0001
1000
0100
1000
0100
,
0010
0001
0010
0001
0100
0010
0100
0001
0100
0010
0100
0001
1000
0100
0010
0100
,
1000
0100
0010
0100
1000
0001
1000
0001
0100
0010
1000
0001
1000
0001
0100
0010
,
1000
0001
1000
0001
0100
0010
0100
0010
0100
0000
0000
0000
0010
1000
0010
1000
,
0010
0000
0000
0000
1000
0010
1000
0010
1000
0000
0000
0000
0001
0010
0001
0010
,
0001
0000
0000
0000
0001
1000
0001
0100
0001
1000
0100
1000
0001
0010
0001
1000
,
0010
1000
0001
0100
0001
0100
0001
0100
0010
1000
0010
1000
0001
0010
0001
0010
,
0100
1000
0100
0000
1100
0000
0101
0000
0110
0000
1100
0000
0011
0000
0110
0000
,
0011
1100
0110
0011
1001
0101
0110
1001
,
0011
1100
4004
0000
0000
0000
0000
0000
,
0000
3003
0110
2002
0000
0000
0000
3003
;

//---------------dance-single - Blank----------------
#NOTES:
     dance-single:
     Blank:
     Hard:
     13:
     0.243,0.280,0.057,0.082,0.270,736.000,27.000,39.000,83.000,0.000:

0001
0001
1000
1000
0100
0100
0010
0010
0001
0001
1000
1000
0010
0010
0100
0002
,
0000
1003
0100
0100
0010
0010
0001
0001
1000
1000
0100
0100
1000
1000
0001
0200
,
0000
0310
1000
1000
0001
0001
0010
0010
0100
0100
1000
1000
0001
0001
1000
0200
,
0000
1300
0001
1000
0001
1000
0001
0100
0000
0100
0000
0100
0000
0000
0000
0000
,
M002
0M00
00M0
2M03
000M
00M0
320M
M000
,
032M
0M00
M000
0M32
00M0
M000
1003
0010
,
0100
0000
0001
0000
1000
0100
1000
0000
0001
0000
0010
0000
0001
1000
0001
0000
,
0100
0000
0010
0000
1000
0001
1000
0000
0001
0000
0010
0000
0001
1000
0001
1000
,
02M0
000M
M000
032M
0M00
M000
0M32
00M0
,
2M03
000M
00M0
3M20
000M
0130
0001
1000
,
0010
0000
0100
0000
0001
0100
0001
0000
1000
0000
0100
0000
0010
0001
0010
0000
,
0001
1000
0001
1000
0010
0100
0001
1000
0001
1000
0010
0100
0001
1000
0010
0100
,
M002
00M0
0M00
M023
0M00
000M
M230
000M
,
23M0
000M
0M00
30M4
M000
00M0
1003
0100
,
1000
0000
0010
0000
0100
0001
0100
0000
0010
0000
1000
0000
0001
1000
0001
0000
,
0100
0010
0100
0010
1000
0001
1000
0001
0100
0010
0100
0010
1000
0001
1000
0001
,
0M20
000M
M000
023M
M000
00M0
230M
00M0
,
3M02
00M0
M103
002M
0M00
1030
0100
0010
,
0001
0010
0100
1000
0001
0010
0100
1000
0001
0010
0100
1000
0001
0010
0100
1000
,
0001
0100
0001
0100
0001
1000
0001
1000
0001
0100
0001
0100
0010
0100
0010
0000
,
1001
0M00
000M
M000
0M00
00M0
000M
00M0
,
1100
0000
011M
M000
0M00
00M0
000M
M000
,
0011
0000
1001
0000
0000
0000
1010
0000
0110
0000
0000
0000
0010
0100
0001
0000
,
0101
0000
1001
0000
0000
0000
1100
0000
0110
0000
0000
0000
0010
0001
1000
0000
,
0001
0010
0100
1000
0100
0010
0001
0010
0100
1000
0100
0010
,
0004
4000
0000
0000
0000
0000
0000
0000
0000
0000
0000
0000
0000
0000
0000
3003
,
0010
0000
1000
0000
0001
1000
0001
0000
1000
0000
0100
0000
0010
0001
0010
0000
,
0001
0000
2000
0000
0000
0000
3010
0000
0100
0001
0100
0000
0010
0000
1000
0000
,
0001
0010
0100
1000
0001
0100
0001
1000
0010
1000
0001
0010
0001
1000
0100
1000
,
0001
0000
0200
0000
0000
0000
0310
0000
1000
0010
1000
0000
0004
0000
0000
0000
,
2M03
00M0
0M00
00M0
,
3001
0000
0000
0001
0000
0100
0000
0010
0000
1000
0000
0001
0000
1000
0000
0100
0000
0000
0010
0000
0000
0001
0000
0000
,
02M0
M000
00M0
M000
,
0301
0100
0010
1000
0001
0100
0010
1000
0001
0100
0010
1000
0001
0100
0010
1000
,
0001
0100
0001
0100
0001
0100
0001
0100
0001
0100
0001
0100
0001
0100
0001
0100
,
0010
0000
2000
0000
0000
0000
3001
0000
0010
0100
1000
0000
0001
0000
1000
0000
,
0001
0010
0001
0010
0001
0010
0001
0010
0001
0010
0001
0010
0001
0010
0001
0010
,
0100
0000
4000
0000
0000
0000
3001
0000
0100
0010
0100
0010
1000
0000
0001
0000
,
1000
0000
0100
0000
0010
0001
0010
0000
0001
0000
1000
0000
0010
0100
0010
0000
,
1000
0000
0000
1000
0000
0010
0000
0100
0000
0001
0000
1000
0000
0100
0000
0010
0000
0000
0001
0000
0000
1000
0000
0000
,
0001
0100
0001
0000
1000
0001
1000
0000
0100
1000
0100
0000
0010
0001
0010
0001
,
1000
0100
1000
0100
1000
0001
1000
0001
0100
0001
0100
0001
0100
0010
0100
0010
,
2000
0000
0000
0000
3001
0001
0100
0100
,
0020
0000
0000
1030
0002
0000
2003
0000
,
3001
0000
0100
0000
0010
1000
0010
0000
0100
0000
0001
0000
1000
0001
1000
0000
,
0001
0000
0010
0000
0100
1000
0100
0000
1000
0001
1000
0001
0100
0001
0100
0001
,
1000
0100
1000
0001
0100
0001
1000
0010
1000
0000
0001
0010
0001
1000
0001
0100
,
0001
0000
1000
0010
1000
0001
1000
0100
1000
0000
0001
0100
0001
1000
0001
0010
,
0200
0000
0000
0000
,
1300
0010
1000
0001
0010
0100
1000
0001
0010
0001
1000
0010
0100
0000
0100
0000
,
0002
0000
0000
0000
0000
0000
1003
1000
,
0200
0000
0000
0000
0000
0000
0000
0000
0000
0000
0000
0000
1300
0001
0100
0000
,
0101
0000
0110
0000
0010
1010
0000
2002
,
0000
0003
3001
0010
0100
1000
0001
0100
0001
0100
0010
1000
0001
0000
0000
0000
,
1001
0000
1000
0000
0010
0000
0100
0000
0001
0000
1000
0000
0100
0000
0010
0001
,
1000
0000
0010
0000
0100
0000
0001
0000
1000
0000
0001
0000
0100
0000
0010
1000
,
0001
0010
0100
1000
0100
1000
0001
0010
0100
1000
0100
1000
0001
1000
0001
1000
,
0010
0100
0001
1000
0001
1000
0010
0100
0001
1000
0001
1000
0001
0010
0100
1000
,
0001
0000
0000
0000
0000
0000
0000
0000
0000
0000
0000
0000
0000
0000
0000
1001
,
0000
0000
0000
0000
,
1001
0000
0001
0000
0010
0000
0100
0000
1000
0000
0001
0000
0100
0000
0010
1000
,
0001
0000
0010
0000
0100
0000
1000
0000
0001
0000
0010
0000
0001
0000
1000
0010
,
0100
0000
0100
0000
0001
0000
1000
0000
1000
0000
0001
0000
0010
0000
0001
1000
,
0100
0100
0010
0001
0001
1000
0010
0100
,
0001
0010
0100
1000
0001
0010
0100
1000
0001
0010
0100
1000
0001
0010
0100
0000
,
11MM
M11M
MM11
1MM1
,
0001
0000
1000
0000
0010
0100
0010
0000
0100
0000
0001
0000
1000
0100
1000
0000
,
0001
0000
0010
0000
0100
1000
0100
0000
0010
0000
0001
0000
1000
0010
1000
0000
,
0001
0100
0010
1000
0010
1000
0001
0100
0010
1000
0010
1000
0001
0100
0010
1000
,
0001
0010
0001
0010
0100
0010
0100
0010
0001
0010
0001
0010
0001
1000
0001
1000
,
0010
0100
0001
1000
0100
1000
0001
0010
,
0100
1000
0001
1000
0010
0100
0001
1000
,
0020
0000
0000
0000
,
0130
0001
1000
0000
0001
0010
0100
1000
0001
0100
0010
0000
0100
0001
1000
0000
,
1001
0000
0001
0000
0010
0001
0010
0000
0100
0000
1000
0000
0100
1000
0100
0000
,
0010
0000
0001
0000
1000
0001
1000
0000
0010
0000
0100
0000
0001
0100
0001
0000
,
2000
0000
0000
0000
0000
0000
3100
0100
,
0020
0000
0000
0000
0000
0000
0031
1000
0010
0100
0001
1000
,
0010
0100
0001
1000
0001
1000
0010
0100
0001
1000
0001
1000
0100
0010
0001
1000
,
0100
0010
0001
1000
0001
1000
0100
0010
0001
1000
0001
1000
0010
0100
0001
1000
,
0010
0100
0010
0100
0000
0000
0000
0000
0000
0000
0000
0000
0000
0000
0000
0000
;
