#TITLE:Mega au Toki;
#SUBTITLE:;
#ARTIST:Kisaragi Chihaya;
#TITLETRANSLIT:;
#SUBTITLETRANSLIT:;
#ARTISTTRANSLIT:;
#CREDIT:ALICE_;
#BANNER:Mega au Toki.png;
#BACKGROUND:Mega au Toki.jpg;
#LYRICSPATH:;
#CDTITLE:cdtitle.png;
#MUSIC:Mega au Toki.mp3;
#OFFSET:-0.775;
#SAMPLESTART:83.740;
#SAMPLELENGTH:12.000;
#SELECTABLE:YES;
#DISPLAYBPM:145.000;
#BPMS:0.000=145.000,301.000=36.250,301.500=1000000.000,303.750=36.250,304.000=145.000;
#STOPS:;
#BGCHANGES:;
// cache tags:
#FIRSTBEAT:4.000;
#LASTBEAT:652.000;
#SONGFILENAME:Songs/alice 4th complete step/Mega au Toki/Mega au Toki.sm;
#HASMUSIC:1;
#HASBANNER:1;
#MUSICLENGTH:273.690;
// end cache tags

//---------------dance-single - ----------------
#NOTES:
     dance-single:
     :
     Challenge:
     16:
     1.000,1.000,1.000,0.395,1.000,1758.000,500.000,108.000,0.000,60.000:
0000
0000
0000
0000
,
2100
0010
0001
0100
0010
0001
0100
3010
,
0102
1000
0100
0010
1000
0010
0100
1013
,
1200
0010
0001
1000
0010
0001
1000
0010
,
0301
1000
0100
0010
1000
0001
0100
1010
,
1001
0100
0010
1000
0100
0010
1000
0001
,
1001
0010
0100
0001
1000
0010
0100
1001
,
0110
1000
0001
0010
0100
0001
1000
0010
,
0101
0010
1000
0001
0100
0001
1000
0110
,
1001
0100
0011
0100
1010
1100
1001
0010
,
0101
1000
0110
1000
0011
0101
1001
0110
,
0101
1000
0011
0100
1001
0110
1001
0010
,
1100
0001
1010
0100
1001
0110
1001
1010
,
0101
1000
0011
0100
0010
1010
0011
0100
,
1010
0001
1100
0010
0100
0101
1100
1010
,
1001
0010
0001
1000
0100
0010
1000
0001
,
0110
0001
1000
0010
0100
1000
0100
0011
,
1001
0000
0000
0000
1001
0000
0000
0000
0110
0000
0110
0000
1001
0001
1001
0001
,
1100
0000
0100
0000
1010
0000
0101
1000
0011
0000
0100
0000
2001
0000
3010
0000
,
0101
0000
0001
0000
0110
0000
1010
0001
1100
0000
0010
0000
1002
0000
0103
0000
,
1100
0000
0100
0000
1010
0000
0101
1000
0011
0000
0100
0000
2001
0000
3010
0000
,
0102
0000
1000
0010
0103
0000
2002
0000
3023
0030
0200
0300
0002
0003
1000
1000
,
0011
0000
0010
0000
0101
0000
1010
0001
1100
0000
0010
0000
1002
0000
0103
0100
,
1010
0000
1000
0000
0110
0000
0101
1000
0011
0000
0100
0000
2001
0000
3010
0010
,
0011
0000
0100
0000
0101
0000
1001
0010
0100
0000
1010
0000
1002
0000
0103
0100
,
2001
0000
3001
0010
0001
0000
0202
0300
0023
0030
2000
3000
0102
0003
0010
0010
,
1000
0001
0000
0001
1000
0000
0010
0000
0100
0100
0000
0010
0010
0000
0001
0001
,
1000
0001
0000
0001
1000
0000
0010
0000
0100
0100
0000
0010
0010
0000
1000
1000
,
0001
0100
0000
0100
0001
0000
1000
0000
0100
0100
0000
1000
1001
0000
0010
0010
,
0202
0000
0000
0303
2020
3030
0102
0000
1000
0003
0110
0000
0001
0000
0110
0000
,
1000
0001
0000
0001
0100
0000
0110
0000
1000
1000
0000
0010
0010
0000
1000
1000
,
0001
0100
0000
0100
0001
0000
1001
0000
0010
0010
0000
0100
0100
0000
0001
0000
,
1000
0010
0000
0010
1000
0000
0011
0000
0100
0100
0000
0010
0011
0000
1000
0000
,
0012
0000
0103
0000
2010
0000
3100
0000
1002
0000
0013
0000
0201
0000
1300
1000
,
0011
0100
0000
0100
0010
0000
0010
1000
0001
0001
0000
0100
0100
0000
0010
0010
,
1000
0001
0000
0001
1000
0000
1000
0010
0100
0100
0000
0001
0001
0000
1000
1000
,
0010
0100
0000
0100
0010
0000
0010
1000
0100
0100
0000
0010
1010
0000
0100
0100
,
1001
0000
0010
0000
1100
0000
0001
0000
1010
0000
0101
0000
0022
0000
1033
1000
,
0110
0001
1100
0000
0011
0000
1001
0000
,
1100
0000
0001
0000
0110
0000
0001
0000
1100
0000
0010
0000
0101
0000
0010
0010
,
1000
0001
1100
0001
1000
0001
0110
0001
,
1000
0100
1000
0010
0001
0010
1000
0100
1000
0001
0010
0001
1000
0100
0010
0100
0010
0001
1000
0100
0001
1000
0010
0001
,
1000
1000
0000
0100
1100
0000
0010
0000
1000
1000
0000
0100
1100
0000
0010
0000
,
0100
0100
0000
0001
0011
0000
1000
0000
0100
0100
0000
0001
0011
0000
1000
0000
,
0010
0010
0000
0100
0101
0000
1000
0000
0010
0010
0000
0100
0101
0000
1000
0000
,
0100
0100
0000
0010
1010
0000
0001
0000
0100
0100
0000
0010
1010
0000
0001
0000
,
1000
1000
0000
0001
0101
0000
0010
0000
1000
1000
0000
0001
0101
0000
0010
0000
,
0001
0001
0000
0100
1100
0000
0010
0000
0001
0001
0000
0100
1100
0000
0010
0000
,
1000
1100
0000
0010
1001
0000
0110
0000
1000
1100
0000
0010
0101
0000
1100
0000
,
0001
0011
0000
0100
1001
0000
0110
0000
0001
0011
0000
0100
1010
0000
0011
0000
,
1000
0100
0001
0100
1000
0100
0001
0100
1000
0010
0100
0001
1100
0011
1100
0011
,
1000
0100
1000
0010
0101
0010
1000
0001
0100
0010
1000
0001
0110
0001
1000
0010
,
0001
0100
0001
0010
0101
1000
0010
0100
0001
0010
0001
1000
0101
1000
0010
0100
,
1000
0001
0010
0001
1100
0010
1000
0001
0100
1000
0100
0010
0101
1000
0100
0010
,
0001
1000
0010
1000
0101
1000
0100
0010
1000
0001
0100
0001
1010
0001
0100
0010
,
1001
0100
1000
0010
0101
0010
1000
0001
0100
0010
1000
0001
0110
0001
1000
0010
,
0001
1000
0010
0100
1001
0010
1000
0100
0001
0010
0001
1000
0110
1000
0001
0010
,
0100
0001
0010
0001
1100
0010
1000
0001
0010
1000
0010
0001
0110
1000
0100
0010
,
0001
1000
0100
1000
0011
1000
0100
0010
1000
0001
0100
0001
1010
0001
0100
0010
,
1000
0100
0001
0100
1010
0100
0001
0010
0001
0100
1000
0100
0011
0100
1000
0010
,
0001
0100
0001
1000
0110
1000
0001
0010
0100
0001
1000
0010
0101
1000
0010
0100
,
0001
1000
0010
1000
0011
0100
0010
1000
0100
0001
0010
0001
1100
0010
1000
0001
,
0010
0100
1000
0001
0011
0100
1000
0001
0100
0010
0001
1000
1100
0010
0001
1000
,
0100
0010
0001
0010
1001
0000
0101
0010
0202
0000
1303
0000
0010
0001
0100
0000
,
0010
0100
1000
0100
1001
0000
1010
0100
2020
0000
3031
0000
1000
0100
0010
0010
,
2001
3000
0200
0300
1020
0030
0200
0300
0021
0030
2000
3000
0102
0003
0010
0010
,
1001
0000
0100
0000
1010
0000
0100
0100
1001
0000
0010
0000
0101
0000
0010
0010
,
1100
0001
0000
0001
1100
0000
0010
0000
0001
0001
0000
0100
0100
0000
1000
1000
,
0011
1000
0000
1000
0011
0000
0100
0000
1000
1000
0000
0010
0010
0000
0001
0001
,
1100
0010
0000
0011
1100
0000
0010
0000
1000
1000
0000
0001
0101
0000
0010
0000
,
1100
0000
0001
0000
1010
0000
0101
0000
1000
1100
0000
0010
0110
0000
0001
0011
,
1000
0100
0000
0100
1000
0000
0011
0000
1000
1000
0000
0100
0100
0000
0010
0010
,
0001
0100
0000
0100
0001
0000
1010
0000
0001
0001
0000
0100
0100
0000
1000
1000
,
0010
0100
0000
0100
0010
0000
1001
0000
1000
1000
0000
0100
0202
0000
0313
0000
,
0022
0000
0133
0000
0022
0000
1033
0000
2200
0000
3301
0000
2200
0000
3310
0010
,
1001
0100
1001
0000
0000
0000
0000
0000
,
1001
1000
0000
0100
0100
0000
0010
0000
0101
0001
0000
1000
1010
0000
0100
0000
,
1001
0001
0000
0010
0101
0000
0010
0000
1100
1000
0000
0100
1010
0000
0100
0000
,
1002
0000
0013
0000
2100
0000
3011
0000
0100
0000
1001
0000
0010
0000
0101
0001
,
0110
1000
0022
0000
1133
0010
1001
0100
,
0011
0000
1000
0000
0110
0000
1000
0000
0011
0000
0100
0000
1010
0000
0100
0100
,
0001
1000
0101
1000
0010
0100
0011
1100
,
0001
0010
0001
1000
0100
1000
0001
0010
0001
0100
1000
0100
0001
0010
0100
0010
0100
1000
0001
0010
1000
0001
0100
1000
,
0002
0000
0010
0000
1103
0000
0001
0000
1000
1000
0000
0010
0010
0000
0101
0000
,
0001
0011
0000
0100
0101
0000
0010
0000
1000
1100
0000
0010
1010
0000
0100
0000
,
1001
0001
0000
0001
0101
0000
0110
0000
1001
1000
0000
1000
1010
0000
0110
0000
,
0101
0001
0000
0001
1001
0000
1010
0000
1001
1000
0000
0100
0101
0000
0011
0000
,
1000
1100
0000
0010
0110
0000
1000
0000
0001
0011
0000
0100
0110
0000
0001
0000
,
1000
1100
0000
0001
0101
0000
0010
0000
0001
0011
0000
1000
1010
0000
0100
0000
,
1001
0001
0000
1100
0100
0000
0011
0000
0101
0100
0000
1010
0010
0000
1001
0000
,
1100
1000
0000
1010
0001
0000
1001
0000
0101
0001
0000
0011
0100
0000
1001
0000
,
0110
0000
0000
0000
0110
0000
0000
0000
1001
0000
1001
0000
0110
0010
0110
0010
,
1001
0100
0001
0010
1100
0001
0010
1000
0100
0010
0001
1000
0110
1000
0001
0100
,
1000
0010
1000
0100
1010
0001
0100
0010
1000
0100
1000
0001
1010
0001
0100
0010
,
0001
1000
0100
1000
0011
0100
0001
1000
0010
0001
0010
0100
1010
0001
0010
0100
,
1000
0001
0010
0001
1100
0010
0001
0010
0100
1000
0010
1000
0101
1000
0010
0100
,
1001
0010
0001
0100
1010
0100
0001
1000
0010
0100
0001
1000
0110
1000
0001
0100
,
1000
0001
0100
0010
1001
0100
0001
0010
1000
0100
1000
0001
0110
0001
1000
0100
,
0011
1000
0100
1000
0011
0100
0001
1000
0110
0001
0100
1000
0011
0100
0001
0010
,
1000
0001
0010
0001
1100
0001
0010
0100
0001
1000
0010
1000
0101
1000
0010
0100
,
1001
0010
0100
0010
0101
1000
0010
0100
0001
0010
1000
0010
0101
0010
1000
0100
,
0001
0010
1000
0001
0110
0001
1000
0100
0010
1000
0001
0100
1010
0001
0100
0010
,
1000
0001
0100
0001
1100
0010
0100
0001
0010
1000
0100
1000
0011
0100
0001
1000
,
0100
0001
1000
0010
1100
1000
0001
0010
0100
1000
0010
0001
1100
1000
0001
0010
,
0100
1000
0010
0100
1001
0000
1010
0100
2020
0000
3031
0000
0100
1000
0010
0000
,
0100
0001
0010
0100
1001
0000
0101
0010
0202
0000
1303
0000
0001
0010
0100
0100
,
1001
0010
1100
0010
0101
1000
0011
0100
,
2010
3100
2001
3010
0102
0013
1201
0310
,
1001
0000
1000
0011
1000
0000
1110
0000
,
2101
0000
0000
0000
0001
3000
0210
0000
0011
0000
0000
0300
1021
0000
0000
0030
,
0101
0000
1000
0011
0100
0000
1011
0000
,
2100
0000
0000
0000
0010
3000
1200
0000
0011
0000
0000
1300
0120
0000
0001
0030
,
0101
0000
0001
1010
0001
0000
1101
0000
,
1020
0000
0000
0000
0130
0000
1002
0000
0110
0000
1003
0000
0211
0000
1010
0300
,
1001
0000
1010
0100
0001
1100
0110
0011
,
2000
0000
0011
3000
0200
0000
0011
0300
0020
0000
1100
0030
0200
0000
0011
0300
,
1010
0000
1000
0101
1000
0000
1011
0000
,
0102
0000
0003
0020
0000
0030
1200
0300
1001
0000
0010
0000
0101
0000
0010
0000
,
1001
0000
0000
0000
0100
0000
1010
0000
0100
0000
0000
0000
1121
0000
0000
0030
,
0101
0000
1000
0000
0011
0000
0110
0000
1002
0000
0000
0103
1010
0000
0100
0000
,
0011
0000
0000
0000
1100
0000
0001
0000
0010
0000
0000
0000
0120
0000
0000
0030
,
1120
0000
0000
0230
0000
0300
2001
0000
3011
0000
0101
0000
0110
0000
1010
0000
,
2001
0000
0100
0000
0011
0000
0100
0000
0010
3000
0101
0000
1100
0000
0012
0000
,
1000
0010
0100
0010
1000
0010
0100
0010
,
1003
0100
0001
0100
1000
0010
0100
0001
,
0001
0000
0010
0000
1000
0000
0010
0000
0001
0000
0100
0000
0010
0000
1000
1000
,
0100
0001
0100
1000
0010
0001
0100
0010
,
0010
0000
0001
0000
0010
0000
1000
0000
0100
0000
0001
0000
0010
0000
1000
1000
,
0201
0010
1001
0010
0001
0010
1001
0310
,
0102
0000
1000
0000
0110
0000
1000
0000
0100
0000
1000
0000
0110
0000
1000
1003
,
0101
1101
1010
1011
,
0110
0000
0101
0000
1100
0000
0110
0000
1001
0110
1001
0110
1001
0000
0000
0000
,
1001
0010
1000
0100
0011
1000
0100
0001
1010
0100
0001
0010
1100
0001
0100
0010
,
1001
0100
0001
0010
0101
1000
0010
0100
0011
1000
0001
1000
0110
1000
0011
0010
,
1100
0001
0100
0010
1001
0100
0001
0010
0101
1000
0100
0010
0101
1000
0100
0010
,
1001
0100
0010
1000
0011
0100
0001
1000
0110
0001
0100
0001
1010
0001
0100
0100
,
1001
0010
1000
0100
0011
0100
1000
0001
0110
1000
0001
0010
0101
1000
0010
0100
,
1001
1000
0010
0100
1001
0010
1000
0100
0011
1000
0001
1000
0110
1000
0011
0001
,
1100
0001
0010
0001
1010
0100
0001
0010
0101
1000
0010
0100
1001
0010
0100
0010
,
1001
1000
0010
0100
0011
1000
0001
0010
0101
1000
0010
1000
0101
1000
0010
0100
,
0201
0000
1000
0000
0311
0000
1010
0100
0002
0000
1100
0000
0110
0000
1003
0010
,
2001
0000
0110
0000
3011
0000
0100
0010
1002
0000
0110
0000
1010
0003
0100
0100
,
2001
0000
0010
0000
3101
0000
0010
0100
1002
0000
0100
0000
1013
0000
0100
0010
,
2001
0000
0100
0000
3011
0000
0100
0010
1002
0000
0010
0000
1103
0000
0010
0100
,
1001
0000
0100
0000
1010
0000
0101
0100
0021
0000
1000
0000
0131
0000
1000
0010
,
1200
0000
0001
0000
1310
0000
0001
0100
1002
0000
1100
0000
0113
0000
1010
0100
,
2001
0000
0010
0000
3011
0000
0100
0100
0021
0000
1000
0000
1130
0000
0010
0000
,
2100
0000
0001
0000
0101
0000
3010
0010
0102
0000
1000
0000
1010
0000
0103
0000
,
0001
1000
0010
1000
0100
1000
0010
1000
0101
1000
0010
0100
0001
1000
0010
0100
,
1010
0001
0100
0001
1000
0001
0010
0001
1100
0010
0001
0010
0001
1000
0100
1000
,
1001
0010
0100
0001
0100
0010
1000
0100
0101
1000
0010
0100
0001
0010
0001
0100
,
1001
1000
0010
1000
0010
0100
0001
0010
0101
0001
0100
1000
0100
0010
0100
1000
,
0010
0001
0100
0010
1000
0001
0100
0010
1001
0100
1000
0001
0100
0010
1000
0001
,
1010
0100
0001
0010
0001
0100
0010
0100
1001
0010
0100
0001
1000
0100
0010
0100
,
1100
0001
0010
0001
1000
0010
0100
0001
0110
1000
0001
1000
0010
1000
0001
0100
,
1001
0010
0001
0010
0100
0001
0010
0001
1100
0010
0001
0010
1000
0001
0100
0010
,
1001
0000
0100
0000
0010
0000
1001
0000
0101
0000
0010
0001
1000
0000
0101
0000
,
0011
0000
1000
0000
0100
0000
1010
0000
1100
0000
0001
1000
0100
0000
1010
0000
,
1001
0000
0100
0000
1000
0000
0101
0000
0110
0000
1000
0001
0010
0000
1010
0000
,
0101
0000
1000
0000
0010
0000
0101
0000
1001
0000
0010
0100
0001
0000
0110
0000
,
1001
0100
0010
1000
0100
0010
1000
0001
,
0100
1000
0010
0001
1000
0100
0010
0100
,
1000
0100
0001
1000
0001
0100
0020
0000
,
0030
0000
0000
0000
;
