#TITLE:Chinese Tea;
#SUBTITLE:~ Orchid Remix;
#ARTIST:Yooh;
#TITLETRANSLIT:;
#SUBTITLETRANSLIT:;
#ARTISTTRANSLIT:;
#CREDIT:;
#BANNER:Chinese Tea Orchid Mix.png;
#BACKGROUND:Chinese Tea Orchid Mix - bg.png;
#LYRICSPATH:;
#CDTITLE:;
#MUSIC:Chinese Tea Orchid Remix.ogg;
#OFFSET:0.022;
#SAMPLESTART:65.395;
#SAMPLELENGTH:10.210;
#SELECTABLE:YES;
#BPMS:0.000=84.420,30.000=188.000,104.000=47.000,112.000=94.000,128.000=188.000;
#STOPS:;
#BGCHANGES:;
// cache tags:
#FIRSTBEAT:32.000;
#LASTBEAT:332.000;
#SONGFILENAME:Songs/Index Tournament 1/Chinese Tea Orchid Remix/Chinese Tea Orchid Remix.sm;
#HASMUSIC:1;
#HASBANNER:1;
#MUSICLENGTH:133.929;
// end cache tags

//---------------dance-single - Rikame----------------
#NOTES:
     dance-single:
     Rikame:
     Challenge:
     13:
     1.000,1.000,0.351,0.284,1.000,977.000,47.000,38.000,3.000,1.000:
0000
0000
0000
0000
,
0000
0000
0000
0000
,
0000
0000
0000
0000
,
0000
0000
0000
0000
,
0000
0000
0000
0000
,
0000
0000
0000
0000
,
0000
0000
0000
0000
,
0000
0000
0000
0000
,
1010
1000
0100
0010
0011
0001
0100
0010
,
1001
0000
1000
0000
0100
0010
0000
0011
0000
0000
0004
0000
2003
0000
0000
0000
,
3001
0010
0001
0100
0010
1000
0001
1000
0100
0010
0001
1000
0001
0010
0100
1000
,
0001
0100
0010
0100
0001
1000
0010
0100
0010
1000
0100
0010
0001
0010
0100
0010
,
0001
1000
0001
0100
0010
1000
0100
1000
0001
0010
0001
0100
0010
1000
0100
0010
,
0001
0100
1000
0100
0001
0010
1000
0010
,
0001
0100
0001
0010
0100
1000
0010
1000
0001
0010
0001
0100
0010
1000
0001
1000
,
0100
0010
0001
0100
0001
1000
0010
1000
0100
1000
0001
0100
0010
1000
0001
0010
,
0001
0100
0010
1000
0001
0010
0100
1000
0001
0100
0001
1000
0100
1000
0010
0100
,
0001
0000
0010
0000
0100
0000
0001
0000
0100
0000
0010
0000
0001
0000
1000
0001
,
1000
0010
1000
0100
0010
0001
1000
0001
0100
0010
1000
0001
1000
0010
0100
0001
,
1000
0100
0010
0100
1000
0001
0010
0100
0010
0001
0100
0010
1000
0010
0100
0010
,
1000
0001
1000
0100
0010
0001
0100
0001
1000
0010
1000
0100
0010
0001
0100
0010
,
1000
0100
0001
0100
1000
0010
0001
0010
,
1000
0100
1000
0010
0100
0001
0010
0001
1000
0010
1000
0100
0010
0001
1000
0001
,
0100
0010
1000
0100
1000
0001
0010
0001
0100
0001
1000
0100
0010
0001
1000
0010
,
1000
0100
0010
0001
1000
0010
0100
0001
1000
0100
1000
0001
0100
0001
0010
0100
,
1000
0010
1000
0010
0100
0001
0100
0001
1000
0000
0100
0000
0040
0000
0000
0000
,
M031
0000
0100
0000
0001
0000
0100
0000
0010
0000
0000
0000
1000
0000
0000
0000
0001
0000
0010
0000
0001
0000
0010
0000
0200
0000
0000
0000
0000
0000
0000
0000
1300
0000
0001
0000
1000
0000
0001
0000
0010
0000
0000
0000
0100
0000
0000
0000
1000
0000
0000
0000
0000
0000
0001
1000
0001
0000
0000
0000
0100
0000
0000
0000
,
0010
0000
1000
0000
0010
0000
0100
0000
0001
0000
0010
0000
0100
0000
1000
0000
0100
0000
0010
0000
0001
0000
0100
0000
0010
0000
0000
0000
1000
0000
0000
0000
0001
0000
0100
0000
0001
0000
0100
0000
0010
0000
1000
0000
0010
0000
1000
0000
0100
0000
0000
0000
0010
0000
0001
1000
0001
0000
0000
0000
0100
0000
0000
0000
,
001M
0000
1000
0000
1100
0000
0100
0010
0001
1000
0001
0100
0010
0000
0010
1000
0001
0000
1000
0000
1100
0000
0001
0000
0101
0000
0100
0000
0010
1000
0010
1000
,
0100
0000
0010
0000
0001
0000
1000
0010
0100
0010
0100
0001
1000
0000
1000
0100
0010
0000
0001
0100
0010
0000
1000
0100
0010
0000
0011
0000
0001
0100
0010
0000
,
1000
0000
0100
0000
0010
0000
0100
0000
1000
0000
0100
0000
0010
0000
0100
0000
0011
0000
0001
0000
0100
0000
0010
0000
0100
0000
0001
0000
1000
0010
1000
0010
,
0100
0000
0000
0000
0000
0000
0000
0000
0110
0000
0000
0000
0000
0000
0000
0000
1001
0000
0100
0000
1001
0000
0010
0000
0001
0100
0001
0100
0010
0000
0000
0000
,
10M0
0001
0100
0001
0100
0010
1000
0001
0010
0001
0100
0010
1000
0010
1000
0100
,
0010
0001
1000
0001
0100
0010
1000
0001
0010
0100
1000
0001
0010
0100
1000
0001
,
0100
0001
0010
0001
0010
0100
1000
0001
0100
0010
1000
0100
1000
0100
0010
0001
,
2000
0000
3020
0000
0230
0000
2300
0000
3002
0000
0023
0000
0130
0001
1000
0001
,
0010
0100
1000
0010
1000
0001
0100
0001
1000
0100
0010
0100
1000
0001
0010
0001
,
0100
0010
1000
0100
0010
0001
0100
0001
0010
0100
1000
0010
0100
0001
1000
0010
,
0100
0010
1000
0001
0010
0100
1000
0001
0100
0010
0100
0001
1000
0100
0010
0001
,
2000
0000
3002
0000
0023
0000
2030
0000
3020
0000
0230
0000
2300
0000
3001
0100
,
0001
1000
0100
1000
0100
0010
0001
1000
0010
1000
0100
0010
0001
0010
0001
0100
,
0010
1000
0001
1000
0100
0010
0001
1000
0010
0100
0001
1000
0010
0100
0001
1000
,
0100
1000
0010
1000
0010
0100
0001
1000
0100
0010
0001
0100
0001
0100
0010
1000
,
0002
0000
0023
0000
0230
0000
0302
0000
2003
0000
3020
0000
0130
1000
0001
1000
,
0010
0100
0001
0100
0010
1000
0001
0010
0100
1000
0100
0010
0001
1000
0001
0100
,
0010
1000
0100
1000
0001
0100
0001
0010
0100
1000
0001
0010
0001
1000
0010
1000
,
0001
0010
0001
0100
0010
1000
0100
0010
0001
0100
0001
0100
0010
1000
0010
1000
,
0100
0110
0000
0011
0000
0101
0400
0340
,
1030
0000
1000
0000
2000
0000
0000
0000
3100
0000
0000
0010
0000
0000
0010
0000
,
0001
0000
0001
0000
0001
0000
0100
0000
0010
0000
0000
1000
0000
0000
1000
0100
,
1000
0010
1000
0010
0100
0000
0000
0000
0001
0000
0000
0010
0000
0000
0010
0000
,
0001
0100
0010
1000
0100
1000
0100
0000
0010
0000
0000
0010
0000
0010
0001
0100
,
0010
1000
0100
0010
0001
0100
0010
1000
,
0001
0010
0001
1000
0010
1000
0010
0100
,
0001
0010
1000
0001
0100
1000
0010
0100
,
0011
0000
0000
0100
0000
0000
1010
0000
1100
0000
0000
0010
0000
0000
0101
0000
,
1000
0000
1000
0000
2000
0000
0000
0000
3010
0000
0000
0100
0000
0000
0100
0000
,
0001
0000
0001
0000
0001
0000
0010
0000
0100
0000
0000
1000
0000
0000
0010
0000
,
0100
0000
0000
0100
0000
0000
0001
0000
0010
0000
0000
0010
0000
0000
0001
0000
,
1000
0000
0010
0000
0001
0000
1000
0000
1100
0000
0000
0101
0000
0000
0100
0001
,
1000
0010
1000
0010
1000
0100
1000
0100
0010
0001
0100
0001
0010
0001
0100
0001
,
1000
0010
1000
0100
1000
0010
1000
0100
0010
0001
1000
0001
0010
0100
1000
0010
,
0100
0001
0100
0001
0010
0100
0010
0100
1000
0000
0000
1001
0000
0000
1001
0000
,
0000
0000
1010
0000
0000
0011
0000
0000
0101
0000
0000
1100
0000
0000
1010
0000
,
0000
0000
0101
0000
0000
0011
0000
0000
1010
0000
0000
1100
0000
0000
0401
0000
,
0301
0010
0001
0100
0001
0100
0010
1000
0100
1000
0010
0100
0001
0100
0001
0010
,
0100
1000
0001
1000
0010
0100
0001
1000
0100
0010
0001
1000
0100
0010
0001
1000
,
0010
1000
0100
1000
0100
0010
0001
1000
0010
0100
0001
0010
0001
0010
0100
1000
,
0002
0000
0203
0000
0320
0000
0032
0000
2003
0000
3200
0000
0310
1000
0001
1000
,
0100
0010
0001
0100
0001
1000
0010
1000
0001
0010
0100
0010
0001
1000
0100
1000
,
0010
0100
0001
0010
0100
1000
0010
1000
0100
0010
0001
0100
0010
1000
0001
0100
,
0010
0100
0001
1000
0100
0010
0001
1000
0010
0100
0010
1000
0001
0010
0100
1000
,
0001
0000
0101
0000
0100
0010
0000
1020
0000
0000
0130
0001
1000
0010
0100
0001
,
1000
0001
0010
0001
0010
0100
1000
0001
0100
0001
0010
0100
1000
0100
1000
0010
,
0100
0001
1000
0001
0010
0100
1000
0001
0100
0010
1000
0001
0100
0010
1000
0001
,
0010
0001
0100
0001
0100
0010
1000
0001
0010
0100
1000
0010
1000
0010
0100
0001
,
2000
0000
3200
0000
0320
0000
2030
0000
3001
0100
0010
0001
0010
0001
1000
0001
,
0100
0010
1000
0010
0100
0001
1000
0100
0010
0001
0010
0100
1000
0001
1000
0010
,
0100
0001
0010
0001
1000
0010
1000
0100
0010
0001
1000
0100
1000
0001
0100
0001
,
1000
0100
1000
0010
0100
0001
0010
0100
1000
0010
1000
0010
0100
0001
0100
0001
,
0010
0110
0000
1100
0000
1010
0040
0430
,
0301
0000
0010
0000
0000
0000
0001
1000
1200
0000
0000
0320
0000
0000
0031
0000
,
0101
0000
0100
0000
0010
1000
0000
0011
0000
0000
1010
0000
2012
0000
0000
0000
,
3003
0000
0000
0000
;
