#TITLE:Kick Ass Violin Solo;
#SUBTITLE:;
#ARTIST:Aphex Twin;
#TITLETRANSLIT:;
#SUBTITLETRANSLIT:;
#ARTISTTRANSLIT:;
#CREDIT:;
#BANNER:;
#BACKGROUND:;
#LYRICSPATH:;
#CDTITLE:;
#MUSIC:Kick Ass Violin Solo.mp3;
#OFFSET:-0.320;
#SAMPLESTART:55.000;
#SAMPLELENGTH:14.620;
#SELECTABLE:YES;
#BPMS:0.000=130.000,18.500=175.000,27.000=130.000,78.000=175.000,352.000=130.000,376.833=175.000;
#STOPS:460.167=0.100
,461.167=0.100
;
#BGCHANGES:;
// cache tags:
#FIRSTBEAT:0.000;
#LASTBEAT:991.250;
#SONGFILENAME:Songs/juju steps/techno Aphex Twin - Kick Ass Violin Solo/techno Aphex Twin - Kick Ass Violin Solo.sm;
#HASMUSIC:1;
#HASBANNER:0;
#MUSICLENGTH:353.549;
// end cache tags

//---------------dance-single - ----------------
#NOTES:
     dance-single:
     :
     Challenge:
     12:
     1.000,1.000,1.000,1.000,1.000,2525.000,624.000,1072.000,0.000,128.000:
2000
0000
3210
0320
1032
0023
0000
0000
,
2030
3200
2300
3200
2302
0000
0000
0000
0000
0000
0000
0000
0000
0000
3003
0000
0000
0000
0000
0000
2000
0000
0000
0000
3200
0000
0000
0000
0320
0000
0000
0000
,
0032
0000
0000
0000
0003
0000
0002
0000
0000
0000
0000
0000
0203
0000
0000
0000
0000
0000
0000
0000
0000
0300
0000
0000
2002
0000
0000
3223
0000
0000
2332
0000
0000
0000
0000
0000
0000
0000
0000
0000
0000
0000
0000
0000
0000
3003
0000
0000
,
2000
0000
0000
0000
0000
3200
0320
0032
,
0000
0000
0000
0000
0000
0000
0000
0000
0000
0013
0000
0000
0010
0000
0000
0010
0000
0000
0000
0000
0000
0000
0000
0000
2002
0000
0000
0000
3003
0000
1001
0000
0000
0000
0000
0000
1001
0000
0000
0000
0000
0000
1001
0000
0000
0000
0000
0000
,
1001
1001
1001
1001
1001
1001
1001
1001
,
1001
1001
1001
1001
1001
1001
0220
0000
,
0000
0000
0000
0000
2330
0000
3210
0000
0320
0000
2032
0000
0000
3003
1000
0010
,
0002
0000
0000
0000
0000
0000
0000
0000
0000
0000
0000
0000
0000
0000
0000
0000
0000
0000
0000
0000
0000
0000
0000
0000
0000
0000
0000
0000
0000
0000
0000
0000
2003
0000
0000
0000
0000
0000
0000
3000
2000
0000
0000
0000
0000
0000
0000
3000
2000
0000
0000
0000
0000
0000
0000
0000
3200
0000
0000
0000
0000
0000
0000
0000
,
0320
0000
0232
0000
0000
0020
2030
3020
2030
3000
0000
0000
0000
0000
0000
0000
,
2303
0000
3000
0200
0320
0032
2223
3330
,
2002
0000
0000
0003
3202
0000
0000
0003
0322
0000
0000
0000
0000
0000
0000
0000
0000
0000
0000
0000
0000
0000
0000
0000
2033
0000
0000
0000
0000
0000
0000
0000
0000
0000
0000
0000
0000
0000
0000
0000
0200
0000
0000
0000
0000
0000
0000
0000
0320
0000
0000
0000
0000
0000
0000
0000
0032
0000
0000
0000
0000
0000
0000
0000
,
3203
0000
0000
0000
0000
0000
0000
0000
0000
0000
0000
0000
0000
0000
0000
0000
0000
0000
0000
0000
0000
0000
0000
0000
0320
0000
0000
0000
0000
0000
0000
0000
0000
0000
0000
0000
0000
0000
0000
0000
0000
0000
0000
0000
0000
0000
0000
0000
1031
0000
0000
0000
0000
0000
0000
0000
0000
0000
0000
0000
1001
0000
0000
0000
0000
0000
2002
0000
0000
0000
0000
0000
0000
0000
0000
0000
0000
0000
0000
0000
0000
0000
0000
0000
0000
0000
0000
0000
0000
0000
0000
0000
0000
0000
0000
0000
0000
0000
0000
0000
0000
0000
0000
0000
0000
0000
0000
0000
0000
0000
0000
0000
0000
0000
0000
0000
0000
0000
0000
0000
0000
0000
0000
0000
0000
0000
0000
0000
0000
0000
0000
0000
0000
0000
0000
0000
0000
0000
3003
0000
0000
0000
0000
0000
1001
0000
0000
0000
0000
0000
0000
0000
0000
0000
0000
0000
0000
0000
0000
0000
1001
0000
0000
0000
0000
0000
0000
0000
0000
0000
0000
0000
0000
0000
0000
0000
1001
0000
0000
0000
0000
0000
0000
0000
0000
0000
0000
0000
0000
0000
0000
0000
,
1001
2000
0000
0000
3200
0320
0032
2223
,
0000
0000
0000
0000
0000
0000
0000
0000
3330
0000
0000
0000
0000
0000
0000
0000
1001
0000
0000
0000
1001
0000
0000
0000
2002
0000
0000
0000
0000
0000
0000
0000
0000
0000
0000
0000
0000
0000
0000
0000
0000
0000
0000
0000
0000
0000
0000
0000
3003
0000
0000
0000
0000
0000
0000
0000
2000
0000
0000
0000
0000
0000
0000
3000
,
2100
0000
0000
0000
0000
0000
0000
3000
2000
0000
0000
0000
0000
0000
0000
3000
2010
0000
0000
0000
0000
0000
0000
3000
2000
0000
0000
0000
0000
0000
0000
3000
2001
0000
0000
0000
0000
0000
0000
0000
0000
0000
0000
0000
0000
0000
0000
3000
2000
0000
0000
3000
2000
0000
0000
3000
2000
0000
0000
0000
0000
0000
0000
0000
,
0000
0000
3200
0000
0000
0000
0320
0032
,
0023
0000
2032
0000
0000
0000
0000
0010
0010
0010
3003
0000
2000
0000
0200
0000
,
3320
0000
0000
0000
0032
0000
0000
0000
0023
0000
0000
0000
0230
0000
0000
0000
2300
0000
0000
0000
3000
0000
1001
1001
1001
1001
0000
0000
0000
0000
0000
0000
,
1000
1000
0100
0100
0010
0010
1000
0000
0100
0000
0010
0000
,
0100
0000
1000
0000
0100
0001
0000
0100
0000
1100
0000
0011
,
0000
0110
0000
1000
0000
1000
0000
0100
0000
0100
0000
0010
,
0000
0010
0000
0001
0000
0001
0000
0010
0000
0010
0000
0100
,
0000
0000
0000
0000
0100
0000
0000
0000
0000
0000
0000
0000
1001
0000
0000
0000
1001
0000
0000
0000
0000
0000
0000
0000
0110
0000
0000
0000
0000
0000
0000
0000
0110
0000
0000
0000
1000
0000
0000
0001
0000
0000
1000
0000
0000
0001
0000
0000
,
1000
0001
1000
0001
1000
0001
1000
0001
1000
0000
0000
0000
1001
0000
0000
0000
,
1000
0100
0000
0001
0010
0000
0010
1000
0000
0000
0000
0000
,
1000
0001
1000
0001
1000
0001
1000
0001
1000
0001
1000
0001
1000
0001
1000
0001
,
1000
0001
1000
0001
1000
0001
1000
0001
1000
0001
1000
0001
1000
0001
1000
0001
,
1000
0000
0000
1100
0000
1100
0000
0000
0000
0000
1111
0000
,
0000
0000
1110
0000
0000
1101
0000
0000
0000
0000
0000
1011
,
0000
0000
0000
0000
0000
0000
1100
0000
1100
0000
0000
0000
,
0010
0000
0000
0001
0000
0000
0010
0000
0000
0001
0000
0000
0010
0000
0000
0001
0000
0000
0010
0000
0000
0001
0000
0000
0000
0000
0000
0000
0000
0000
0000
0000
1000
0000
0000
0000
0000
0000
0000
0000
0100
0000
0000
0000
0000
0000
0000
0000
,
1000
0000
0100
0000
0010
0000
1001
0000
1001
0000
0000
0000
,
1110
0000
0000
0000
1101
0000
0000
0111
0000
1001
0000
0000
,
0000
0000
0000
0000
1011
0000
0000
0000
0000
0000
1001
0000
0000
0000
1000
0001
1000
0001
1000
0001
1000
0001
1000
0000
,
0000
0000
0000
0000
0000
0000
0000
0000
0000
0000
0000
0000
0000
0000
0000
0000
0000
0000
0000
0000
0000
0000
0000
0000
0000
0000
0000
0000
0000
0000
0000
0000
0000
0000
0000
0000
0000
0000
0000
0000
0000
0000
0000
0000
0000
0000
0000
0000
1100
0000
0000
0000
0000
0000
0000
0000
0000
0000
0000
0000
0000
0000
0000
0000
0110
0000
0000
0000
0000
0000
0000
0000
0000
0000
0000
0000
0000
0000
0000
0000
0000
0000
0000
0000
0000
0000
0000
0000
0000
0000
0000
0000
0000
0000
0000
0000
1000
0000
0000
0000
0000
0000
0001
0000
0000
0000
0000
0000
1000
0000
0000
0000
0000
0000
0001
0000
0000
0000
0000
0000
1000
0000
0000
0000
0000
0000
0001
0000
0000
0000
0000
0000
1000
0000
0000
0000
0000
0000
0001
0000
0000
0000
0000
0000
1000
0000
0000
0000
0000
0000
0001
0000
0000
0000
0000
0000
1000
0000
0000
0000
0000
0000
0001
0000
0000
0000
0000
0000
1000
0000
0000
0000
0000
0000
0001
0000
0000
0000
0000
0000
1000
0000
0000
0000
0000
0000
0001
0000
0000
0000
0000
0000
,
1000
0000
0000
0000
1000
0100
1000
0000
0100
0010
0100
0000
0001
0010
0001
0000
,
0100
0010
0100
0000
1000
0001
1000
0000
0110
0110
0110
0000
1000
0100
1000
0000
,
0100
0010
0100
0000
0001
1000
0100
0000
1000
0100
0010
0000
0001
0010
0100
0000
,
1000
0000
0000
0010
0000
0000
0100
0000
0000
0000
0000
0000
1100
0000
0000
0000
0000
0000
0000
0000
0011
0000
0000
0000
1000
0000
0000
0100
0000
0000
0010
0000
0000
0001
0000
0000
0010
0000
0000
0100
0000
0000
1000
0000
0000
0100
0000
0000
,
0010
0000
0000
0000
0000
2002
0000
3003
,
0000
0220
0000
0330
0000
0022
0000
0033
,
0000
2220
0000
3330
0000
2002
0000
0020
,
3003
0000
0000
0000
0000
0000
0030
0000
0000
0000
0000
0000
1000
0000
0000
0001
0000
0000
1000
0000
0000
0001
0000
0000
1000
0000
0000
0001
0000
0000
1000
0000
0000
0000
0000
0000
0000
0000
0000
0000
1100
0000
0000
0000
0000
0000
0000
0000
,
0011
0000
1100
0000
0000
0000
0000
0000
0000
2200
0000
0000
0000
0000
0000
3300
0000
0000
0000
0000
0000
0022
0000
0000
,
0000
0033
0000
2200
3322
2233
3300
2000
,
3220
0332
0003
0000
2000
0000
3200
0000
,
0322
0000
0033
0000
1000
1000
2000
0000
,
3200
0000
0000
0000
0300
0000
0000
0000
0000
0000
0000
0000
0000
0000
0000
0000
1000
0100
0010
0001
1000
0100
0010
0001
1000
0100
0010
0001
0000
0000
0000
0000
,
0000
0000
0000
0000
1000
0100
1000
0100
1000
0100
1000
0100
1000
0100
1000
0100
,
1000
0000
0000
0100
0000
0000
1000
0000
0000
0100
0000
0000
1000
0000
0000
0000
0000
0000
0000
0000
0000
0000
0000
0000
1000
0000
0001
0000
0000
0000
0000
0000
0001
0000
0000
0000
1000
0000
0000
0000
0000
0000
0000
0000
0001
0000
0000
0000
,
1000
0000
0000
0000
0000
0000
0000
0000
0000
0000
0000
0000
0000
0000
0000
0000
0000
0000
0000
0000
0000
0000
0000
0000
0000
0000
0000
0000
0000
0000
0000
0000
0001
0000
0000
0000
0000
0000
0000
0000
0000
0000
0000
0000
0000
0000
0000
0000
1000
0000
0000
0000
0000
0000
0000
0000
0000
0000
0000
0000
0000
0000
0000
0000
0000
0000
0000
0000
0000
0000
0000
0000
0000
0000
0000
0000
0000
0000
0000
0000
0000
0000
0000
0000
0000
0000
0000
0000
0000
0000
0000
0000
0000
0000
0000
0000
2000
0000
0000
0000
0000
0000
3200
0000
0000
0000
0000
0000
2300
0000
0000
0000
0000
0000
3200
0000
0000
0000
0000
0000
2300
0000
0000
0000
0000
0000
3200
0000
0000
0000
0000
0000
2300
0000
0000
0000
0000
0000
3200
0000
0000
0000
0000
0000
2300
0000
0000
0000
0000
0000
3200
0000
0000
0000
0000
0000
2300
0000
0000
0000
0000
0000
3200
0000
0000
0000
0000
0000
2300
0000
0000
0000
0000
0000
3200
0000
0000
0000
0000
0000
2300
0000
0000
0000
0000
0000
3200
0000
0000
0000
0000
0000
,
2300
3200
2300
3200
2300
3200
2300
3200
2300
3200
2300
3200
2300
3200
2300
3200
2300
3200
2300
3200
2300
3200
2300
3200
2300
3200
2300
3200
2300
3200
2300
3200
,
2300
3200
2300
3200
2300
3200
2300
3200
2300
3200
2300
3200
2300
3200
2300
3200
2300
3200
2300
3200
2300
3000
0000
0000
0000
0000
0000
0000
2000
0000
0000
0000
,
3200
2320
3030
0000
0002
0203
0322
0033
,
2000
3022
0033
0000
,
2000
0000
3220
0000
0332
0000
0003
0000
1000
0001
1000
0001
1000
0001
1000
0001
,
1000
0000
0000
0000
0000
0000
1000
0000
0001
0000
1000
0000
0001
0000
1000
0000
0001
0000
1000
0000
0001
0000
0000
0000
0000
0000
0000
0000
0000
0000
0000
0000
1000
0000
0000
0000
0100
0000
0000
0000
0000
0000
0001
0000
0000
0010
0000
0000
,
0000
0000
0000
0000
1000
0000
0000
0000
0100
0000
0000
0000
0000
0000
0000
0100
0000
0000
0010
0000
0000
0000
0000
0000
1000
0000
0000
0000
0100
0000
0000
0000
0000
0000
0000
0000
0010
0000
0000
0001
0000
0000
0000
0000
1000
0000
0000
0000
,
0100
0000
0001
0010
2000
0000
0000
0000
3200
0000
0000
0000
0302
0000
0023
0000
,
0032
0000
0000
0000
0000
0000
0003
0000
0000
0000
0000
0000
0001
0000
0000
0010
0000
0000
0100
0000
0000
1000
0000
0000
0100
0000
0000
0010
0000
0000
0001
0000
0000
0010
0000
0000
0000
0000
0000
0000
1100
0000
0000
0000
0011
0000
0000
0000
,
1000
0100
0010
0001
0010
0100
1000
0100
0010
0001
0010
0100
1000
0100
0010
0001
0010
0100
1000
0100
0010
0001
0010
0100
1000
0000
0000
0000
0000
0000
0000
0000
,
1000
0100
1000
0000
0001
0010
0001
0000
1000
0100
1000
0000
0010
0100
0010
0000
,
1000
0010
0100
0000
0001
0100
0010
0000
0001
0010
0100
0000
1000
0100
0010
0000
,
1000
0001
0100
0000
0001
1000
0100
0000
0100
0010
1000
0000
0010
0100
1000
0000
,
0000
0000
1000
0000
0001
0000
1000
0000
0001
0000
1000
0000
0001
0000
1000
0000
0001
0000
1000
0001
1000
0001
1000
0001
1000
0001
1000
0001
1000
0001
0000
0000
,
0000
2200
0000
3300
0000
0022
2033
3200
,
0320
1031
0002
0023
0230
1301
0100
0010
,
0001
0010
0100
1000
0100
0010
0001
0010
,
0100
0000
1000
0000
0100
0000
0010
0000
0001
0000
0010
0000
0100
0000
1000
0000
0100
0000
0010
0000
0001
0010
0100
1000
0100
0010
0001
0010
0100
1000
0100
0010
,
0001
0000
0000
0000
0000
0000
0010
0000
0000
0000
0000
0000
0100
0000
0000
0000
0000
0000
1000
0000
0000
0000
0000
0000
0100
0000
0000
0000
0000
0000
0010
0000
0000
0000
0000
0000
0001
0000
0000
0000
0000
0000
0010
0000
0000
0000
0000
0000
0100
0000
0000
0000
0000
0000
0000
0000
0000
0000
0000
0000
0000
0000
0000
0000
1000
0000
0000
0000
0000
0000
0000
0000
0000
0000
0000
0000
0000
0000
0000
0000
0100
0000
0000
0000
0000
0000
0000
0000
0000
0000
0000
0000
0000
0000
0000
0000
0010
0000
0000
0000
0000
0000
0000
0000
0000
0000
0000
0000
0000
0000
0000
0000
0001
0000
0000
0000
0000
0000
0000
0000
0000
0000
0000
0000
0000
0000
0000
0000
0000
0000
0000
0000
0000
0000
0000
0000
0000
0000
0000
0000
0000
0000
0000
0000
0000
0000
0000
0000
0000
0000
0000
0000
0000
0000
0000
0000
0000
0000
0000
0000
0000
0000
0000
0000
0000
0000
0000
0000
0000
0000
0000
0000
0000
0000
0000
0000
0000
0000
0000
0000
0000
0000
0000
0000
0000
0000
0000
0000
0000
0000
0000
0000
,
2000
0000
0000
3200
0000
0000
0320
0000
0000
0030
0001
0000
0220
0000
0000
2332
0000
0000
3223
0000
0000
0330
0000
0000
,
1002
2203
3321
0030
,
0000
2000
3200
0320
0031
0020
0230
2300
,
3000
0000
0000
0000
0000
0000
0000
0000
0000
0000
0000
0000
0000
0000
0000
0000
0000
0000
0000
0000
0000
0000
0000
0000
1000
0000
0000
0000
0000
0000
0100
0000
0000
0000
0000
0000
0010
0000
0000
0000
0000
0000
0001
0000
0000
0000
0000
0000
0010
0000
0000
0000
0000
0000
0100
0000
0000
0000
0000
0000
1000
0000
0000
0000
0000
0000
0100
0000
0000
0000
0000
0000
0010
0000
0000
0000
0000
0000
0001
0000
0000
0000
0000
0000
0010
0000
0000
0000
0000
0000
0100
0000
0000
0000
0000
0000
1000
0000
0000
0000
0000
0000
0000
0000
0000
0000
0000
0000
0000
0000
0000
0000
0000
0000
0000
0000
0000
0000
0000
0000
0000
0000
0000
0000
0000
0000
0000
0000
0000
0000
0000
0000
0000
0000
0000
0000
0000
0000
0000
0000
0000
0000
0000
0000
1000
0000
0000
0000
0000
0000
0000
0000
0000
0000
0000
0000
0000
0000
0000
0000
0100
0000
0000
0000
0000
0000
0000
0000
0000
0000
0000
0000
0000
0000
0000
0000
0010
0000
0000
0000
0000
0000
0000
0000
0000
0000
0000
0000
0000
0000
0000
0000
,
0000
0001
0010
0100
0000
1000
0100
0010
0001
0000
0001
0010
,
0100
0000
1000
0000
0000
0000
0010
0000
0000
0100
0000
0000
0010
0000
0000
0100
0000
0000
0010
0000
0000
0100
0000
0000
,
2010
0000
3220
0000
2332
0000
3003
0000
1000
0001
1000
0001
1000
0001
1000
0001
,
2000
3200
2300
3200
2300
3200
2300
3200
2300
3200
2300
3200
2300
3200
2300
3200
2300
3200
2300
3200
2300
3200
2300
3200
2300
3000
0000
0000
0000
0000
0000
0000
,
1100
0000
0000
0011
0000
0000
2002
0000
0000
0000
0000
0000
0000
0000
0000
0000
0000
0000
3003
0000
1000
0000
1000
0000
,
1001
0000
0000
1100
0000
0000
0000
0000
0000
0000
0000
0000
0000
0000
0000
0011
0000
0000
2000
3002
2003
3002
2003
3002
,
2003
0000
3002
0000
2003
0000
3002
0000
2003
0000
3002
0000
2003
0000
3002
0000
2003
0000
3002
0000
0223
0000
0330
0000
0000
0000
0000
0000
0000
0000
0000
0000
0000
0000
0000
0000
1000
0000
0000
0100
0000
0000
0000
0000
0000
0001
0000
0000
,
0010
0000
1000
0100
0000
0001
0010
0000
0100
0010
0000
1000
0010
0000
0000
0000
,
0000
0000
0000
0000
0001
0010
0100
0000
0000
0100
0000
0000
0000
1001
0000
0000
0000
0000
0000
0000
0000
0000
0000
0000
,
1000
0100
0000
0011
0011
0000
1100
0011
0000
0110
0110
0000
0011
0011
0000
0000
,
1100
1100
0000
0000
0001
0010
0100
1000
0222
0000
0000
0000
0333
0000
0000
0000
,
1001
0000
0000
0000
0000
0000
0000
0000
0000
0000
0000
0000
0000
0000
0000
0000
0000
0000
0000
0000
0000
0000
0000
0000
1000
0000
0000
0000
0000
0000
0000
0000
0000
0000
0000
0000
0000
0000
0000
0000
0000
0000
0000
0000
0000
0000
0000
0000
1001
0000
0000
0000
0000
0000
0000
0000
0000
0000
0000
0000
0000
0000
0000
0000
0000
0000
0000
0000
0000
0000
0000
0000
1000
0000
0000
0000
0000
0000
0000
0000
0001
0000
0000
0000
0000
0000
0000
0000
1000
0000
0000
0000
0000
0000
0000
0000
0001
0000
0000
0000
0000
0000
0000
0000
1000
0000
0000
0000
0000
0000
0000
0000
0000
0000
1000
0000
0000
0000
0000
0000
0001
0000
0000
0000
0000
0000
1000
0000
0000
0000
0000
0000
0001
0000
0000
0000
0000
0000
1000
0000
0000
0000
0000
0000
0001
0000
0000
0000
0000
0000
1000
0000
0000
0000
0000
0000
0001
0000
0000
0000
0000
0000
0000
0000
0000
0000
0000
0000
1000
0000
0000
0000
0000
0000
0000
0000
0001
0000
0000
0000
0000
0000
0000
0000
1000
0000
0000
0000
0000
0000
0000
0000
,
0001
0000
0000
0000
0000
0000
0000
0000
1000
0000
0000
0000
0000
0000
0000
0000
0001
0000
0000
0000
0000
0000
0000
0000
1000
0000
0000
0000
0000
0000
0000
0000
0001
0000
0000
0000
0000
0000
0000
0000
0000
0000
0000
0000
0000
0000
0000
0000
1000
0000
0000
0000
0000
0000
0000
0000
0000
0000
0000
0000
0001
0000
0000
0000
0000
0000
0000
0000
0000
0000
0000
0000
1000
0000
0000
0000
0000
0000
0000
0000
0000
0000
0000
0000
0001
0000
0000
0000
0000
0000
0000
0000
0000
0000
0000
0000
1000
0000
0000
0000
0000
0000
0000
0000
0000
0000
0000
0000
0001
0000
0000
0000
0000
0000
0000
0000
0000
0000
0000
0000
1000
0000
0000
0000
0000
0000
0000
0000
0000
0000
0000
0000
0001
0000
0000
0000
0000
0000
0000
0000
0000
0000
0000
0000
2002
0000
0000
3003
0000
0000
0000
0000
0000
0000
0000
0000
0000
0000
0000
0000
0000
0000
0000
0000
0000
0000
0000
0000
0000
0000
0000
0000
0000
0000
0000
0000
0000
0000
0000
0000
0000
0000
0000
0000
0000
0000
0000
0000
0000
0000
0000
0000
,
2000
0000
3200
0320
0032
2203
3300
0000
,
0000
0000
0000
0000
0000
0000
0000
0000
2200
0000
0000
0000
0000
0000
0000
0000
0000
0000
0000
0000
0000
0000
0000
0000
0000
0000
0000
0000
0000
0000
0000
0000
0000
0000
0000
0000
0000
0000
0000
0000
3320
0000
0000
0000
0000
0000
0000
0030
0020
0000
0000
0000
0000
0000
0000
0030
0020
0000
0000
0000
0000
0000
0000
0000
,
0032
0000
0000
0000
0000
0000
0000
0003
0002
0000
0000
0000
0000
0000
0000
0003
0002
0000
0000
0000
0000
0000
0000
0003
2002
0000
0000
0000
0000
0000
0000
0000
3003
0000
0000
0000
0000
0000
0000
0000
0000
0000
0000
0000
0000
0000
0000
0000
2002
0000
0000
0000
0000
0000
0000
0000
0000
0000
0000
0000
0000
0000
0000
0000
,
0000
0020
3003
2030
3200
0320
2032
3003
,
2000
0000
0000
3200
0000
0000
2300
0000
0000
3000
0000
0000
0000
0000
0000
0000
0000
0000
0000
0000
0000
0000
0000
0000
2002
0000
0000
0000
0000
0000
3003
0000
0000
0000
0000
0000
1001
0000
0000
0000
1001
0000
0000
0000
1001
0000
0000
0000
,
1001
1001
1001
1001
1001
1001
1001
1001
1001
1001
1001
1001
,
1000
0001
1000
0001
1000
0001
1100
0000
0000
1100
0000
0000
0011
0000
0011
0000
0000
0000
0000
0000
0000
1001
0000
0000
,
1000
0100
0010
0000
0001
0010
0010
0000
0100
0100
0100
0000
0001
0001
0001
0000
,
0010
0010
0010
0000
2000
3200
0320
0000
0000
0000
0000
0000
2030
3200
2300
3200
,
0320
0000
0000
0030
0000
0000
0000
0000
0000
0000
0000
0000
0000
0000
0000
0000
0000
0000
0000
0000
0000
0000
0000
0000
1001
0000
0000
0000
0000
0000
0000
0000
1001
0000
0000
0000
0000
0000
0000
1000
0000
0000
0100
0000
0000
0010
0000
0000
,
0001
0000
0000
0001
0010
0100
1000
0000
0001
0010
0100
1000
0000
0000
1000
0010
,
0100
0000
0000
0001
0000
0000
0000
0000
0000
0001
0000
0000
0100
0000
0000
0010
0000
0000
1000
0000
0000
0000
0000
0000
0000
0000
0000
0000
0000
0000
0000
0000
1001
0000
0000
0000
0000
0000
0000
0000
1001
0000
0000
0000
0000
0000
0000
0000
,
2000
0000
3200
0320
0032
2203
0000
0010
,
0000
0000
0000
0000
0001
0000
0000
0000
0000
0000
0000
0000
0010
0000
0000
0000
3300
0000
0000
0000
0000
0020
0230
0320
0230
0320
0230
0320
0230
0320
0230
0320
,
0230
0320
0230
0320
0230
0320
0230
0320
0230
0300
0000
0000
0000
0000
0000
0000
2000
3002
0003
0000
0000
0000
2000
0000
3002
0000
2003
0000
3000
0000
0000
0000
,
0000
1000
0000
0110
0000
0001
0110
0000
0000
0000
0000
0000
,
2000
0200
0320
0032
0023
0230
0320
0032
,
3223
0000
0330
0000
0000
0000
0000
0000
1000
0100
1000
0000
0010
0001
0010
0000
,
0100
0010
0100
0000
2000
3200
0320
0030
0001
0010
0100
0000
1000
0100
0010
0000
,
1001
1001
1001
0000
0110
0110
0110
0000
0011
0011
0011
0000
1100
1100
1100
0000
,
1010
0101
1010
0000
0101
1010
0101
0000
1001
0110
1001
0000
0011
1100
0011
0000
,
2000
0000
0000
3200
0000
0000
2302
0000
0000
0000
0000
0000
0000
0000
0000
0000
0000
0000
3223
0000
0332
0000
0000
0000
,
0003
0000
0000
0000
2000
3200
2300
3200
2300
3200
2300
3200
2300
3200
2300
3200
2300
3200
2300
3200
2300
3200
2300
3200
2300
3000
0000
0000
0000
0000
0000
0000
,
1001
2000
3200
0320
0032
0023
0230
2300
3000
0000
0000
0000
1000
0100
1000
0000
,
0001
0010
0001
0000
0100
0010
0100
0000
1100
0101
1010
0000
0000
2000
3002
2003
,
3000
0000
0000
0000
0000
0000
0000
0000
0000
0000
0000
0000
1010
0101
1010
0101
,
1010
0000
0000
0101
0000
0000
1010
0000
0000
0101
0000
0000
1010
0000
0000
0000
0000
0000
0000
0000
1010
0000
0000
0000
0101
0000
0000
0000
0000
0000
0000
0000
1010
0000
0000
0000
0000
0000
0000
0000
0000
0000
0000
0000
0000
0000
0000
0000
,
0001
0010
0100
0000
0000
0000
0000
0000
0000
0000
0000
0000
0001
0010
0100
0000
0000
0000
0000
0000
0000
0000
0000
0000
2200
0000
0000
0000
0000
0000
0000
0000
0000
0000
0000
0000
0010
0000
0000
0000
0002
0000
0000
0000
0000
0000
0000
0000
,
0000
0000
0000
3300
0000
0000
0000
0000
0000
0000
0003
0000
,
1000
0000
0000
0100
0000
0000
1000
0000
0000
0000
0000
0000
0001
0000
0000
0010
0000
0000
0001
0000
0000
0000
0000
0000
0020
0230
2300
3000
0000
0000
0000
0000
0000
0002
0023
0230
0300
0000
0000
0000
0000
0000
0000
0000
0000
0000
0000
0000
,
1000
0000
0000
0000
0000
0000
0000
0000
0001
0000
0000
0000
0000
0000
0000
0000
1000
0000
0000
0000
0000
0000
0000
0000
0001
0000
0000
0000
0000
0000
0000
0000
1000
0000
0000
0000
0000
0000
0000
0000
0001
0000
0000
0000
0000
0000
0000
0000
1000
0000
0000
0000
0000
0000
0001
0000
0000
0000
0000
0000
1000
0000
0000
0000
0000
0000
0001
0000
0000
0000
0000
0000
1000
0000
0000
0000
0000
0000
0001
0000
0000
0000
0000
0000
1000
0000
0000
0000
0000
0000
0001
0000
0000
0000
0000
0000
1000
0000
0000
0000
0000
0000
0001
0000
0000
0000
0000
0000
1000
0000
0000
0000
0000
0000
0001
0000
0000
0000
0000
0000
1000
0000
0000
0000
0000
0000
0001
0000
0000
0000
0000
0000
1000
0000
0000
0000
0000
0000
0001
0000
0000
0000
0000
0000
1000
0000
0000
0000
0000
0000
0001
0000
0000
0000
0000
0000
1000
0000
0000
0000
0000
0000
0001
0000
0000
0000
0000
0000
1000
0000
0000
0000
0000
0000
0001
0000
0000
0000
0000
0000
0000
0000
0000
0000
0000
0000
0000
0000
0000
0000
0000
0000
,
0000
0000
0000
1000
0000
0000
0001
0000
0000
0000
0000
0000
1000
0000
0000
0001
0000
0000
0000
0000
0000
1000
0000
0000
0001
0000
0000
1000
0000
0000
0000
0000
0000
0000
0000
0000
0000
0000
0000
0000
0000
0000
0000
0000
1100
0000
0000
0000
,
1100
0000
0000
0000
0000
0000
0000
0000
0011
0000
0000
0000
0000
0000
0000
1000
0000
0000
0001
0000
0000
1000
0000
0000
0000
0000
0000
0000
1100
0000
0000
0000
1100
0000
0000
0000
0000
0000
0000
0000
0011
0000
0000
0000
0000
0000
0000
0000
,
0000
0000
0000
0000
2000
0000
3220
0000
0332
0220
2333
3220
0332
0003
0000
0000
,
1000
0100
0010
0001
0010
0100
1000
0100
0010
0001
0010
0100
,
1000
0000
0000
0000
0100
0000
0000
0000
0010
0000
0000
0000
0001
0000
0000
0000
0010
0000
0000
0000
0100
0000
0000
0000
2000
0000
0000
0000
0000
0000
3220
0000
0000
0000
0000
0000
0332
0000
0000
0220
0000
0000
2333
0000
0000
3220
0000
0000
,
0332
0000
0000
0003
0010
0000
0000
0000
0100
0000
0000
0000
1000
0000
0000
0000
0010
0000
0000
0000
0001
0000
0000
0000
0100
0000
0000
0000
0010
0000
0000
0000
0001
0000
0000
0000
0010
0000
0000
0000
0100
0000
0000
0000
0010
0000
0000
0000
,
1001
0000
0000
0000
0100
0000
0000
0000
0010
0000
0000
0000
0100
0000
0000
0000
1000
0000
0000
0000
0000
0000
0000
0000
2000
3200
0320
0032
0023
0230
2300
3200
0320
0032
0023
0230
2300
3200
0320
0032
0023
0230
2300
3200
0320
0032
0023
0230
,
2300
0000
0000
0000
3000
0000
0200
0000
0000
0000
0000
0000
0320
0000
0000
0000
0000
0000
0032
0000
0000
0000
0000
0000
0023
0000
0000
0000
0000
0000
0230
0000
0000
0000
0000
0000
2300
0000
0000
0000
0000
0000
3200
0000
0000
0000
0000
0000
0320
0000
0000
0000
0000
0000
0000
0000
0000
0000
0000
0000
0000
0000
0000
0000
0000
0000
0000
0000
0000
0000
0000
0000
0000
0000
0000
0000
0000
0000
0000
0000
0000
0000
0000
0000
0000
0000
0000
0000
0000
0000
0000
0000
0000
0000
0000
0000
2000
0000
0000
0000
0000
0000
0000
0000
3200
0000
0000
0000
0000
0000
0000
0000
0300
0000
0000
0000
0000
0000
0000
0000
0000
0000
0000
0000
0000
0000
0000
0000
2000
0000
0000
0000
0000
0000
0000
0000
3200
0000
0000
0000
0000
0000
0000
0000
0330
0000
0000
0000
0000
0000
0000
0000
0000
0000
0000
0000
0000
0000
0000
0000
0000
0000
0000
0000
0000
0000
0000
0000
0000
0000
0000
0000
0000
0000
0000
0000
0000
0000
0000
0000
0000
0000
0000
0000
0000
0000
0000
0000
0000
0000
0000
0000
,
1000
0000
0100
0000
0010
0020
0230
2300
,
3200
0320
0032
0023
0000
0230
2300
3200
0320
0032
0023
0230
,
2300
3200
0320
0032
0023
0230
2300
0000
0000
3200
0000
0000
,
0320
0032
0023
0230
0320
0032
0023
0230
0320
0032
0003
0000
,
0000
0000
0000
0000
2000
0000
0000
0000
3200
0000
0320
0000
0032
0023
0230
2300
,
3200
0000
0000
0320
0000
0000
0032
0000
0000
0003
0000
0000
0020
0000
0000
0000
0230
0000
0000
0000
2300
0000
0000
0000
3200
0000
0000
0000
0320
0000
0000
0000
0030
0000
0000
0000
0002
0000
0000
0000
0000
0000
0000
0000
0000
0000
0000
0000
,
0000
0000
0000
0000
0023
0000
0000
0000
0000
1030
0001
1000
,
0002
0000
0000
0000
0023
0230
2300
3200
0320
0032
0223
0000
0000
0000
2332
0000
,
0000
0000
3003
1000
0100
0010
0000
0000
,
1001
0000
0000
0000
0000
0000
0000
0000
1001
0000
0000
0000
0000
0000
0000
0000
1001
0000
0000
0000
0000
0000
0000
0000
0002
0023
0230
2300
3200
0320
0032
0023
,
0230
0300
0000
0000
1100
0000
0000
0000
1100
0000
0000
0000
0000
0000
0000
0000
1000
0000
0100
0000
0010
0000
0001
0000
0010
0000
0100
0000
1000
0000
0000
0000
,
0000
0000
0000
0000
0000
0000
0000
0000
0000
0000
0000
0000
0000
2000
3200
0320
0032
0003
0000
0000
1001
0000
0000
0000
0000
0000
0000
0000
0000
0000
0000
0000
,
1000
0000
0000
0100
0000
0000
1000
0000
0000
0100
0000
0000
0000
0000
0000
0000
0000
0000
2000
0000
0000
3002
0000
0000
2003
0000
0000
3000
0000
0000
0000
0000
0000
0000
0000
0000
1000
0000
0000
0000
0100
0000
0000
0000
0010
0000
0000
0000
,
0001
0000
0000
0000
1001
0000
0000
0000
1001
0000
0000
0000
0000
0000
0000
0000
2000
3200
0320
0032
0023
0230
2300
3200
0320
0032
0023
0230
2300
3200
0320
0032
,
0023
0030
0000
0000
0100
0000
0000
0000
0100
0000
0000
0000
0010
0000
0000
0000
0010
0000
0000
0000
0001
0000
0000
0000
0001
0000
0000
0000
0001
0000
0000
0000
,
0001
0010
0010
0100
0100
1000
1000
0100
,
0100
0000
0001
0010
0001
0000
0000
0000
1000
0100
0010
0000
0001
0010
0001
0000
,
0110
0000
0110
0000
0110
0000
0000
0000
2000
3002
2003
3002
2003
3002
2003
3002
2003
3002
2003
3002
2003
3002
2003
3002
2003
3000
0000
0000
0000
0000
0000
0000
,
2000
3200
0320
0032
0023
0230
2300
3200
0320
0032
0023
0230
2300
3200
0320
0032
0023
0230
2300
3200
0320
0032
0023
0230
,
2300
3200
0320
0032
0023
0230
2300
3200
0320
0032
0023
0230
2300
3200
0320
0032
0023
0230
2300
3200
0320
0032
0023
0230
,
2300
3200
0320
0032
0023
0230
2300
3200
0320
0032
0023
0230
2300
3200
0320
0032
0023
0230
2300
3200
0320
0032
0023
0230
,
2300
3200
0320
0032
0023
0230
2300
3200
0320
0032
0023
0230
2300
3200
0320
0032
0023
0230
2300
3200
0320
0032
0023
0230
,
2300
3200
0320
0032
0023
0230
2300
3200
0320
0032
0023
0230
2300
3200
0320
0032
0023
0230
2300
3200
0320
0032
0023
0230
,
2300
0000
3000
0000
0000
0000
0000
0000
0000
0000
0000
0000
0000
0000
0000
1000
0000
0000
0001
0000
0000
0000
0000
0000
1001
0000
0000
0000
0000
0000
0000
0000
0000
0000
0000
0000
0000
0000
0000
0000
1001
0000
0000
0000
0000
0000
0000
0000
,
1001
0000
1000
0001
1000
0001
1000
0001
1000
0000
0000
0000
1000
0000
0100
0000
,
0010
0001
0100
0010
0001
0010
0100
0001
,
0010
0000
0000
0000
0000
0000
0000
0000
0000
2000
3200
2300
3200
2300
3200
0300
,
0000
1000
0100
0010
0001
0110
1000
0110
,
0001
0000
0110
0000
0110
0000
0000
0000
2000
3200
2300
3200
2300
3200
0300
0000
,
1100
0000
2000
3200
2300
3200
2300
3200
0300
0000
0000
0000
1000
0000
0110
0000
,
0001
0110
1000
0110
0001
0110
1000
0110
,
0001
0110
1000
0110
0001
0110
1000
0110
,
0001
0110
1000
0110
0001
0110
0001
1000
0100
0010
0001
0000
1100
1100
1100
1100
,
1100
0000
0000
0000
2000
3200
0320
0032
0023
0230
2300
3200
0320
0032
0023
0230
,
2300
3200
0320
0032
0023
0230
0320
0032
0023
0230
2300
3200
0320
0230
2300
3200
,
0320
0032
0023
0230
0320
0032
0023
2030
3200
0302
0023
0230
2300
3020
0032
0023
,
0230
2300
3200
0320
0032
0023
0230
0320
0032
0023
2030
3020
0230
0302
0023
0032
,
0203
2300
3200
0320
0032
0023
0230
0320
0032
0003
0000
0000
1000
0001
1000
0001
,
1000
0000
0000
0000
0000
0000
2000
3200
0320
0032
0023
0230
2300
3200
0320
0230
2300
3200
0320
0230
2300
3200
0320
0032
,
0023
0230
0320
0032
0023
0230
0320
0032
0023
0230
2300
3200
0320
0032
0023
0230
2300
3200
0320
0032
0023
0230
2300
3200
,
0320
0032
0023
0230
2300
3200
0320
0032
2003
3200
0320
0230
2300
3200
0320
0032
0023
0230
2300
3200
0320
0032
0023
0230
,
2300
3200
0320
0230
2300
3200
0320
0230
2300
3200
2300
3200
2300
3200
2300
3200
0320
0032
0023
0032
0023
0032
0023
0230
,
2300
3200
0320
0032
0023
0230
2300
3200
0320
0032
0023
0230
2300
3200
0320
0032
0023
0230
2300
3200
0320
0032
0023
0230
2300
3200
0320
0032
0023
0230
2300
3200
,
0320
0032
0023
0230
2300
3200
0320
0032
0023
0230
2300
3200
0320
0032
0023
0230
2300
3200
0320
0032
0023
0230
2300
3200
0320
0032
0003
0020
0230
0300
0000
0000
,
1100
0000
1001
0000
0110
0000
1010
0101
0000
0101
1010
0000
1001
0000
0000
0000
,
1001
0000
0110
0000
1100
0000
0011
0011
0000
0011
0011
0000
1100
0000
0000
0000
,
1100
1100
0000
0011
0011
0000
1100
0000
0011
0011
0000
1100
1100
0000
0011
0000
,
1100
1100
0000
1010
0101
0000
1001
0000
1001
1010
0101
0000
0000
0000
0000
0000
,
2110
3211
0000
0000
,
1321
0000
2231
0000
,
3311
0000
0011
0000
0011
0011
0000
0011
0011
0000
0011
0000
0000
0000
0000
0000
,
2000
0100
0010
3201
0010
1000
0010
0300
,
0011
0000
0011
0000
0011
0000
0011
0011
0000
0011
0011
1010
0000
0000
0000
1010
,
0000
1010
0000
1010
0000
0101
0101
0000
0101
0101
0000
1001
1001
0000
0110
0110
,
0000
0011
0011
0011
0000
1100
1100
1100
1100
0000
0110
0011
0000
1100
1010
0101
,
0000
0000
0011
0110
1010
0000
0011
0100
0011
0000
1100
0011
0110
0000
0011
1010
,
0101
0000
1010
0101
1010
0000
0010
0010
0010
0000
1000
1000
1000
0000
1000
0100
,
0010
0000
0001
0010
0100
0000
1001
1001
1001
0000
0011
0110
1100
0000
1100
0110
,
0011
0000
1001
1010
0101
0000
1100
0110
0011
0000
1001
1001
0000
0000
1001
0000
,
1001
1001
1001
1001
1001
1001
1001
1001
,
1001
0000
1001
0000
1001
0000
0000
0000
1000
0001
1000
0001
1000
0001
1000
0001
,
1000
0000
0000
1100
0000
0110
0000
0011
0110
0000
1100
0000
,
0011
0000
1010
0000
0101
0000
1010
0101
1010
0101
1010
0101
,
1010
0101
1010
0101
1010
0101
1010
0101
1010
0101
1010
0101
,
1010
0001
0010
0100
1000
0100
0010
0000
,
1000
0000
0000
0001
0000
0000
1000
0000
0000
0001
0000
0000
2002
0000
0000
3003
0000
0000
0000
0000
0000
0000
0000
0000
1100
0000
0000
0000
0000
0000
0000
0000
1100
0000
0000
0000
0000
0000
0000
0000
0011
0000
0000
0000
0011
0000
0000
0000
,
0000
0000
1100
0000
0011
1100
0000
0000
1010
0000
0101
1010
,
0000
0000
0000
0000
1001
0000
0000
0000
0000
0000
0000
0000
0000
0000
0000
0000
0000
0000
0000
0000
0000
1010
0000
0000
0101
0000
0000
1010
0000
0000
0101
0000
0000
1010
0000
0000
0101
0000
0000
1010
0000
0000
0101
0000
0000
1010
0000
0000
,
0101
1010
0101
1010
0101
1010
0101
1010
0101
0000
0000
0110
0000
0001
1000
0000
,
0100
0010
0100
0000
0001
0010
0001
0000
0000
0000
2020
0000
3131
0000
1010
0000
,
0101
1010
0101
1010
0101
1010
0101
1010
,
0101
1010
0101
1010
0101
1010
0101
0000
,
1000
0100
0000
0001
0010
0000
1000
0100
1000
0000
0001
0010
0001
0000
1000
0100
,
1000
0100
0000
0001
0010
0001
0010
0000
1000
0100
1000
0100
1000
0001
0000
0000
,
1010
0101
1010
0101
1010
0101
1010
0101
,
1010
0000
0101
0000
1010
0000
0101
0000
1010
0000
0101
0000
1010
0101
1010
0101
,
1010
0000
0000
0000
,
1010
0101
1010
0101
1010
0101
2020
3131
1010
0101
1010
0101
1010
0101
1010
0101
1010
0101
1010
0101
0000
0000
0000
0000
0000
0000
2000
0000
3200
0000
0320
0000
,
2032
3003
0000
0000
0100
0000
0100
0000
0010
0000
0001
0000
0100
0000
1100
0000
,
0110
0011
0110
1100
0001
0011
0110
1100
,
0110
0011
0110
1100
0110
0001
0010
0100
,
0010
0000
0001
0000
0010
0000
0100
0000
1000
0000
0000
0000
0000
2000
3200
0320
,
2032
3003
0000
0000
0002
2003
3000
2000
3002
0003
0002
2003
3000
0000
0000
0000
,
1000
0100
0010
0001
0010
0100
1000
0100
,
0010
0001
0100
0010
1000
0100
0010
0001
,
0010
0000
0000
0000
0100
0000
0000
0000
1000
0000
0000
0000
0100
0000
0000
0000
0000
0000
0000
2020
3232
2323
3232
2323
3232
2323
3232
2323
3232
2323
3232
2323
,
3232
2323
3232
2323
3232
2323
3232
2323
3232
0303
0000
0000
0000
0000
0000
0000
1000
0000
0000
0000
0100
0000
0000
0000
0010
0000
0000
0000
0001
0000
0000
0000
,
1000
0100
0010
0001
0010
0100
1000
0100
,
0010
1000
0100
0010
0001
0010
0100
1000
,
0100
0010
0001
0010
0100
1000
0100
0010
,
0001
0010
0100
1000
0100
0010
0001
0010
,
0100
1000
0100
0010
0001
0010
0100
1000
,
0100
0010
0001
1001
0010
0110
1000
0000
,
1000
0001
1000
0001
1000
0001
1000
0001
1000
0001
1000
0001
1000
0001
1000
0001
,
1000
0001
1000
0001
1000
0001
1000
0001
1000
0001
1000
0001
1000
0001
1000
0001
,
1000
0001
1001
0000
0100
0000
1010
0000
0001
0000
0101
0000
0010
0000
1010
0000
,
0001
0101
0010
0010
0010
0010
1000
0100
,
0010
1001
0001
0101
0010
1010
0001
0100
,
1000
0110
0001
0110
1000
0100
0010
0001
,
0110
1000
0110
0001
0110
1000
0110
0001
,
0110
0001
0110
0001
0110
0001
0110
0002
,
0113
0001
0110
0001
0110
0001
0110
0001
,
0110
0000
0001
0000
1000
0001
1000
0001
1000
0001
1000
0001
1000
0001
1000
0001
,
1000
0001
1000
0001
1000
0001
1000
0001
1000
0001
1000
0001
1000
0001
1000
0001
,
1000
0001
1000
0001
1000
0000
0000
0000
1000
0000
0100
0000
0010
0000
0001
0000
,
0010
0100
1000
0100
0010
0100
1000
0100
,
0010
0001
0010
0100
0001
0010
1100
0010
,
0001
0110
1000
0110
0001
0110
1000
0011
,
0110
1100
0110
0011
0110
1100
0110
0011
,
0110
1100
0110
0011
0110
1100
0110
0011
,
0110
0000
0000
1100
0000
0000
0110
0000
0000
1100
0000
0000
0110
0000
0011
0000
0110
0000
1100
0000
0110
0000
0011
0000
,
0110
1100
0110
0011
0110
1100
0110
0011
0110
1100
0011
0110
,
2200
3300
0000
0000
0000
0000
0000
0000
0000
0000
0000
0000
0000
0000
0000
0000
0000
0000
0000
0000
0000
0000
0000
0000
1000
0000
0000
0000
0000
0000
0000
0000
1000
0000
0000
0000
0000
0000
0000
0000
1001
0000
0000
0000
0000
0000
0000
0000
0100
0000
0000
0000
0000
0000
0000
0000
1001
0000
0000
0000
0000
0000
0000
0000
,
1001
0000
1001
0000
0001
0000
0001
0000
0110
0000
0110
0000
0110
0110
0000
0000
,
1000
0100
0000
0001
0010
0000
1000
0100
0010
0001
0020
0030
0000
1000
0100
0000
,
0001
0000
0110
0000
0110
0000
0110
0000
0000
0000
1000
1000
0000
0000
0000
0000
,
0000
0000
0000
1000
0100
1000
0100
0000
0000
0000
0000
0000
0000
0000
0000
0000
0000
0000
0000
0000
0000
0000
0000
0000
0000
0000
0000
0000
0000
0000
0000
0000
,
1100
0110
0011
0011
0011
0010
0100
1000
,
0100
0000
0010
0000
0001
0000
0010
0000
0100
0000
2000
3002
2003
3002
2003
3002
,
2003
3002
2003
3002
2003
3002
2003
3200
0320
0032
0023
0230
2300
3200
0320
0032
,
0023
0230
2300
3200
0320
0032
0023
2030
3200
0302
0023
2030
3222
0333
0000
0000
;

//---------------dance-single - Copied from----------------
#NOTES:
     dance-single:
     Copied from:
     Hard:
     9:
     1.000,1.000,1.000,1.000,1.000,2319.000,573.000,935.000,0.000,106.000:
2000
0000
3210
0320
1032
0023
0000
0000
,
2030
3200
2300
3200
2302
0000
0000
0000
0000
0000
0000
0000
0000
0000
3003
0000
0000
0000
0000
0000
2000
0000
0000
0000
3200
0000
0000
0000
0320
0000
0000
0000
,
0032
0000
0000
0000
0003
0000
0002
0000
0000
0000
0000
0000
0203
0000
0000
0000
0000
0000
0000
0000
0000
0300
0000
0000
2002
0000
0000
3223
0000
0000
2332
0000
0000
0000
0000
0000
0000
0000
0000
0000
0000
0000
0000
0000
0000
3003
0000
0000
,
2000
0000
0000
0000
0000
3200
0320
0032
,
0000
0000
0000
0000
0000
0000
0000
0000
0000
0013
0000
0000
0010
0000
0000
0010
0000
0000
0000
0000
0000
0000
0000
0000
2002
0000
0000
0000
3003
0000
1001
0000
0000
0000
0000
0000
1001
0000
0000
0000
0000
0000
1001
0000
0000
0000
0000
0000
,
1001
1001
1001
1001
1001
1001
1001
1001
,
1001
1001
1001
1001
1001
1001
0220
0000
,
0000
0000
0000
0000
2330
0000
3210
0000
0320
0000
2032
0000
0000
3003
1000
0010
,
0002
0000
0000
0000
0000
0000
0000
0000
0000
0000
0000
0000
0000
0000
0000
0000
0000
0000
0000
0000
0000
0000
0000
0000
0000
0000
0000
0000
0000
0000
0000
0000
2003
0000
0000
0000
0000
0000
0000
3000
2000
0000
0000
0000
0000
0000
0000
3000
2000
0000
0000
0000
0000
0000
0000
0000
3200
0000
0000
0000
0000
0000
0000
0000
,
0320
0000
0232
0000
0000
0020
2030
3020
2030
3000
0000
0000
0000
0000
0000
0000
,
2303
0000
3000
0200
0320
0032
2223
3330
,
2002
0000
0000
0003
3202
0000
0000
0003
0322
0000
0000
0000
0000
0000
0000
0000
0000
0000
0000
0000
0000
0000
0000
0000
2033
0000
0000
0000
0000
0000
0000
0000
0000
0000
0000
0000
0000
0000
0000
0000
0200
0000
0000
0000
0000
0000
0000
0000
0320
0000
0000
0000
0000
0000
0000
0000
0032
0000
0000
0000
0000
0000
0000
0000
,
3203
0000
0000
0000
0000
0000
0000
0000
0000
0000
0000
0000
0000
0000
0000
0000
0000
0000
0000
0000
0000
0000
0000
0000
0320
0000
0000
0000
0000
0000
0000
0000
0000
0000
0000
0000
0000
0000
0000
0000
0000
0000
0000
0000
0000
0000
0000
0000
1031
0000
0000
0000
0000
0000
0000
0000
0000
0000
0000
0000
1001
0000
0000
0000
0000
0000
2002
0000
0000
0000
0000
0000
0000
0000
0000
0000
0000
0000
0000
0000
0000
0000
0000
0000
0000
0000
0000
0000
0000
0000
0000
0000
0000
0000
0000
0000
0000
0000
0000
0000
0000
0000
0000
0000
0000
0000
0000
0000
0000
0000
0000
0000
0000
0000
0000
0000
0000
0000
0000
0000
0000
0000
0000
0000
0000
0000
0000
0000
0000
0000
0000
0000
0000
0000
0000
0000
0000
0000
3003
0000
0000
0000
0000
0000
1001
0000
0000
0000
0000
0000
0000
0000
0000
0000
0000
0000
0000
0000
0000
0000
1001
0000
0000
0000
0000
0000
0000
0000
0000
0000
0000
0000
0000
0000
0000
0000
1001
0000
0000
0000
0000
0000
0000
0000
0000
0000
0000
0000
0000
0000
0000
0000
,
1001
2000
0000
0000
3200
0320
0032
2223
,
0000
0000
0000
0000
0000
0000
0000
0000
3330
0000
0000
0000
0000
0000
0000
0000
1001
0000
0000
0000
1001
0000
0000
0000
2002
0000
0000
0000
0000
0000
0000
0000
0000
0000
0000
0000
0000
0000
0000
0000
0000
0000
0000
0000
0000
0000
0000
0000
3003
0000
0000
0000
0000
0000
0000
0000
2000
0000
0000
0000
0000
0000
0000
3000
,
2100
0000
0000
0000
0000
0000
0000
3000
2000
0000
0000
0000
0000
0000
0000
3000
2010
0000
0000
0000
0000
0000
0000
3000
2000
0000
0000
0000
0000
0000
0000
3000
2001
0000
0000
0000
0000
0000
0000
0000
0000
0000
0000
0000
0000
0000
0000
3000
2000
0000
0000
3000
2000
0000
0000
3000
2000
0000
0000
0000
0000
0000
0000
0000
,
0000
0000
3200
0000
0000
0000
0320
0032
,
0023
0000
2032
0000
0000
0000
0000
0010
0010
0010
3003
0000
2000
0000
0200
0000
,
3320
0000
0000
0000
0032
0000
0000
0000
0023
0000
0000
0000
0230
0000
0000
0000
2300
0000
0000
0000
3000
0000
1001
1001
1001
1001
0000
0000
0000
0000
0000
0000
,
1000
1000
0100
0100
0010
0010
1000
0000
0100
0000
0010
0000
,
0100
0000
1000
0000
0100
0001
0000
0100
0000
1100
0000
0011
,
0000
0110
0000
1000
0000
1000
0000
0100
0000
0100
0000
0010
,
0000
0010
0000
0001
0000
0001
0000
0010
0000
0010
0000
0100
,
0000
0000
0000
0000
0100
0000
0000
0000
0000
0000
0000
0000
1001
0000
0000
0000
1001
0000
0000
0000
0000
0000
0000
0000
0110
0000
0000
0000
0000
0000
0000
0000
0110
0000
0000
0000
1000
0000
0000
0001
0000
0000
1000
0000
0000
0001
0000
0000
,
1000
0001
1000
0001
1000
0001
1000
0001
1000
0000
0000
0000
1001
0000
0000
0000
,
1000
0100
0000
0001
0010
0000
0010
1000
0000
0000
0000
0000
,
1000
0001
1000
0001
1000
0001
1000
0001
1000
0001
1000
0001
1000
0001
1000
0001
,
1000
0001
1000
0001
1000
0001
1000
0001
1000
0001
1000
0001
1000
0001
1000
0001
,
1000
0000
0000
1100
0000
1100
0000
0000
0000
0000
1111
0000
,
0000
0000
1110
0000
0000
1101
0000
0000
0000
0000
0000
1011
,
0000
0000
0000
0000
0000
0000
1100
0000
1100
0000
0000
0000
,
0010
0000
0000
0001
0000
0000
0010
0000
0000
0001
0000
0000
0010
0000
0000
0001
0000
0000
0010
0000
0000
0001
0000
0000
0000
0000
0000
0000
0000
0000
0000
0000
1000
0000
0000
0000
0000
0000
0000
0000
0100
0000
0000
0000
0000
0000
0000
0000
,
1000
0000
0100
0000
0010
0000
1001
0000
1001
0000
0000
0000
,
1110
0000
0000
0000
1101
0000
0000
0111
0000
1001
0000
0000
,
0000
0000
0000
0000
1011
0000
0000
0000
0000
0000
1001
0000
0000
0000
1000
0001
1000
0001
1000
0001
1000
0001
1000
0000
,
0000
0000
0000
1100
0110
0000
2002
0000
0000
0000
0000
0000
,
3003
0000
0000
0000
1000
0100
1000
0000
0100
0010
0100
0000
0001
0010
0001
0000
,
0100
0010
0100
0000
1000
0001
1000
0000
0110
0110
0110
0000
1000
0100
1000
0000
,
0100
0010
0100
0000
0001
1000
0100
0000
1000
0100
0010
0000
0001
0010
0100
0000
,
1000
0000
0000
0010
0000
0000
0100
0000
0000
0000
0000
0000
1100
0000
0000
0000
0000
0000
0000
0000
0011
0000
0000
0000
1000
0000
0000
0100
0000
0000
0010
0000
0000
0001
0000
0000
0010
0000
0000
0100
0000
0000
1000
0000
0000
0100
0000
0000
,
0010
0000
1000
0100
0000
0001
0010
0000
0000
0000
2002
0000
0000
0000
3003
0000
,
0000
0220
0000
0330
0000
0022
0000
0033
,
0000
2220
0000
3330
0000
2002
0000
0020
,
3003
0000
0000
0000
0000
0000
0030
0000
0000
0000
0000
0000
1000
0000
0000
0001
0000
0000
1000
0000
0000
0001
0000
0000
1000
0000
0000
0001
0000
0000
1000
0000
0000
0000
0000
0000
0000
0000
0000
0000
1100
0000
0000
0000
0000
0000
0000
0000
,
0011
0000
1100
0000
0000
0000
0000
0000
0000
2200
0000
0000
0000
0000
0000
3300
0000
0000
0000
0000
0000
0022
0000
0000
,
0000
0033
0000
2200
3322
2233
3300
2000
,
3220
0332
0003
0000
2000
0000
3200
0000
,
0322
0000
0033
0000
1000
1000
2000
0000
,
3200
0000
0000
0000
0300
0000
0000
0000
0000
0000
0000
0000
0000
0000
0000
0000
0000
0000
0000
2002
0000
0000
0000
0000
0000
0000
0000
0000
0000
0000
0000
0000
,
3003
0000
0000
0000
1000
0100
1000
0100
1000
0100
1000
0100
1000
0100
1000
0100
,
1000
0000
0000
0100
0000
0000
1000
0000
0000
0100
0000
0000
1000
0000
0000
0000
0000
0000
0000
0000
0000
0000
0000
0000
1000
0000
0001
0000
0000
0000
0000
0000
0001
0000
0000
0000
1000
0000
0000
0000
0000
0000
0000
0000
0001
0000
0000
0000
,
1000
0000
0001
1000
0000
0000
0000
0000
0000
0000
0000
0000
,
2002
0000
0000
0000
,
0000
0000
0000
0000
0000
3003
0000
2000
,
3200
2320
3030
0000
0002
0203
0322
0033
,
2000
3022
0033
0000
,
2000
0000
3220
0000
0332
0000
0003
0000
1000
0001
1000
0001
1000
0001
1000
0001
,
1000
0000
0000
0000
0000
0000
1000
0000
0001
0000
1000
0000
0001
0000
1000
0000
0001
0000
1000
0000
0001
0000
0000
0000
0000
0000
0000
0000
0000
0000
0000
0000
1000
0000
0000
0000
0100
0000
0000
0000
0000
0000
0001
0000
0000
0010
0000
0000
,
0000
0000
0000
0000
1000
0000
0000
0000
0100
0000
0000
0000
0000
0000
0000
0100
0000
0000
0010
0000
0000
0000
0000
0000
1000
0000
0000
0000
0100
0000
0000
0000
0000
0000
0000
0000
0010
0000
0000
0001
0000
0000
0000
0000
1000
0000
0000
0000
,
0100
0000
0001
0010
2000
0000
0000
0000
3200
0000
0000
0000
0302
0000
0023
0000
,
0032
0000
0000
0000
0000
0000
0003
0000
0000
0000
0000
0000
0001
0000
0000
0010
0000
0000
0100
0000
0000
1000
0000
0000
0100
0000
0000
0010
0000
0000
0001
0000
0000
0010
0000
0000
0000
0000
0000
0000
1100
0000
0000
0000
0011
0000
0000
0000
,
2002
0000
0000
3003
,
1000
0100
1000
0000
0001
0010
0001
0000
1000
0100
1000
0000
0010
0100
0010
0000
,
1000
0010
0100
0000
0001
0100
0010
0000
0001
0010
0100
0000
1000
0100
0010
0000
,
1000
0001
0100
0000
0001
1000
0100
0000
0100
0010
1000
0000
0010
0100
1000
0000
,
0000
0000
1000
0000
0001
0000
1000
0000
0001
0000
1000
0000
0001
0000
1000
0000
0001
0000
1000
0001
1000
0001
1000
0001
1000
0001
1000
0001
1000
0001
0000
0000
,
0000
2200
0000
3300
0000
0022
2033
3200
,
0320
1031
0002
0023
0230
1301
0100
0010
,
0001
0010
0100
1000
0100
0010
0001
0010
,
0100
0000
1000
0000
0100
0000
0010
0000
0001
0000
0010
0000
0100
0000
1000
0000
0100
0000
0010
0000
0001
0010
0100
1000
0100
0010
0001
0010
0100
1000
0100
0010
,
0001
0000
0000
0000
0000
0000
0010
0000
0000
0000
0000
0000
0100
0000
0000
0000
0000
0000
1000
0000
0000
0000
0000
0000
0100
0000
0000
0000
0000
0000
0010
0000
0000
0000
0000
0000
0001
0000
0000
0000
0000
0000
0010
0000
0000
0000
0000
0000
0100
0000
0000
0000
0000
0000
0000
0000
0000
0000
0000
0000
0000
0000
0000
0000
1000
0000
0000
0000
0000
0000
0000
0000
0000
0000
0000
0000
0000
0000
0000
0000
0100
0000
0000
0000
0000
0000
0000
0000
0000
0000
0000
0000
0000
0000
0000
0000
0010
0000
0000
0000
0000
0000
0000
0000
0000
0000
0000
0000
0000
0000
0000
0000
0001
0000
0000
0000
0000
0000
0000
0000
0000
0000
0000
0000
0000
0000
0000
0000
0000
0000
0000
0000
0000
0000
0000
0000
0000
0000
0000
0000
0000
0000
0000
0000
0000
0000
0000
0000
0000
0000
0000
0000
0000
0000
0000
0000
0000
0000
0000
0000
0000
0000
0000
0000
0000
0000
0000
0000
0000
0000
0000
0000
0000
0000
0000
0000
0000
0000
0000
0000
0000
0000
0000
0000
0000
0000
0000
0000
0000
0000
0000
0000
,
2000
0000
0000
3200
0000
0000
0320
0000
0000
0030
0001
0000
0220
0000
0000
2332
0000
0000
3223
0000
0000
0330
0000
0000
,
1002
2203
3321
0030
,
0000
2000
3200
0320
0031
0020
0230
2300
,
3000
0000
0000
2002
0000
0000
0000
0000
0000
0000
0000
0000
3003
0000
0000
0000
0000
0000
1000
0000
0100
0000
0010
0000
,
0000
0001
0010
0100
0000
1000
0100
0010
0001
0000
0001
0010
,
0100
0000
1000
0000
0000
0000
0010
0000
0000
0100
0000
0000
0010
0000
0000
0100
0000
0000
0010
0000
0000
0100
0000
0000
,
2010
0000
3220
0000
2332
0000
3003
0000
1000
0001
1000
0001
1000
0001
1000
0001
,
0000
2200
0000
0000
0000
0000
3300
0000
,
1100
0000
0000
0011
0000
0000
2002
0000
0000
0000
0000
0000
0000
0000
0000
0000
0000
0000
3003
0000
1000
0000
1000
0000
,
1001
0000
0000
1100
0000
0000
0000
0000
0000
0000
0000
0000
0000
0000
0000
0011
0000
0000
2000
3002
2003
3002
2003
3002
,
2003
0000
3002
0000
2003
0000
3002
0000
2003
0000
3002
0000
2003
0000
3002
0000
2003
0000
3002
0000
0223
0000
0330
0000
0000
0000
0000
0000
0000
0000
0000
0000
0000
0000
0000
0000
1000
0000
0000
0100
0000
0000
0000
0000
0000
0001
0000
0000
,
0010
0000
1000
0100
0000
0001
0010
0000
0100
0010
0000
1000
0010
0000
0000
0000
,
0000
0000
0000
0000
0001
0010
0100
0000
0000
0100
0000
0000
0000
1001
0000
0000
0000
0000
0000
0000
0000
0000
0000
0000
,
1000
0100
0000
0011
0011
0000
1100
0011
0000
0110
0110
0000
0011
0011
0000
0000
,
1100
1100
0000
0000
0001
0010
0100
1000
0222
0000
0000
0000
0333
0000
0000
0000
,
1001
0000
0000
0000
0000
0000
0000
0000
0000
0000
0000
0000
0000
0000
0000
0000
0000
0000
0000
0000
0000
0000
0000
0000
1000
0000
0000
0000
0000
0000
0000
0000
0000
0000
0000
0000
0000
0000
0000
0000
0000
0000
0000
0000
0000
0000
0000
0000
1001
0000
0000
0000
0000
0000
0000
0000
0000
0000
0000
0000
0000
0000
0000
0000
0000
0000
0000
0000
0000
0000
0000
0000
1000
0000
0000
0000
0000
0000
0000
0000
0001
0000
0000
0000
0000
0000
0000
0000
1000
0000
0000
0000
0000
0000
0000
0000
0001
0000
0000
0000
0000
0000
0000
0000
1000
0000
0000
0000
0000
0000
0000
0000
0000
0000
1000
0000
0000
0000
0000
0000
0001
0000
0000
0000
0000
0000
1000
0000
0000
0000
0000
0000
0001
0000
0000
0000
0000
0000
1000
0000
0000
0000
0000
0000
0001
0000
0000
0000
0000
0000
1000
0000
0000
0000
0000
0000
0001
0000
0000
0000
0000
0000
0000
0000
0000
0000
0000
0000
1000
0000
0000
0000
0000
0000
0000
0000
0001
0000
0000
0000
0000
0000
0000
0000
1000
0000
0000
0000
0000
0000
0000
0000
,
0001
0000
0000
0000
0000
0000
0000
0000
1000
0000
0000
0000
0000
0000
0000
0000
0001
0000
0000
0000
0000
0000
0000
0000
1000
0000
0000
0000
0000
0000
0000
0000
0001
0000
0000
0000
0000
0000
0000
0000
0000
0000
0000
0000
0000
0000
0000
0000
1000
0000
0000
0000
0000
0000
0000
0000
0000
0000
0000
0000
0001
0000
0000
0000
0000
0000
0000
0000
0000
0000
0000
0000
1000
0000
0000
0000
0000
0000
0000
0000
0000
0000
0000
0000
0001
0000
0000
0000
0000
0000
0000
0000
0000
0000
0000
0000
1000
0000
0000
0000
0000
0000
0000
0000
0000
0000
0000
0000
0001
0000
0000
0000
0000
0000
0000
0000
0000
0000
0000
0000
1000
0000
0000
0000
0000
0000
0000
0000
0000
0000
0000
0000
0001
0000
0000
0000
0000
0000
0000
0000
0000
0000
0000
0000
2002
0000
0000
3003
0000
0000
0000
0000
0000
0000
0000
0000
0000
0000
0000
0000
0000
0000
0000
0000
0000
0000
0000
0000
0000
0000
0000
0000
0000
0000
0000
0000
0000
0000
0000
0000
0000
0000
0000
0000
0000
0000
0000
0000
0000
0000
0000
0000
,
2000
0000
3200
0320
0032
2203
3300
0000
,
0000
0000
0000
0000
0000
0000
0000
0000
2200
0000
0000
0000
0000
0000
0000
0000
0000
0000
0000
0000
0000
0000
0000
0000
0000
0000
0000
0000
0000
0000
0000
0000
0000
0000
0000
0000
0000
0000
0000
0000
3320
0000
0000
0000
0000
0000
0000
0030
0020
0000
0000
0000
0000
0000
0000
0030
0020
0000
0000
0000
0000
0000
0000
0000
,
0032
0000
0000
0000
0000
0000
0000
0003
0002
0000
0000
0000
0000
0000
0000
0003
0002
0000
0000
0000
0000
0000
0000
0003
2002
0000
0000
0000
0000
0000
0000
0000
3003
0000
0000
0000
0000
0000
0000
0000
0000
0000
0000
0000
0000
0000
0000
0000
2002
0000
0000
0000
0000
0000
0000
0000
0000
0000
0000
0000
0000
0000
0000
0000
,
0000
0020
3003
2030
3200
0320
2032
3003
,
2000
0000
0000
3200
0000
0000
2300
0000
0000
3000
0000
0000
0000
0000
0000
0000
0000
0000
0000
0000
0000
0000
0000
0000
2002
0000
0000
0000
0000
0000
3003
0000
0000
0000
0000
0000
1001
0000
0000
0000
1001
0000
0000
0000
1001
0000
0000
0000
,
1001
1001
1001
1001
1001
1001
1001
1001
1001
1001
1001
1001
,
1000
0001
1000
0001
1000
0001
1100
0000
0000
1100
0000
0000
0011
0000
0011
0000
0000
0000
0000
0000
0000
1001
0000
0000
,
1000
0100
0010
0000
0001
0010
0010
0000
0100
0100
0100
0000
0001
0001
0001
0000
,
0010
0010
0010
0000
2000
3200
0320
0000
0000
0000
0000
0000
2030
3200
2300
3200
,
0320
0000
0000
0030
0000
0000
0000
0000
0000
0000
0000
0000
0000
0000
0000
0000
0000
0000
0000
0000
0000
0000
0000
0000
1001
0000
0000
0000
0000
0000
0000
0000
1001
0000
0000
0000
0000
0000
0000
1000
0000
0000
0100
0000
0000
0010
0000
0000
,
0001
0000
0000
0001
0010
0100
1000
0000
0001
0010
0100
1000
0000
0000
1000
0010
,
0100
0000
0000
0001
0000
0000
0000
0000
0000
0001
0000
0000
0100
0000
0000
0010
0000
0000
1000
0000
0000
0000
0000
0000
0000
0000
0000
0000
0000
0000
0000
0000
1001
0000
0000
0000
0000
0000
0000
0000
1001
0000
0000
0000
0000
0000
0000
0000
,
2000
0000
3200
0320
0032
2203
0000
0010
,
0000
0000
0000
0000
0001
0000
0000
0000
0000
0000
0000
0000
0010
0000
0000
0000
3300
0000
0000
0000
0000
0220
0000
0000
0000
0000
0000
0000
0000
0000
0000
0000
,
0000
0000
0000
0000
0000
0000
0000
0000
0330
0000
0000
0000
0000
0000
0000
0000
2000
3002
0003
0000
0000
0000
2000
0000
3002
0000
2003
0000
3000
0000
0000
0000
,
0000
1000
0000
0110
0000
0001
0110
0000
0000
0000
0000
0000
,
2000
0200
0320
0032
0023
0230
0320
0032
,
3223
0000
0330
0000
0000
0000
0000
0000
1000
0100
1000
0000
0010
0001
0010
0000
,
0100
0010
0100
0000
2000
3200
0320
0030
0001
0010
0100
0000
1000
0100
0010
0000
,
1001
1001
1001
0000
0110
0110
0110
0000
0011
0011
0011
0000
1100
1100
1100
0000
,
1010
0101
1010
0000
0101
1010
0101
0000
1001
0110
1001
0000
0011
1100
0011
0000
,
2000
0000
0000
3200
0000
0000
2302
0000
0000
0000
0000
0000
0000
0000
0000
0000
0000
0000
3223
0000
0332
0000
0000
0000
,
0003
0000
0000
0000
2000
3200
2300
3200
2300
3200
2300
3200
2300
3200
2300
3200
2300
3200
2300
3200
2300
3200
2300
3200
2300
3000
0000
0000
0000
0000
0000
0000
,
1001
2000
3200
0320
0032
0023
0230
2300
3000
0000
0000
0000
1000
0100
1000
0000
,
0001
0010
0001
0000
0100
0010
0100
0000
1100
0101
1010
0000
0000
2000
3002
2003
,
3000
0000
0000
0000
0000
0000
0000
0000
0000
0000
0000
0000
1010
0101
1010
0101
,
1010
0000
0000
0101
0000
0000
1010
0000
0000
0101
0000
0000
1010
0000
0000
0000
0000
0000
0000
0000
1010
0000
0000
0000
0101
0000
0000
0000
0000
0000
0000
0000
1010
0000
0000
0000
0000
0000
0000
0000
0000
0000
0000
0000
0000
0000
0000
0000
,
0001
0010
0100
0000
0000
0000
0000
0000
0000
0000
0000
0000
0001
0010
0100
0000
0000
0000
0000
0000
0000
0000
0000
0000
2200
0000
0000
0000
0000
0000
0000
0000
0000
0000
0000
0000
0010
0000
0000
0000
0002
0000
0000
0000
0000
0000
0000
0000
,
0000
0000
0000
3300
0000
0000
0000
0000
0000
0000
0003
0000
,
1000
0000
0000
0100
0000
0000
1000
0000
0000
0000
0000
0000
0001
0000
0000
0010
0000
0000
0001
0000
0000
0000
0000
0000
0020
0230
2300
3000
0000
0000
0000
0000
0000
0002
0023
0230
0300
0000
0000
0000
0000
0000
0000
0000
0000
0000
0000
0000
,
1000
0000
0000
0000
0000
0000
0000
0000
0001
0000
0000
0000
0000
0000
0000
0000
1000
0000
0000
0000
0000
0000
0000
0000
0001
0000
0000
0000
0000
0000
0000
0000
1000
0000
0000
0000
0000
0000
0000
0000
0001
0000
0000
0000
0000
0000
0000
0000
1000
0000
0000
0000
0000
0000
0001
0000
0000
0000
0000
0000
1000
0000
0000
0000
0000
0000
0001
0000
0000
0000
0000
0000
1000
0000
0000
0000
0000
0000
0001
0000
0000
0000
0000
0000
1000
0000
0000
0000
0000
0000
0001
0000
0000
0000
0000
0000
1000
0000
0000
0000
0000
0000
0001
0000
0000
0000
0000
0000
1000
0000
0000
0000
0000
0000
0001
0000
0000
0000
0000
0000
1000
0000
0000
0000
0000
0000
0001
0000
0000
0000
0000
0000
1000
0000
0000
0000
0000
0000
0001
0000
0000
0000
0000
0000
1000
0000
0000
0000
0000
0000
0001
0000
0000
0000
0000
0000
1000
0000
0000
0000
0000
0000
0001
0000
0000
0000
0000
0000
1000
0000
0000
0000
0000
0000
0001
0000
0000
0000
0000
0000
0000
0000
0000
0000
0000
0000
0000
0000
0000
0000
0000
0000
,
0000
0000
0000
1000
0000
0000
0001
0000
0000
0000
0000
0000
1000
0000
0000
0001
0000
0000
0000
0000
0000
1000
0000
0000
0001
0000
0000
1000
0000
0000
0000
0000
0000
0000
0000
0000
0000
0000
0000
0000
0000
0000
0000
0000
1100
0000
0000
0000
,
1100
0000
0000
0000
0000
0000
0000
0000
0011
0000
0000
0000
0000
0000
0000
1000
0000
0000
0001
0000
0000
1000
0000
0000
0000
0000
0000
0000
1100
0000
0000
0000
1100
0000
0000
0000
0000
0000
0000
0000
0011
0000
0000
0000
0000
0000
0000
0000
,
0000
0000
0000
0000
2000
0000
3220
0000
0332
0220
2333
3220
0332
0003
0000
0000
,
1000
0100
0010
0001
0010
0100
1000
0100
0010
0001
0010
0100
,
1000
0000
0000
0000
0100
0000
0000
0000
0010
0000
0000
0000
0001
0000
0000
0000
0010
0000
0000
0000
0100
0000
0000
0000
2000
0000
0000
0000
0000
0000
3220
0000
0000
0000
0000
0000
0332
0000
0000
0220
0000
0000
2333
0000
0000
3220
0000
0000
,
0332
0000
0000
0003
0010
0000
0000
0000
0100
0000
0000
0000
1000
0000
0000
0000
0010
0000
0000
0000
0001
0000
0000
0000
0100
0000
0000
0000
0010
0000
0000
0000
0001
0000
0000
0000
0010
0000
0000
0000
0100
0000
0000
0000
0010
0000
0000
0000
,
1001
0000
0000
0000
0100
0000
0000
0000
0010
0000
0000
0000
0100
0000
0000
0000
1000
0000
0000
0000
0000
0000
0000
0000
2000
3200
0320
0032
0023
0230
2300
3200
0320
0032
0023
0230
2300
3200
0320
0032
0023
0230
2300
3200
0320
0032
0023
0230
,
2300
0000
0000
0000
3000
0000
0200
0000
0000
0000
0000
0000
0320
0000
0000
0000
0000
0000
0032
0000
0000
0000
0000
0000
0023
0000
0000
0000
0000
0000
0230
0000
0000
0000
0000
0000
2300
0000
0000
0000
0000
0000
3200
0000
0000
0000
0000
0000
0320
0000
0000
0000
0000
0000
0000
0000
0000
0000
0000
0000
0000
0000
0000
0000
0000
0000
0000
0000
0000
0000
0000
0000
0000
0000
0000
0000
0000
0000
0000
0000
0000
0000
0000
0000
0000
0000
0000
0000
0000
0000
0000
0000
0000
0000
0000
0000
2000
0000
0000
0000
0000
0000
0000
0000
3200
0000
0000
0000
0000
0000
0000
0000
0300
0000
0000
0000
0000
0000
0000
0000
0000
0000
0000
0000
0000
0000
0000
0000
2000
0000
0000
0000
0000
0000
0000
0000
3200
0000
0000
0000
0000
0000
0000
0000
0330
0000
0000
0000
0000
0000
0000
0000
0000
0000
0000
0000
0000
0000
0000
0000
0000
0000
0000
0000
0000
0000
0000
0000
0000
0000
0000
0000
0000
0000
0000
0000
0000
0000
0000
0000
0000
0000
0000
0000
0000
0000
0000
0000
0000
0000
0000
0000
,
1000
0000
0100
0000
0010
0020
0230
2300
,
3200
0320
0032
0023
0000
0230
2300
3200
0320
0032
0023
0230
,
2300
3200
0320
0032
0023
0230
2300
0000
0000
3200
0000
0000
,
0320
0032
0023
0230
0320
0032
0023
0230
0320
0032
0003
0000
,
0000
0000
0000
0000
2000
0000
0000
0000
3200
0000
0320
0000
0032
0023
0230
2300
,
3200
0000
0000
0320
0000
0000
0032
0000
0000
0003
0000
0000
0020
0000
0000
0000
0230
0000
0000
0000
2300
0000
0000
0000
3200
0000
0000
0000
0320
0000
0000
0000
0030
0000
0000
0000
0002
0000
0000
0000
0000
0000
0000
0000
0000
0000
0000
0000
,
0000
0000
0000
0000
0023
0000
0000
0000
0000
1030
0001
1000
,
0002
0000
0000
0000
0023
0230
2300
3200
0320
0032
0223
0000
0000
0000
2332
0000
,
0000
0000
3003
1000
0100
0010
0000
0000
,
1001
0000
0000
0000
0000
0000
0000
0000
1001
0000
0000
0000
0000
0000
0000
0000
1001
0000
0000
0000
0000
0000
0000
0000
0002
0023
0230
2300
3200
0320
0032
0023
,
0230
0300
0000
0000
1100
0000
0000
0000
1100
0000
0000
0000
0000
0000
0000
0000
1000
0000
0100
0000
0010
0000
0001
0000
0010
0000
0100
0000
1000
0000
0000
0000
,
0000
0000
0000
0000
0000
0000
0000
0000
0000
0000
0000
0000
0000
2000
3200
0320
0032
0003
0000
0000
1001
0000
0000
0000
0000
0000
0000
0000
0000
0000
0000
0000
,
1000
0000
0000
0100
0000
0000
1000
0000
0000
0100
0000
0000
0000
0000
0000
0000
0000
0000
2000
0000
0000
3002
0000
0000
2003
0000
0000
3000
0000
0000
0000
0000
0000
0000
0000
0000
1000
0000
0000
0000
0100
0000
0000
0000
0010
0000
0000
0000
,
0001
0000
0000
0000
1001
0000
0000
0000
1001
0000
0000
0000
0000
0000
0000
0000
2000
3200
0320
0032
0023
0230
2300
3200
0320
0032
0023
0230
2300
3200
0320
0032
,
0023
0030
0000
0000
0100
0000
0000
0000
0100
0000
0000
0000
0010
0000
0000
0000
0010
0000
0000
0000
0001
0000
0000
0000
0001
0000
0000
0000
0001
0000
0000
0000
,
0001
0010
0010
0100
0100
1000
1000
0100
,
0100
0000
0001
0010
0001
0000
0000
0000
1000
0100
0010
0000
0001
0010
0001
0000
,
0110
0000
0000
0000
0000
0000
0000
0000
0000
0000
0000
0000
0110
0000
0000
0000
0000
0000
0000
0000
0000
0000
0000
0000
0110
0000
0000
0000
0000
0000
0000
0000
0000
0000
0000
0000
0000
0000
0000
0000
0000
0000
0000
0000
0000
0000
0000
0000
2000
0000
0000
0000
0000
0000
3002
0000
0000
0000
0000
0000
2003
0000
0000
0000
0000
0000
3002
0000
0000
0000
0000
0000
2003
0000
0000
0000
0000
0000
3002
0000
0000
0000
0000
0000
2003
0000
0000
0000
0000
0000
3002
0000
0000
0000
0000
0000
2003
0000
0000
0000
0000
0000
3002
0000
0000
0000
0000
0000
2003
0000
0000
0000
0000
0000
3002
0000
0000
0000
0000
0000
2003
0000
0000
0000
0000
0000
3002
0000
0000
0000
0000
0000
2003
0000
0000
0000
0000
0000
3002
0000
0000
0000
0000
0000
2003
0000
0000
0000
0000
0000
3000
0000
0200
0000
0000
0000
0000
0000
0000
0000
0320
0000
0000
0000
0000
0000
0000
0000
0032
0000
0000
0000
0000
0000
0000
0000
0023
0000
0000
0000
0000
0000
0000
0000
0230
0000
0000
0000
0000
0000
0000
0000
,
2300
3200
0320
0032
0023
0230
2300
3200
0320
0032
0023
0230
2300
3200
0320
0032
0023
0230
2300
3200
0320
0032
0023
0230
,
2300
3200
0320
0032
0023
0230
2300
3200
0320
0032
0023
0230
2300
3200
0320
0032
0023
0230
2300
3200
0320
0032
0023
0230
,
2300
3200
0320
0032
0023
0230
2300
3200
0320
0032
0023
0230
2300
3200
0320
0032
0023
0230
2300
3200
0320
0032
0023
0230
,
2300
3200
0320
0032
0023
0230
2300
3200
0320
0032
0023
0230
2300
3200
0320
0032
0023
0230
2300
3200
0320
0032
0023
0230
,
2300
3200
0320
0032
0023
0230
2300
3200
0320
0032
0023
0230
2300
3200
0320
0032
0023
0230
2300
3200
0320
0032
0023
0230
,
2300
0000
3000
0000
0000
0000
0000
0000
0000
0000
0000
0000
0000
0000
0000
1000
0000
0000
0001
0000
0000
0000
0000
0000
1001
0000
0000
0000
0000
0000
0000
0000
0000
0000
0000
0000
0000
0000
0000
0000
1001
0000
0000
0000
0000
0000
0000
0000
,
1001
0000
1000
0001
1000
0001
1000
0001
1000
0000
0000
0000
1000
0000
0100
0000
,
0010
0001
0100
0010
0001
0010
0100
0001
,
0010
0000
0000
0000
0000
0000
0000
0000
0000
2000
3200
2300
3200
2300
3200
0300
,
0000
1000
0100
0010
0001
0110
1000
0110
,
0001
0000
0110
0000
0110
0000
0000
0000
2000
3200
2300
3200
2300
3200
0300
0000
,
1100
0000
2000
3200
2300
3200
2300
3200
0300
0000
0000
0000
1000
0000
0110
0000
,
0001
0110
1000
0110
0001
0110
1000
0110
,
0001
0110
1000
0110
0001
0110
1000
0110
,
0001
0110
1000
0110
0001
0110
0001
1000
0100
0010
0001
0000
1100
1100
1100
1100
,
1100
0000
0000
0000
2000
3200
0320
0032
0023
0230
2300
3200
0320
0032
0023
0230
,
2300
3200
0320
0032
0023
0230
0320
0032
0023
0230
2300
3200
0320
0230
2300
3200
,
0320
0032
0023
0230
0320
0032
0023
2030
3200
0302
0023
0230
2300
3020
0032
0023
,
0230
2300
3200
0320
0032
0023
0230
0320
0032
0023
2030
3020
0230
0302
0023
0032
,
0203
2300
3200
0320
0032
0023
0230
0320
0032
0003
0000
0000
1000
0001
1000
0001
,
1000
0000
0000
0000
0000
0000
2000
3200
0320
0032
0023
0230
2300
3200
0320
0230
2300
3200
0320
0230
2300
3200
0320
0032
,
0023
0230
0320
0032
0023
0230
0320
0032
0023
0230
2300
3200
0320
0032
0023
0230
2300
3200
0320
0032
0023
0230
2300
3200
,
0320
0032
0023
0230
2300
3200
0320
0032
2003
3200
0320
0230
2300
3200
0320
0032
0023
0230
2300
3200
0320
0032
0023
0230
,
2300
3200
0320
0230
2300
3200
0320
0230
2300
3200
2300
3200
2300
3200
2300
3200
0320
0032
0023
0032
0023
0032
0023
0230
,
2300
3200
0320
0032
0023
0230
2300
3200
0320
0032
0023
0230
2300
3200
0320
0032
0023
0230
2300
3200
0320
0032
0023
0230
2300
3200
0320
0032
0023
0230
2300
3200
,
0320
0032
0023
0230
2300
3200
0320
0032
0023
0230
2300
3200
0320
0032
0023
0230
2300
3200
0320
0032
0023
0230
2300
3200
0320
0032
0003
0020
0230
0300
0000
0000
,
1100
0000
1001
0000
0110
0000
1010
0101
0000
0101
1010
0000
1001
0000
0000
0000
,
1001
0000
0110
0000
1100
0000
0011
0011
0000
0011
0011
0000
1100
0000
0000
0000
,
1100
1100
0000
0011
0011
0000
1100
0000
0011
0011
0000
1100
1100
0000
0011
0000
,
1100
1100
0000
1010
0101
0000
1001
0000
1001
1010
0101
0000
0000
0000
0000
0000
,
2110
3211
0000
0000
,
1321
0000
2231
0000
,
3311
0000
0011
0000
0011
0011
0000
0011
0011
0000
0011
0000
0000
0000
0000
0000
,
2000
0100
0010
3201
0010
1000
0010
0300
,
0011
0000
0011
0000
0011
0000
0011
0011
0000
0011
0011
1010
0000
0000
0000
1010
,
0000
1010
0000
1010
0000
0101
0101
0000
0101
0101
0000
1001
1001
0000
0110
0110
,
0000
0011
0011
0011
0000
1100
1100
1100
1100
0000
0110
0011
0000
1100
1010
0101
,
0000
0000
0011
0110
1010
0000
0011
0100
0011
0000
1100
0011
0110
0000
0011
1010
,
0101
0000
1010
0101
1010
0000
0010
0010
0010
0000
1000
1000
1000
0000
1000
0100
,
0010
0000
0001
0010
0100
0000
1001
1001
1001
0000
0011
0110
1100
0000
1100
0110
,
0011
0000
1001
1010
0101
0000
1100
0110
0011
0000
1001
1001
0000
0000
1001
0000
,
1001
1001
1001
1001
1001
1001
1001
1001
,
1001
0000
1001
0000
1001
0000
0000
0000
1000
0001
1000
0001
1000
0001
1000
0001
,
1000
0000
0000
1100
0000
0110
0000
0011
0110
0000
1100
0000
,
0011
0000
1010
0000
0101
0000
1010
0101
1010
0101
1010
0101
,
1010
0101
1010
0101
1010
0101
1010
0101
1010
0101
1010
0101
,
1010
0001
0010
0100
1000
0100
0010
0000
,
1000
0000
0000
0001
0000
0000
1000
0000
0000
0001
0000
0000
2002
0000
0000
3003
0000
0000
0000
0000
0000
0000
0000
0000
1100
0000
0000
0000
0000
0000
0000
0000
1100
0000
0000
0000
0000
0000
0000
0000
0011
0000
0000
0000
0011
0000
0000
0000
,
0000
0000
1100
0000
0011
1100
0000
0000
1010
0000
0101
1010
,
0000
0000
0000
0000
1001
0000
0000
0000
0000
0000
0000
0000
0000
0000
0000
0000
0000
0000
0000
0000
0000
1000
0000
0000
0001
0000
0000
1000
0000
0000
0001
0000
0000
1000
0000
0000
0001
0000
0000
1000
0000
0000
0001
0000
0000
1000
0000
0000
,
0001
1000
0001
1000
0001
1000
0001
1000
0000
0000
0000
0110
0000
0001
1000
0000
,
0100
0010
0100
0000
0001
0010
0001
0000
0000
0000
2020
0000
3131
0000
1010
0000
,
0101
1010
0101
1010
0101
1010
0101
1010
,
0101
1010
0101
1010
0101
1010
0101
0000
,
1000
0100
0000
0001
0010
0000
1000
0100
1000
0000
0001
0010
0001
0000
1000
0100
,
1000
0100
0000
0001
0010
0001
0010
0000
1000
0100
1000
0100
1000
0001
0000
0000
,
1010
0101
1010
0101
1010
0101
1010
0101
,
1010
0000
0101
0000
1010
0000
0101
0000
1010
0000
0101
0000
1010
0101
1010
0101
,
1010
0000
0000
0000
,
2002
0000
0000
0000
0000
0000
0000
0000
3003
0000
0000
0000
0000
2000
3200
0320
,
2032
3003
0000
0000
0100
0000
0100
0000
0010
0000
0001
0000
0100
0000
1100
0000
,
0110
0011
0110
1100
0001
0011
0110
1100
,
0110
0011
0110
1100
0110
0001
0010
0100
,
0010
0000
0001
0000
0010
0000
0100
0000
1000
0000
0000
0000
0000
2000
3200
0320
,
2032
3003
0000
0000
0002
2003
3000
2000
3002
0003
0002
2003
3000
0000
0000
0000
,
1000
0100
0010
0001
0010
0100
1000
0100
,
0010
0001
0100
0010
1000
0100
0010
0001
,
0010
0100
1000
0100
2002
0000
0000
0000
,
0000
3003
0000
0000
1000
0100
0010
0001
,
1000
0100
0010
0001
0010
0100
1000
0100
,
0010
1000
0100
0010
0001
0010
0100
1000
,
0100
0010
0001
0010
0100
1000
0100
0010
,
0001
0010
0100
1000
0100
0010
0001
0010
,
0100
1000
0100
0010
0001
0010
0100
1000
,
0100
0010
0001
1001
0010
0110
1000
0000
,
1000
0001
1000
0001
1000
0001
1000
0001
1000
0001
1000
0001
1000
0001
1000
0001
,
1000
0001
1000
0001
1000
0001
1000
0001
1000
0001
1000
0001
1000
0001
1000
0001
,
1000
0001
1001
0000
0100
0000
1010
0000
0001
0000
0101
0000
0010
0000
1010
0000
,
0001
0101
0010
0010
0010
0010
1000
0100
,
0010
1001
0001
0101
0010
1010
0001
0100
,
1000
0110
0001
0110
1000
0100
0010
0001
,
0110
1000
0110
0001
0110
1000
0110
0001
,
0110
0001
0110
0001
0110
0001
0110
0002
,
0113
0001
0110
0001
0110
0001
0110
0001
,
0110
0000
0001
0000
1000
0001
1000
0001
1000
0001
1000
0001
1000
0001
1000
0001
,
1000
0001
1000
0001
1000
0001
1000
0001
1000
0001
1000
0001
1000
0001
1000
0001
,
1000
0001
1000
0001
1000
0000
0000
0000
1000
0000
0100
0000
0010
0000
0001
0000
,
0010
0100
1000
0100
0010
0100
1000
0100
,
0010
0001
0010
0100
0001
0010
1100
0010
,
0001
0110
1000
0110
0001
0110
1000
0011
,
0110
1100
0110
0011
0110
1100
0110
0011
,
0110
1100
0110
0011
0110
1100
0110
0011
,
0110
0000
0000
1100
0000
0000
0110
0000
0000
1100
0000
0000
0110
0000
0011
0000
0110
0000
1100
0000
0110
0000
0011
0000
,
0110
1100
0110
0011
0110
1100
0110
0011
0110
1100
0011
0110
,
2200
3300
0000
0000
0000
0000
0000
0000
0000
0000
0000
0000
0000
0000
0000
0000
0000
0000
0000
0000
0000
0000
0000
0000
1000
0000
0000
0000
0000
0000
0000
0000
1000
0000
0000
0000
0000
0000
0000
0000
1001
0000
0000
0000
0000
0000
0000
0000
0100
0000
0000
0000
0000
0000
0000
0000
1001
0000
0000
0000
0000
0000
0000
0000
,
1001
0000
1001
0000
0001
0000
0001
0000
0110
0000
0110
0000
0110
0110
0000
0000
,
1000
0100
0000
0001
0010
0000
1000
0100
0010
0001
0020
0030
0000
1000
0100
0000
,
0001
0000
0110
0000
0110
0000
0110
0000
0000
0000
1000
1000
0000
0000
0000
0000
,
0000
0000
0000
1000
0100
1000
0100
0000
0000
0000
0000
0000
0000
0000
0000
0000
0000
0000
0000
0000
0000
0000
0000
0000
0000
0000
0000
0000
0000
0000
0000
0000
,
1100
0110
0011
0011
0011
0010
0100
1000
,
0100
0000
0010
0000
0001
0000
0010
0000
0100
0000
2000
3002
2003
3002
2003
3002
,
2003
3002
2003
3002
2003
3002
2003
3200
0320
0032
0023
0230
2300
3200
0320
0032
,
0023
0230
2300
3200
0320
0032
0023
2030
3200
0302
0023
2030
3222
0333
0000
0000
;
