#TITLE:PARANOiA RED;
#SUBTITLE:;
#ARTIST:RED220;
#TITLETRANSLIT:;
#SUBTITLETRANSLIT:;
#ARTISTTRANSLIT:;
#CREDIT:;
#BANNER:parared.png;
#BACKGROUND:parared-bg.png;
#LYRICSPATH:;
#CDTITLE:cdtitle.png;
#MUSIC:paranoia_red.mp3;
#OFFSET:0.497;
#SAMPLESTART:73.660;
#SAMPLELENGTH:12.000;
#SELECTABLE:YES;
#BPMS:0.000=220.000;
#STOPS:;
#BGCHANGES:;
// cache tags:
#FIRSTBEAT:21.000;
#LASTBEAT:334.000;
#SONGFILENAME:Songs/Japanese Collaboration Mix/PARANOiA RED/PARANOiA RED.sm;
#HASMUSIC:1;
#HASBANNER:1;
#MUSICLENGTH:92.786;
// end cache tags

//---------------dance-single - ----------------
#NOTES:
     dance-single:
     :
     Challenge:
     10:
     0.753,0.720,0.151,0.000,0.000,475.000,14.000,0.000,0.000,0.000:
0000
0000
0000
0000
,
0000
0000
0000
0000
,
0000
0000
0000
0000
,
0000
0000
0000
0000
,
0000
0000
0000
0000
,
0000
0001
0000
0001
,
0000
1000
0000
1000
,
0001
0001
0100
0100
,
0010
0000
0000
0001
0100
0010
0000
0000
,
0001
0010
0001
1000
0010
0000
0100
0000
,
0001
0010
0001
1000
0010
0000
0100
0000
,
0001
0010
0001
1000
0010
0000
0100
0000
,
0001
0010
0001
0100
0010
0100
0001
0000
,
0001
0010
0100
0001
0100
0010
0001
0000
,
0100
0010
1000
0010
0100
1000
0001
0000
,
0100
0010
1000
0100
0010
0100
1000
0000
,
0010
0100
0010
0001
1000
0000
0000
0000
,
0001
0010
0001
0100
0001
1000
0010
0000
,
0100
1000
0010
0001
0010
0100
1000
0000
,
0001
0010
0001
0100
0001
1000
0010
0000
,
0100
1000
0010
0001
0010
0100
1000
0000
,
0001
0010
0100
0001
0100
0010
0001
0000
,
0100
0010
1000
0010
0100
1000
0001
0000
,
1000
0100
0001
1000
0010
0001
0010
0000
,
0001
0010
1001
0000
,
0001
0000
0000
1000
0001
0000
0000
0100
,
0010
0000
0000
0100
0001
0100
0000
0001
,
1000
0000
0000
0001
0100
0000
0000
0010
,
1000
0000
0000
0001
0100
0001
0000
0000
,
0001
0000
0000
1000
0100
0000
0000
0001
,
0010
0000
0000
0100
0010
1000
0000
1000
,
0001
0000
0000
0100
0010
0000
0000
0001
,
0001
0000
0000
0100
0010
0100
0010
0100
,
0000
0010
0001
0010
0001
0010
0001
0010
,
0100
0001
0000
0101
0000
0000
1010
0000
,
0000
0010
0100
1000
0100
0010
0100
0001
,
0100
1000
0000
0000
1010
0000
1001
0000
,
0000
0001
0010
1000
0010
0001
0010
0100
,
0010
1000
0000
0011
0000
0000
0101
0000
,
0000
0001
0100
1000
0100
0010
0100
0001
,
0100
1000
0000
0000
0101
0000
0110
0000
,
0000
0100
0010
0001
0100
1000
0100
0001
,
1000
0010
0000
1001
0000
0010
1000
0000
,
0000
0100
1000
0010
0001
0010
1000
0100
,
0010
1000
0000
0000
0100
1000
0001
0000
,
0000
0100
0001
0010
1000
0010
0100
0001
,
0010
1000
0000
1001
0000
0010
1000
0000
,
0000
1000
0001
1000
0010
0001
0010
1000
,
0100
0001
0000
0000
0001
1000
0001
0000
,
1000
0100
0000
0000
0001
0010
1000
0010
,
0000
0000
0001
0100
1000
0100
0001
0100
,
1000
0000
0001
0100
1000
0100
0001
0100
,
1000
0010
1000
0001
0100
0010
0100
0000
,
0001
1000
0001
0100
0010
1000
0010
0000
,
0100
0001
1000
0000
0100
1000
0001
0000
,
1000
0001
0100
0010
0100
0010
0100
0001
,
1000
0000
0001
0010
1000
0010
0001
0000
,
1000
0010
0100
0010
0100
0000
1010
0000
,
0100
0001
0010
1000
0100
0000
0010
0001
,
0100
0001
0010
0000
1001
0000
0000
0000
,
0001
0100
0001
0100
0001
1000
0100
0000
,
0001
0100
0001
0100
0001
1000
0100
0000
,
0001
0010
0001
0100
0001
0010
0001
0100
,
0001
0000
0001
0100
0010
1000
0001
0000
,
0100
0001
0010
1000
0010
0001
0010
0100
,
0001
1000
0010
0100
0010
0001
0010
0000
,
0010
0001
0100
1000
0100
0001
0100
0000
,
0100
0001
0010
1000
0010
0100
0010
0000
,
0001
0100
1000
0001
0100
1000
0001
0010
,
0100
1000
0100
0001
1000
0000
0001
0000
,
0100
0010
0001
0100
1000
0100
0001
1000
,
0010
0001
0100
1000
0010
0000
0000
0000
,
0100
0001
0010
0100
0010
0001
0010
0100
,
0001
0100
0010
0001
0100
0000
0001
0000
,
0010
0001
0010
0100
0001
0010
0100
0001
,
0010
0100
0010
0001
0100
0000
0000
0000
,
0010
0100
1000
0010
0100
1000
0100
0001
,
1000
0100
0010
1000
0010
0000
0100
0000
,
1000
0100
0001
1000
0010
0001
1000
0100
,
0001
1000
0100
0001
1000
0000
0000
0000
,
0010
0100
0001
0100
1000
0010
0001
1000
,
0100
0010
0001
1000
0001
0000
1000
0000
,
0100
0000
0001
0010
1000
0100
0001
0010
,
1000
0001
1100
0000
;
