#TITLE:Brave New World;
#SUBTITLE:Namco X Capcom -Opening-;
#ARTIST:Yuzo Koshiro, Flair (Sweet AGe Tracks);
#TITLETRANSLIT:;
#SUBTITLETRANSLIT:;
#ARTISTTRANSLIT:;
#CREDIT:;
#BANNER:BNW-bn.PNG;
#BACKGROUND:BNW-bg.PNG;
#LYRICSPATH:;
#CDTITLE:Trick Badguy.PNG;
#MUSIC:Brave New World (Namco X Capcom).mp3;
#OFFSET:-0.100;
#SAMPLESTART:8.960;
#SAMPLELENGTH:12.000;
#SELECTABLE:YES;
#BPMS:0.000=139.010,168.000=69.505,184.000=139.010,185.000=278.020,193.000=139.010;
#STOPS:184.000=1.295
;
#BGCHANGES:0.000=Namco x Capcom Opening.avi=1.000=1=1=0,
336.000=BNW-bg.PNG=1.000=0=0=1,
99999=-nosongbg-=1.000=0=0=0 // don't automatically add -songbackground-
;
// cache tags:
#FIRSTBEAT:0.000;
#LASTBEAT:336.000;
#SONGFILENAME:Songs/toune 1 (2010)/(Trick Badguy) Brave New World/Brave New World (Namco X Capcom).sm;
#HASMUSIC:1;
#HASBANNER:1;
#MUSICLENGTH:157.100;
// end cache tags

//---------------dance-single - ----------------
#NOTES:
     dance-single:
     :
     Medium:
     7:
     0.416,0.615,0.095,0.051,0.229,435.000,15.000,8.000,0.000,0.000:
0002
0000
0000
0000
,
1003
0010
0000
1000
,
0000
0000
0000
0000
0100
0000
0000
0000
0000
0000
0000
0000
0010
0000
0001
0010
,
0001
0010
0000
0100
,
0000
0000
0000
0000
1000
0000
0000
0000
0000
0000
0000
0000
0010
0000
0100
0010
,
0100
0001
0000
0010
,
0000
0000
0000
0000
0100
0000
0000
0000
0000
0000
0000
0000
1000
0000
0001
1000
,
0001
0100
0000
0010
,
0000
0000
0100
0000
1000
0001
0100
0010
,
1000
0000
0100
0000
0010
0001
0000
0001
0010
0000
0000
0000
0100
0000
0000
0000
,
1000
0000
0001
0000
0100
0010
0000
0010
0100
0000
0001
0000
1000
0000
0100
0000
,
0010
0000
1000
0000
0010
0100
0000
0100
0010
0000
0100
0000
1000
0001
0000
0001
,
1000
0000
0001
0000
0100
0010
0000
0010
0100
0000
0001
0000
1000
0000
0100
0000
,
0020
0000
0030
0000
0200
0000
0000
2300
,
0000
0000
3000
0000
0001
0100
1000
0100
,
0001
0000
0010
0000
0100
0010
0000
0010
0100
0000
1000
0000
0001
0100
0000
0100
,
0001
0000
0100
0000
0010
1000
0000
1000
0010
0000
0000
1000
0000
0000
0100
0000
,
0010
0000
0000
0000
0000
0000
0001
0000
1000
0000
0000
0001
0000
0000
0010
0000
,
1000
0000
0000
0000
0000
0000
0010
0000
0100
0000
0000
1000
0000
0000
0001
0000
,
0100
0000
0000
0010
1000
0000
0001
0100
,
0000
0000
0001
0000
0010
0000
0000
0000
0110
0000
0000
0100
0000
0000
1000
0000
,
0001
0000
0000
0000
0000
0000
0100
0000
0010
0000
0000
0100
0000
0000
0001
0000
,
0010
0000
0000
0000
0000
0000
1000
0000
0010
0000
0000
0001
0000
0000
0100
0000
,
0010
1000
1100
0001
,
0001
0010
0001
0000
1000
0010
0000
1000
0001
1000
0001
0000
0010
0001
0000
0010
,
0001
0010
0001
0000
1000
0001
0000
1000
0010
0000
0100
0000
0001
0000
0000
0000
,
1001
0000
0010
0000
1000
0100
0000
0010
,
0000
0001
0000
0100
0000
1000
0000
0100
,
0001
0010
1000
0010
0100
1000
0000
0001
,
0000
0100
0000
0010
0110
0000
1001
0000
,
0110
0000
0100
0000
1000
0001
0000
0010
,
0000
1000
0000
0010
0000
0100
0000
1000
,
0000
0100
0001
0000
0000
0010
0000
0010
,
0000
0010
0100
1000
0001
0100
0010
1000
,
1100
0000
0001
0000
0010
0001
0000
1000
,
0000
0010
0000
0100
0000
1000
0000
0100
,
0001
0000
0010
0000
0100
0100
0000
0010
,
0000
1000
0000
0010
0001
0000
0100
0000
,
0110
0000
0010
0000
1000
0001
0000
0010
,
0000
0100
0000
1000
0000
0100
0000
0010
,
0000
0001
0100
0000
1000
0000
0100
0000
,
0001
0000
0010
0000
0100
0000
1000
0000
0001
0100
0000
0100
0001
0100
0001
0000
,
1000
0000
0000
0000
0000
0000
0000
0000
0100
0000
0000
0010
0000
0000
0001
0000
0100
0000
0000
0000
0000
0000
1000
0000
0100
0000
0000
0001
0000
0000
0010
0000
,
1000
0000
0000
0000
0000
0000
0010
0000
0100
0000
0000
1000
0000
0000
0001
0000
0100
0000
0000
0000
0000
0000
0000
0000
0010
0000
0000
0010
0000
0000
0010
0000
,
0010
0000
0000
0000
0000
0000
0000
0000
1000
0000
0000
1000
0000
0000
1000
0000
0000
0000
0000
0000
0000
0000
0000
0000
0001
0000
0000
0010
0000
0000
0100
0000
,
1000
0000
0000
0100
0000
0000
0010
0000
0001
0000
0000
0100
0000
0000
1000
0000
0100
0000
0000
0000
0000
0000
0001
0000
0020
0000
0000
0000
0000
0000
0000
0000
,
0000
0030
0000
0000
0000
0000
0000
0000
2000
0000
0000
0000
0000
0000
0000
0000
0000
0000
0000
0000
0000
0000
0000
0000
3000
0000
0000
0000
0000
0000
0000
0000
,
0000
0001
0000
1000
,
0000
0000
1100
0000
0010
0000
0100
0001
,
0010
1000
0000
0010
0000
0100
0000
0000
,
0000
1000
0001
0000
0100
0000
0010
0100
,
0000
1000
0000
0100
0000
0001
0011
0000
,
1100
0000
1001
0000
0010
0000
0100
1000
,
0100
0001
0000
0010
1000
0010
0000
0001
,
1000
0001
0000
0100
0010
0100
0001
1000
,
0100
0010
0000
0001
1000
0001
1000
0010
,
0100
0001
0010
0000
0100
0000
1000
0100
,
0000
0010
0000
0001
0000
0100
0001
1000
,
0000
0100
1000
0001
0010
1000
0010
0100
,
1000
0010
0000
0100
0000
0001
1000
0001
,
0010
0100
1001
0000
0010
0000
0100
1000
,
0100
0001
0000
0010
0000
1000
0000
0010
,
0000
0100
0000
1000
0001
0000
0100
0000
,
0010
0000
0100
0001
1000
0001
0010
0100
,
0010
0110
1000
1000
,
1000
0001
0001
0001
,
0001
0010
0010
0010
,
0010
0100
0100
0100
,
1000
0001
1000
0000
0010
0000
0010
0000
,
0010
0010
0010
0010
,
0100
0001
1000
0000
0100
0000
0010
0000
,
0010
0010
0010
0010
,
0010
0000
0000
0000
0100
0000
0000
1000
0000
0000
0001
0000
0100
0000
0000
1000
,
0000
0000
0100
0000
0001
0000
0000
0010
0000
0000
1000
0000
0010
0000
0000
0100
,
0000
0000
1000
0000
0001
0000
0000
0010
0000
0000
0001
0000
1000
0000
0000
0010
,
0000
0000
1000
0000
0001
0000
0000
0100
0000
0000
1000
0000
0100
0000
0000
0001
,
0000
0000
0010
0000
0100
0000
0000
0100
0000
0000
0100
0000
1000
0000
0000
1000
,
0000
0000
1000
0000
0010
0000
0000
0010
0000
0000
0010
0000
0100
0000
0000
0100
,
0000
0000
0100
0000
0001
0000
0000
0001
0000
0000
0001
0000
0010
0000
0000
0010
,
0000
0000
0010
0000
0100
0000
0000
1000
0000
0000
0001
0000
0100
0000
0000
0010
,
0000
1000
2002
0000
0000
0000
0000
0000
,
0000
0003
0000
0000
,
0000
0000
0000
0000
,
0000
0000
0000
0000
,
3000
0000
0000
0000
;

//---------------dance-single - ----------------
#NOTES:
     dance-single:
     :
     Easy:
     4:
     0.290,0.348,0.134,0.013,0.045,296.000,21.000,2.000,0.000,0.000:
0000
0000
0000
0000
,
0000
1000
0000
0001
,
0000
0100
0000
0010
,
0000
1000
0000
0100
,
0000
0010
0000
0001
,
0000
0100
0000
0010
,
0000
1000
0000
0100
,
0000
0010
0000
0001
,
0000
0000
0100
0000
0010
1000
0010
1000
,
0010
0000
0000
0000
0100
0000
0000
0001
,
0000
0000
0000
0000
0001
0010
0100
1000
,
0100
0000
1000
0100
0000
0000
0000
0000
,
0000
0000
0000
0000
0010
0001
0100
0001
,
0100
0000
0000
0000
0010
0000
0000
1000
,
0000
0000
0000
0000
0100
0010
1000
0010
,
0100
0000
1000
0001
0000
0000
0000
0000
,
0000
0000
0000
0000
0000
0000
0001
0000
0100
0000
0000
0010
0000
0000
0100
0000
,
0001
0000
0000
0000
0000
0000
0001
0000
0010
0000
0000
1000
0000
0000
0010
0000
,
0100
0000
0000
0000
0000
0000
0100
0000
1000
0000
0000
0001
0000
0000
0100
0000
,
0010
0000
0000
0010
0100
0000
0100
0001
,
0000
0000
0001
0000
0010
0000
0000
0000
0010
0000
0000
0100
0000
0000
1000
0000
,
0100
0000
0000
0000
0000
0000
0010
0000
0001
0000
0000
0100
0000
0000
0010
0000
,
0100
0000
0000
0000
0000
0000
1000
0000
0100
0000
0000
0001
0000
0000
0010
0000
,
0100
0000
0000
0000
0100
0000
0000
1000
,
0000
0000
0000
0000
,
0000
0000
0001
1000
,
0110
0000
0000
0000
0010
0100
0000
0001
,
0000
0010
0000
0100
0000
1000
0000
0001
,
0100
0000
0001
0000
1000
0100
0000
0010
,
0000
0010
0000
0000
0010
0000
0100
0000
,
1000
0000
0000
0000
0001
0100
0000
0010
,
0000
0100
0000
0001
0000
1000
0000
0100
,
0000
0010
0100
0000
0000
0000
0000
0000
,
0000
0000
1000
0001
,
0110
0000
0000
0000
0010
0100
0000
0001
,
0000
1000
0000
0100
0000
0010
0000
0100
,
0010
0000
0100
0000
0001
1000
0000
0100
,
0000
0100
0000
0000
0010
0000
0010
0000
,
0011
0000
0000
0000
0001
0100
0000
0100
,
0000
1000
0000
1000
0000
0100
0000
0100
,
0000
0001
0010
0000
0000
0000
0000
0000
,
0000
0001
1000
0010
,
0110
0001
1000
0100
,
0010
0001
0100
0010
,
0010
0100
0001
1000
,
0100
0010
0001
1000
,
0000
0000
0000
0000
,
0000
0001
0000
1000
,
0000
0000
1100
0000
0001
0000
0100
0010
,
0000
0100
0000
0001
0000
0010
0000
0000
,
0000
0100
1000
0000
0100
0000
0010
0010
,
0000
0001
0000
0100
0000
0000
0001
0000
,
0001
0000
1001
0000
0000
0000
1000
0100
,
0000
0100
0000
0010
0000
0010
0000
0001
,
0000
0001
0000
0100
0010
0000
0000
0100
,
0000
0100
0000
1000
0100
0001
0010
0000
,
0010
0000
0110
0000
0000
0000
0100
1000
,
0000
0001
0000
0001
0000
0100
0000
0100
,
0000
0010
0100
0000
1000
0000
0100
0001
,
0000
0010
0000
0010
0000
0100
1000
0000
,
0001
0000
0101
0000
0000
0000
0010
1000
,
0000
1000
0000
0010
0000
0010
0000
0100
,
0000
0100
0000
0001
0010
0000
0001
0000
,
1000
0001
0110
1001
,
0110
0001
0001
0001
,
0001
1000
1000
1000
,
1000
0010
0010
0010
,
0010
0100
0100
0100
,
0100
0001
0001
0001
,
0001
0001
0001
0001
,
1000
1000
1000
1000
,
1000
0010
0010
0100
,
0100
1001
0100
0011
,
0100
1010
0001
1001
,
1000
1100
0001
0011
,
0100
0110
0010
1010
,
1000
0000
0000
0000
1001
0000
0000
0001
0000
0000
0010
0000
0100
0000
0000
1000
,
0000
0000
0001
0000
1000
0000
0000
0010
0000
0000
0100
0000
0001
0000
0000
0010
,
0000
0000
0001
0000
0100
0000
0000
0010
0000
0000
1000
0000
0100
0000
0000
0010
,
0000
0000
1000
0000
0010
0000
0000
0100
0000
0000
1000
0000
0001
0000
0000
0100
,
0000
0010
2002
0000
0000
0000
0000
0000
,
0000
0000
0000
0000
,
0000
0000
0000
0000
,
0000
0000
0000
0000
,
3003
0000
0000
0000
;

//---------------dance-single - ----------------
#NOTES:
     dance-single:
     :
     Hard:
     9:
     0.719,0.802,0.656,0.038,0.535,682.000,103.000,6.000,0.000,2.000:
2000
0000
0000
0000
,
3001
0000
0000
1000
0000
0000
0010
0100
0010
0000
0000
0100
0000
0000
0001
0000
,
0010
0000
0000
0001
0000
0000
1000
0100
1000
0000
0000
0001
0000
0000
0010
0000
,
1000
0000
0000
0010
0000
0000
0100
1000
0100
0000
0000
1000
0000
0000
0001
0000
,
0100
0000
0000
0010
0000
0000
0001
0010
0001
0000
0000
0010
0000
0000
1000
0100
,
1000
0000
0000
0001
0000
0000
0010
0001
0010
0000
0000
0001
0000
0000
1000
0000
,
0010
0000
0000
0100
0000
0000
0001
0010
0001
0000
0000
0010
0000
0000
0100
0000
,
1000
0000
0000
0100
0000
0000
1000
0001
1000
0000
0000
0001
0000
0000
0100
0000
,
0010
0000
0000
0100
0000
0000
0001
0000
1000
0000
0100
0000
1000
0000
0010
0000
,
0100
0000
0001
0000
0010
0001
0000
0001
0010
0000
0001
0000
1000
0010
0000
0010
,
1000
0000
0001
0000
0100
0010
0000
0010
0100
0000
0001
0000
1000
0000
0100
0000
,
0010
0000
0001
0000
0010
0001
0000
0001
0010
0000
0001
0000
1000
0001
0000
0001
,
1000
0000
0001
0000
0100
0010
0000
0010
0100
0000
0001
0000
1000
0000
0100
0000
,
0010
0000
1000
0000
0010
0100
0000
0100
0010
0000
0100
0000
0001
0010
0000
0010
,
0001
0000
1000
0000
0001
1000
0000
1000
0001
0000
1000
0000
0100
0000
0010
0000
,
1000
0000
0010
0000
0100
1000
0000
1000
0100
0000
1000
0000
0010
0100
0000
0100
,
0010
0000
0100
0000
0001
0010
0000
0010
0001
0000
0000
1000
0000
0000
0100
0000
,
1000
0000
0010
0000
0100
0010
0000
0010
0100
0000
0000
0001
0000
0000
0010
0000
,
0100
0000
1000
0000
0001
1000
0000
1000
0001
0000
0000
0100
0000
0000
0010
0000
,
0100
0000
0001
0000
1000
0100
0000
0100
1000
0000
0001
0000
0010
0000
0100
0000
,
0010
0000
1000
0000
0001
0000
0000
0000
0100
0000
0000
1000
0000
0000
0001
0000
,
0100
0000
1000
0000
0100
0001
0000
0001
0100
0000
0000
0001
0000
0000
0010
0000
,
1000
0000
0010
0000
0100
1000
0000
1000
0100
0000
0000
1000
0000
0000
0001
0000
,
0100
0000
0010
0000
0100
0001
0000
0001
1000
0000
0001
0000
0010
0100
0000
0100
,
1000
0100
1000
0000
0001
0100
0000
0001
0100
0001
0100
0000
0010
1000
0000
0010
,
1000
0010
1000
0000
0001
0010
0000
0001
0010
0000
0001
0000
1000
0000
0010
0000
,
0110
1000
0001
0010
0101
0101
1000
0101
,
0010
1100
0001
0110
1000
0011
1000
0101
,
0101
0000
0010
0000
1100
1100
0000
0110
,
0000
0101
0000
0000
1100
0010
0101
0010
,
1001
0100
0001
0100
1010
1010
0100
0011
,
1000
0110
0001
1100
0010
1001
0100
1010
,
0001
0110
1001
0010
1000
0001
0100
0001
,
0010
0100
0100
0100
1010
0001
0110
1000
,
0101
0010
1000
0001
1010
1010
0001
1010
,
0100
0011
1000
0110
0001
1100
0001
1010
,
1010
0000
0100
0000
0011
0011
0000
0110
,
0000
1010
0000
0000
0011
0100
1010
0100
,
1001
0010
1000
0010
0101
0101
0010
1100
,
0001
0110
1000
0011
0100
1001
0010
0101
,
1000
0110
1001
0100
0001
1000
0010
1000
,
0001
0100
0000
0100
0001
0000
0100
0000
0001
0010
0000
0010
0100
1000
0001
0000
,
1001
0000
0001
0000
0010
0000
0100
0000
1000
0000
0000
0001
0000
0000
0100
0000
1000
0000
0100
0000
0001
0000
0010
0000
0100
0000
0000
1000
0000
0000
0010
0000
,
0100
0000
1000
0000
0100
0000
0001
0000
0010
0000
0000
0100
0000
0000
1000
0000
0001
0000
0010
0000
0100
0000
1000
0000
0010
0000
0000
0010
0000
0000
0010
0000
,
0100
0000
0001
0000
0010
0000
0100
0000
1000
0000
0000
1000
0000
0000
1000
0000
0001
0000
0100
0000
1000
0000
0100
0000
0001
0000
0000
0010
0000
0000
0100
0000
,
1000
0000
0000
0001
0000
0000
0100
0000
0010
0000
0000
0100
0000
0000
0001
0000
1000
0000
0000
0000
0000
0000
0010
0000
0200
0000
0000
0000
0000
0000
0000
0000
,
0000
0300
0000
0000
0000
0000
0000
0000
0020
0000
0000
0000
0000
0000
0000
0000
0000
0000
0000
0000
0000
0000
0000
0000
0000
0000
0000
0000
0000
0000
0000
0000
,
0000
2000
0000
3001
,
0000
0000
0000
0000
1031
0000
0001
0000
0100
0000
1000
0000
0100
0001
0100
0001
,
0100
1001
0001
1001
1000
1001
0001
1000
,
0010
0000
0100
0000
0010
0100
0010
0100
0010
0000
0100
0000
0001
0010
0001
0010
,
0001
0000
0110
0000
1000
0000
0110
0000
0001
0000
1000
0000
0100
1000
0100
1000
,
0100
0000
1010
0000
0101
0000
0001
0000
1000
0000
0100
0000
1000
0100
1000
0100
,
1000
0110
0010
0110
0100
0101
0001
0011
,
0010
0110
0100
1100
1001
0010
0100
0001
,
0010
0000
0100
0000
1000
0100
0010
0001
0010
0100
1000
0001
1000
0000
0001
0000
,
1001
0000
0010
0000
1001
0000
0100
0000
1000
0000
0001
0000
0100
0001
0100
0001
,
0100
1001
1000
1001
0001
1001
1000
1001
,
0010
0000
0100
0000
0001
0100
0001
0100
0001
0000
1000
0000
0100
1000
0100
1000
,
0100
0000
1001
0000
0100
0000
1001
0000
0010
0000
0100
0000
0001
0010
0001
0010
,
0001
0000
1000
0000
1010
0000
0010
0000
0100
0000
0001
0000
0100
0001
0100
0001
,
0100
1001
1000
1010
0010
0110
0100
0101
,
0001
0011
0010
0110
0110
0100
1000
0001
,
0100
0010
1010
0000
1000
0000
0001
0100
,
0101
0000
1000
0001
1000
0000
0010
0000
1000
0000
0010
0000
1000
0000
0001
0000
,
0100
0001
0010
1000
0010
0100
0010
1000
,
0010
0000
0001
0100
0001
0000
0100
0000
0001
0000
0100
0000
0001
0000
1000
0000
,
0001
0010
0100
1000
0100
0010
0100
0001
,
0100
0010
1000
0001
1000
0100
1000
0010
,
1000
0001
1000
0010
1000
0100
1000
0001
,
1000
0100
0010
0001
0010
1000
0010
0100
,
0010
0001
0100
1000
0100
0010
0001
0100
,
0001
0000
1000
0000
0110
0000
0010
0100
0000
0100
0010
0000
0101
0000
0001
0010
,
0000
0010
0100
0000
1100
0000
1000
0010
0000
0010
0100
0000
0101
0000
0001
0010
,
0000
0010
0100
0000
1100
0000
1000
0010
0000
0010
0100
0000
0101
0000
0001
0010
,
0000
0010
0100
0000
1100
0000
1000
0001
0000
0001
0100
0000
0110
0000
0010
0100
,
0000
0100
0010
0000
1001
0000
0100
0010
0000
0010
0100
0000
1100
0000
1000
0010
,
0000
0010
0100
0000
0101
0000
0001
0010
0000
0010
0100
0000
1100
0000
1000
0010
,
0000
0010
0100
0000
0101
0000
0001
0010
0000
0010
0100
0000
1100
0000
1000
0001
,
0000
0001
1000
0000
1001
0000
0001
0100
0000
0100
0010
0000
0110
0000
1000
0100
,
0000
0100
0010
0000
2002
0000
0000
0000
0000
0000
0000
0000
0000
0000
0000
0000
,
0000
3000
0000
0000
,
0000
0000
0000
0000
,
0000
0000
0000
0000
,
0003
0000
0000
0000
;

//---------------dance-single - ----------------
#NOTES:
     dance-single:
     :
     Challenge:
     11:
     1.000,1.000,1.000,0.038,1.000,903.000,239.000,6.000,0.000,2.000:
0002
0000
0000
0000
0000
0000
0000
0000
0000
0000
0000
0000
0000
0000
0000
0000
0000
0000
0000
0000
0000
0000
0000
0000
0000
0000
0000
0000
0000
0000
0000
0000
0000
0000
0000
0000
0000
0000
0000
0000
0000
0000
0000
0000
0000
0000
0000
0000
0000
0000
0000
0000
0000
0000
0000
0000
0000
0000
0000
0000
0000
0000
0000
0003
,
1001
0000
0000
0001
1010
0000
0100
0010
0100
0000
0000
0010
0101
0000
1000
0000
,
0100
0000
0000
1000
0011
0000
0001
0010
0001
0000
0000
1000
0110
0000
0100
0010
,
1001
0000
0000
0100
1010
0000
0010
0001
0010
0000
0000
0001
0110
0000
1000
0000
,
0010
0000
0000
0100
0011
0000
1000
0100
1001
0000
0000
0100
1010
0000
0001
0010
,
1001
0000
0000
1000
0011
0000
0100
1000
0100
0000
0000
1000
0110
0000
0001
0100
,
0001
0000
0000
0010
1001
0000
1000
0100
1000
0000
0000
0100
0011
0000
0010
0100
,
1001
0000
0000
0010
1100
0000
0001
1000
0001
0000
0000
1000
0011
0000
0010
0100
,
0010
0000
0000
0000
0000
0000
0000
0000
0000
0010
0000
0000
1001
0000
0000
0000
0000
0000
0100
0000
0000
0000
0000
0000
0001
0000
0010
0000
0001
0000
0010
0000
0000
0000
0000
0000
0100
0000
0000
0000
0000
0000
1000
0000
0000
0000
0000
0000
,
1001
0000
0010
0000
0100
1000
0000
1000
0110
0000
1000
0000
0001
0100
0011
0100
,
0001
0000
1000
0000
0010
0100
0000
0100
0011
0000
0101
0000
1010
0000
1100
0000
,
1001
0000
0010
0000
0101
1000
0101
1000
0010
0000
1000
0000
0001
1000
0000
1000
,
0001
0000
1000
0000
0010
0100
0000
0100
0011
0000
0101
0000
1010
0000
1100
0000
,
1001
0000
0001
0000
0100
0010
0000
0010
1100
0000
0010
0000
1000
0100
1010
0100
,
1000
0000
0001
0000
1000
0001
0000
0001
1100
0000
0011
0000
0101
0000
1010
0000
,
1001
0000
0100
0000
1010
0001
1010
0001
0010
0000
0001
0000
0100
0010
0000
0010
,
0100
0000
0010
0000
1000
0100
0011
0100
1010
0000
0000
0101
0000
0000
1001
0000
,
0110
0000
0100
0000
0010
0100
1010
0100
0011
0000
0000
0101
0000
0000
1100
0000
,
1001
0000
0001
0000
1000
0001
0110
0001
0110
0000
0000
1010
0000
0000
0101
0000
,
0011
0000
1000
0000
0001
0010
0101
0010
0101
0000
1000
0000
0110
0000
0110
0000
,
0100
0000
1001
0000
1001
0000
0000
0000
1010
0000
0000
0101
0000
0000
1001
0000
,
0110
0000
0001
0000
0010
1000
0110
1000
0110
0000
0000
1001
0000
0000
1010
0000
,
0101
0000
0100
0000
0010
0001
1010
0001
1010
0000
0000
0101
0000
0000
1001
0000
,
0110
0000
0100
0000
0010
1000
0000
1000
0011
0000
1000
0000
0100
0010
1100
0010
,
0001
0010
0001
0000
1000
0010
0000
1000
0010
1000
0010
0000
0100
0001
0000
0100
,
0001
0100
0001
0000
1000
0100
0000
1000
0101
0000
0100
0000
1100
0000
0100
0000
,
0110
1000
0001
1000
0100
0010
0001
0100
1010
0001
1010
0100
0001
0100
1010
0001
,
0010
0100
0011
0100
1000
0001
0110
1000
0001
0010
1100
0001
0100
0001
1010
0100
,
1010
0000
0100
0000
0011
0011
0000
0110
,
0000
1010
0000
0000
0011
0001
0101
0001
,
1001
0100
0010
1000
0001
0010
0100
1000
0101
0010
0101
1000
0100
0010
1100
0010
,
0001
1000
0110
0001
0010
0100
0011
1000
0100
0010
1001
0010
0100
1000
0101
0010
,
1000
0001
0110
0000
1001
0000
0100
0000
0001
0000
1000
0000
0010
0000
1000
0000
,
0100
0010
0010
0010
1100
1000
1010
1000
,
1001
0010
0100
0001
1000
0100
1000
0010
0101
1000
0101
0010
1000
0010
0101
1000
,
0100
0010
1100
0010
0001
1000
0110
0001
1000
0100
0011
0100
1000
0010
0101
1000
,
0101
0000
0010
0000
1100
1100
0000
0110
,
0000
0101
0000
0000
1010
0010
0011
0010
,
0110
0001
0100
0001
1000
0010
0100
0001
1010
0100
1010
0001
0010
0100
0011
0100
,
1000
0001
0110
0001
1000
0010
1100
0001
0010
0100
1001
0010
0100
0001
1010
0100
,
0001
1000
0011
0100
1001
0010
1000
0100
0010
0001
0100
0010
0100
0001
0010
0100
,
1000
0010
0000
0010
1000
0000
0010
0000
1000
0100
0000
0100
0010
0001
1000
0001
,
1001
0000
1000
0000
0100
0000
0010
0000
0001
0000
0000
1000
0000
0000
0010
0000
0001
0000
0010
0000
1000
0000
0100
0000
0010
0000
0000
0001
0000
0000
0100
0000
,
0010
0000
0001
0000
0010
0000
1000
0000
0100
0000
0000
0010
0000
0000
0001
0000
1000
0000
0100
0000
0010
0000
0001
0000
0100
0000
0000
0100
0000
0000
0100
0000
,
0010
0000
1000
0000
0100
0000
0010
0000
0001
0000
0000
0001
0000
0000
0001
0000
1000
0000
0010
0000
0001
0000
0010
0000
1000
0000
0000
0100
0000
0000
0010
0000
,
0001
0000
0000
1000
0000
0000
0010
0000
0100
0000
0000
0010
0000
0000
1000
0000
0001
0000
0000
0000
0000
0000
0100
0000
0020
0000
0000
0000
0000
0000
0000
0000
,
0000
0030
0000
0000
0000
0000
0000
0000
0200
0000
0000
0000
0000
0000
0000
0000
0000
0000
0000
0000
0000
0000
0000
0000
0000
0000
0000
0000
0000
0000
0000
0000
,
0000
0002
0000
1003
,
0000
0000
0000
0000
1301
0100
1000
0001
0010
0100
1000
0010
0101
1000
0101
0010
,
1000
0010
0101
1000
0100
0010
1100
0010
0001
1000
0110
0001
1000
0100
0011
1000
,
0010
1000
0101
0010
0101
0000
0000
0000
0010
0000
0000
0000
1100
0000
1100
0000
,
0000
0110
0000
0101
0000
0000
1100
1000
,
1010
0000
1000
0000
1001
0010
0100
0001
1000
0100
0010
0001
1010
0100
1010
0001
,
0010
0100
0011
0100
1000
0001
0110
1000
0100
0010
1100
0001
0010
0100
1001
0100
,
0010
0001
1010
0100
0001
1000
0110
0000
1001
0000
0010
0000
1000
0000
0001
0000
,
0100
0001
0010
0100
0100
0100
0011
0001
,
0101
0000
0001
0000
1001
0100
0010
1000
0001
0010
0001
0100
1010
0001
1010
0100
,
0001
0100
1010
0001
0010
0100
0011
0100
1000
0001
0110
1000
0001
0010
1100
0010
,
0001
0100
1010
0001
1010
0000
0000
0000
0100
0000
0000
0000
0011
0000
0011
0000
,
0000
0110
0000
1010
0000
0000
0101
0100
,
1100
0000
0100
0000
0110
1000
0010
1000
0001
0100
0010
1000
0101
0010
0101
1000
,
0100
0010
1100
0010
0001
1000
0110
1000
0001
0100
0011
1000
0100
0010
1001
0100
,
0010
1000
0101
0010
1000
0001
1100
0010
1001
0010
0100
1000
0001
0100
0010
1000
,
0100
0010
0001
0100
1001
0000
0000
0000
0001
0000
0000
0000
1000
0000
0010
0000
,
1010
0000
0001
1000
0011
0000
0100
0000
0011
0000
0100
0000
0011
0000
1000
0000
,
0110
1000
1100
0001
1100
0010
1100
0001
,
1100
0000
1000
0010
1001
0000
0010
0000
1001
0000
0010
0000
1001
0100
0001
0000
,
1001
0000
0100
0000
1010
0000
0001
0000
1010
0000
0100
0000
1010
0001
1000
0000
,
1010
0000
0100
0000
0011
0100
1000
0100
0011
1000
0010
1000
0011
1000
0100
1000
,
0011
0100
1000
0100
0011
1000
0100
1000
0011
0100
0010
0100
0011
0100
1000
0100
,
0011
0000
0010
1000
0110
0001
1000
0001
0110
1000
0001
1000
0110
0001
0010
0001
,
0110
0001
1000
0001
1010
0100
0001
0100
1010
0001
0100
0010
1001
0100
0010
0100
,
1001
0010
0001
1000
0110
0000
0100
0010
1000
0010
0100
0000
1010
0000
1000
0100
,
0001
0100
0010
0000
0011
0000
0001
0100
1000
0100
0010
0000
1010
0000
1000
0100
,
0001
0100
0010
0000
0011
0000
0001
0100
1000
0100
0010
0000
1010
0000
1000
0100
,
0001
0100
0010
0000
0011
0000
0001
1000
0100
1000
0010
0000
0110
0000
0100
0010
,
0000
0010
0100
0000
1001
0000
0010
0100
0001
0100
0010
0000
0011
0000
0001
0100
,
1000
0100
0010
0000
1010
0000
1000
0100
0001
0100
0010
0000
0011
0000
0001
0100
,
1000
0100
0010
0000
1010
0000
1000
0100
0001
0100
0010
0000
0011
0000
0001
1000
,
0010
1000
0001
0000
1001
0000
1000
0010
0001
0010
0100
0000
0110
0000
0001
0010
,
1000
0010
0100
0000
2002
0000
0000
0000
0000
0000
0000
0000
0000
0000
0000
0000
,
0000
0000
0000
0000
0003
0000
0000
0000
0001
0010
0000
0010
0001
0010
0001
0000
,
0001
0010
0000
0010
0001
0010
0001
0000
0001
0010
0000
0010
0001
0010
0001
0000
,
0001
0010
0000
0010
0001
0010
0001
0000
0001
0010
0000
0010
0001
0010
0001
0000
,
3000
0000
0000
0000
;
