#TITLE:max 888;
#SUBTITLE:;
#ARTIST:Unknown artist;
#TITLETRANSLIT:;
#SUBTITLETRANSLIT:;
#ARTISTTRANSLIT:;
#CREDIT:Dark Bahamut;
#BANNER:888-bn.png;
#BACKGROUND:888-bg.png;
#LYRICSPATH:;
#CDTITLE:dark.gif;
#MUSIC:888.ogg;
#OFFSET:-0.120;
#SAMPLESTART:0.120;
#SAMPLELENGTH:9.180;
#SELECTABLE:YES;
#BPMS:0.000=300.000,0.021=7.500,1.000=25.000,1.125=40.000,1.250=55.000,1.375=70.000,1.500=85.000,1.625=100.000,1.750=115.000,1.875=130.000,2.000=140.000,4.000=300.000,16.000=310.000,28.000=320.000,36.000=330.000,44.000=335.000,52.000=340.000,56.000=343.000,60.000=346.000,64.000=349.000,68.000=352.000,72.000=353.000,76.000=354.000,80.000=355.000,84.000=356.000,88.000=358.000,92.000=360.000,96.000=400.000,104.000=420.000,120.000=415.000,136.000=410.000,160.000=390.000,164.000=390.000,165.000=380.000,168.000=420.000,184.000=400.000,196.000=390.000,220.000=420.000,221.000=888.000,228.000=6.240,229.000=200.000,230.500=24.000,231.000=200.000,232.500=24.000,233.000=300.000,235.000=100.000,236.000=400.000,239.000=16.000,240.000=150.000,247.000=85.000,256.000=444.000,288.000=222.000,304.000=111.000,312.000=222.000,317.000=250.000,319.000=255.000,321.000=260.000,323.000=265.000,325.000=270.000,327.000=275.000,329.000=280.000,332.000=290.000,336.000=300.000,340.000=310.000,344.000=320.000,348.000=330.000,352.000=340.000,356.000=350.000,360.000=360.000,364.000=370.000,368.000=380.000,372.000=390.000,376.000=400.000,380.000=410.000,384.000=420.000,388.000=430.000,392.000=440.000,396.000=450.000,400.000=400.000,414.000=235.000,426.000=240.000,430.000=249.000,434.000=258.000,438.000=267.000,442.000=276.000,446.000=280.000,450.000=280.000,454.000=282.000,458.000=284.000,462.000=295.000,466.000=325.000,470.000=355.000,474.000=360.000,494.000=365.000,502.000=275.000,506.000=400.000,518.000=500.000,520.000=400.000,536.000=410.000,552.000=420.000,558.000=380.000,576.000=350.000,586.000=150.000,587.000=130.000,588.000=100.000,589.000=75.000,590.000=60.000,591.000=40.000,592.000=15.500,594.000=222.000,610.000=211.000,614.000=71.000,616.000=390.000,799.000=780.000,911.000=380.000,923.000=888.000,924.000=777.000,925.000=666.000,926.000=555.000,927.000=444.000,928.000=333.000,929.000=222.000,929.500=111.000,930.000=55.500,930.500=27.750,931.000=13.875;
#STOPS:92.000=0.250
,92.500=0.250
,93.000=0.250
,93.500=0.250
,94.000=0.250
,94.500=0.083
,95.000=0.063
,95.125=0.063
,95.250=0.146
,95.375=0.063
,95.500=0.063
,95.625=0.104
,164.000=0.237
,164.500=0.237
,165.000=0.237
,165.500=0.237
,166.000=0.237
,166.500=0.237
,167.000=0.118
,315.750=1.001
,331.000=0.154
,518.000=0.050
,518.333=0.050
,518.667=0.150
,519.000=0.050
,519.333=0.050
,519.667=0.100
,615.500=1.690
,748.000=0.269
,748.250=0.038
,748.500=0.115
,748.750=0.038
,753.000=0.308
,753.250=0.038
,753.500=0.115
,753.750=0.038
,759.000=0.154
,759.250=0.038
,759.500=0.115
,759.750=0.038
;
#BGCHANGES:;
// cache tags:
#FIRSTBEAT:0.000;
#LASTBEAT:931.000;
#SONGFILENAME:Songs/toune/max 888/max 888.sm;
#HASMUSIC:1;
#HASBANNER:1;
#MUSICLENGTH:203.954;
// end cache tags

//---------------dance-single - ----------------
#NOTES:
     dance-single:
     :
     Challenge:
     12:
     1.000,1.000,1.000,1.000,0.159,1054.000,238.000,280.000,0.000,0.000:

2002
3003
0000
0000
,
1000
0000
0001
0000
0000
1000
0000
1000
,
0100
0000
0001
0000
0000
0010
0000
0010
,
0100
0000
0001
0000
0000
1000
0000
1000
,
0110
0000
0000
0011
0000
1100
0000
0110
,
1000
0000
0001
0000
0000
0010
0000
0010
,
1000
0000
0001
0000
0000
0100
0000
0100
,
1000
0000
0001
0000
0000
1000
0000
1000
,
0110
0000
2002
3003
,
1000
0000
0001
0000
0000
0100
0000
0010
,
1000
0000
0001
0000
0000
0100
0000
0010
,
1000
0000
0001
0000
0000
0100
0000
0010
,
1100
0011
0101
1010
,
1000
0000
0010
0000
0000
0100
0000
0001
,
1000
0000
0010
0000
0000
0100
0000
0010
,
1000
0000
0100
0000
0000
0010
0000
0001
,
1010
0101
1100
0011
,
1000
0000
0010
0000
0000
0100
0000
1000
,
0001
0000
0100
0000
0000
0010
0000
1000
,
0100
0000
0001
0000
0000
0010
0000
1000
,
0011
1100
1010
0101
,
1000
0000
0001
0000
0000
0100
0000
1000
,
0001
0000
1000
0000
0000
0010
0000
0001
,
2200
3300
0000
0000
0000
0000
0000
0000
0000
0000
0000
0000
0000
0000
0000
0000
0000
0000
0000
0000
0000
0000
0000
0000
0022
0033
0000
0000
0000
0000
0000
0000
0000
0000
0000
0000
0000
0000
0000
0000
0000
0000
0000
0000
0000
0000
0000
0000
2020
3030
0000
0000
0000
0000
0000
0000
0000
0000
0000
0000
0000
0000
0000
0000
0000
0000
0000
0000
0000
0000
0000
0000
0202
0303
0000
0000
0000
0000
0000
0000
0000
0000
0000
0000
0000
0000
0000
0000
0000
0000
0000
0000
0000
0000
0000
0000
0220
0330
0000
0000
0000
0000
0000
0000
0000
0000
0000
0000
0000
0000
0000
0000
0000
0000
0000
0000
0000
0000
0000
0000
2002
3003
0000
0000
0000
0000
0000
0000
0000
0000
0000
0000
0000
0000
0000
0000
0000
0000
0000
0000
0000
0000
0000
0000
2200
3300
0000
0000
0000
0000
2200
3300
0000
0000
0000
0000
2200
3300
0000
0000
0000
0000
0022
0033
0000
0000
0000
0000
0022
0033
0000
0000
0000
0000
0022
0033
0000
0000
0000
0000
0000
0000
0000
0000
0000
0000
0000
0000
0000
0000
0000
0000
,
1000
0100
0001
0010
,
1000
0100
0001
0100
,
0010
1000
0001
0100
,
0010
0100
0001
0100
,
1001
0010
0100
0001
,
1001
0100
1000
0010
,
0001
0100
0010
0100
,
1000
0010
0100
0001
,
1001
0100
0001
0100
,
0010
1000
0100
0001
,
1000
0010
0100
0001
,
1001
0100
1000
0010
,
1001
0100
0001
0100
,
0010
1000
0100
0001
,
0010
1000
0100
0001
,
0010
0100
0001
0100
,
0010
0100
1000
0010
,
2200
3300
0022
0033
2020
3030
0202
0303
2002
3003
0220
0330
2002
3003
0000
0000
,
1000
0100
0001
0010
,
0100
0001
1000
0100
,
0001
0010
1000
0001
,
0100
1000
0010
0001
,
0010
0100
0010
1000
,
0001
0100
0010
0100
,
0001
0100
0010
1000
,
0011
1100
1010
0101
,
1001
0110
1100
0011
,
0110
1001
0101
1010
,
0110
1001
1100
0011
,
1010
0101
1100
0011
,
1001
0110
1100
0011
,
1001
0220
0000
0000
,
0000
0000
0000
0000
0000
0000
0000
0330
,
2002
0000
0000
0000
0000
0000
0000
0000
0000
0000
0000
0000
0000
0000
0000
3003
1100
0000
0000
0000
0000
0000
0000
0000
1100
0000
0000
0000
0000
0000
0000
0000
1100
0000
0000
0000
0000
0000
0000
0000
2002
0000
0000
0000
0000
0000
0000
3003
0011
0000
0000
0000
0000
0000
0000
0000
0011
0000
0000
0000
0000
0000
0000
0000
,
0011
0000
0000
0000
2002
0000
0000
3003
0110
0000
0000
0000
0110
0000
0000
0000
0110
0000
0000
0000
0110
0000
0000
0000
2002
0000
0000
0000
0000
0000
3003
0000
,
1001
0000
0000
0000
0000
0000
0000
0000
1001
0000
0000
0000
0000
0000
0000
0000
1001
0000
0000
0000
0000
0000
0000
0000
1001
0000
0000
0000
0000
0000
0000
0000
1001
0000
0000
0000
0000
0000
0000
0000
1001
0000
0000
0000
0000
0000
0000
0000
2002
0000
0000
0000
0000
0000
0000
0000
0000
0000
0000
0000
0000
0000
0000
3003
,
2000
0000
3200
0000
0302
0023
0030
2000
3200
0000
0302
0000
2003
3200
0300
0020
,
0230
0000
0302
0000
0203
2300
3000
0020
2030
0000
3002
0000
0203
0300
0000
0000
,
1000
0000
0000
0001
0000
0000
0100
0000
0000
0000
0000
1001
0000
0000
1001
0000
0000
0000
0000
0000
0000
0000
0010
0000
0100
0000
0000
0001
0000
0000
0100
0000
,
1000
0000
0000
0010
0000
0000
0100
0000
0000
0000
0000
0000
1001
0000
0000
1001
0000
0000
0000
0000
0000
0000
1000
0000
0010
0000
0000
0100
0000
0000
0010
0000
,
1000
0100
0010
1000
,
0001
0100
0010
1000
,
0001
0010
0100
0001
,
1000
0010
0100
0001
,
1000
0100
1000
0010
,
0001
0100
0001
0010
,
1000
0100
0010
1000
,
0001
0100
1000
0010
,
0001
1000
0010
0100
0001
1000
0010
0100
,
1000
0100
0010
1000
0001
0100
0010
1000
,
0001
0100
1000
0010
0100
0001
0010
1000
,
0001
0100
0010
1000
0001
0100
0010
1000
,
0001
0100
1000
0010
0100
0001
1000
0100
0010
1000
0100
0010
0001
1000
0100
0001
,
1000
0100
0010
1000
0010
0100
0001
1000
0100
0010
1000
0001
0100
1000
0001
0100
,
0011
0000
0000
1100
0000
0000
2020
0000
3030
0000
0000
0000
0000
0002
0000
0200
,
0303
2000
3200
2300
,
3002
0023
0230
2300
,
3002
0203
0320
2030
,
3002
0000
0000
0000
0023
0000
0000
0000
2030
0000
0000
3000
0220
0330
0000
0000
,
2000
3020
2030
3002
,
0203
0320
2030
3002
,
0023
0230
0302
2003
,
3020
0230
0302
2003
,
3200
0320
2030
3002
,
0203
0320
2030
3002
,
0203
0320
0032
0023
,
0230
0302
0203
0310
,
1000
0100
2000
3002
,
0023
0032
0203
0320
,
2030
3002
0203
0320
,
2030
3002
0203
0320
,
2030
3200
0302
2003
,
3002
0203
0320
2030
,
3002
0203
0320
2030
,
3200
0320
2030
3002
,
0203
0320
1030
0001
,
0200
0320
2030
3002
,
0203
0320
2030
3200
,
0320
2030
3002
0203
,
0320
2030
3002
2003
,
3020
0230
0302
2003
,
3200
0310
1000
0010
,
0100
0000
0001
0000
0110
0000
0000
1100
,
0000
0011
0000
0110
1000
0000
0001
0000
,
1000
0010
0000
0100
1000
0000
0001
0000
,
0100
0001
0000
0010
1000
0000
0001
0000
,
0010
0100
0000
1000
0110
0000
0000
0000
,
2002
3003
0010
1000
,
0001
0010
0000
1000
0100
0000
0001
0000
,
1000
0100
0000
0001
0100
0000
0010
0000
,
1000
0100
0000
1000
0011
0000
1100
0000
,
1010
0101
1000
0100
,
0001
0100
0000
1000
0001
0000
0100
0000
,
0010
1000
0000
0100
0001
0000
0100
0000
,
0010
1000
0000
0001
1010
0000
0101
0000
,
0011
1010
0001
1000
,
0100
0001
0000
1000
0010
0000
0001
0000
,
1000
0100
0000
0001
0010
0000
1000
0000
,
0100
0001
0000
0010
1001
0000
0110
0000
,
1100
0011
0100
0010
,
1000
0100
0000
0001
0010
0000
0001
0000
,
0100
0000
0000
1000
0000
0000
0000
0000
0000
0010
0000
0000
1000
0000
0000
0000
0100
0000
0000
0000
1000
0000
0000
0000
,
0100
0000
0001
0000
0010
0000
0001
0000
0000
0100
0000
0000
,
0010
1000
0001
0100
,
1000
0010
0001
1000
,
0010
0000
0000
0000
0000
0000
0000
0000
0000
0000
0000
0000
0000
0000
0000
0000
0000
0000
0000
0000
0000
0000
0000
0000
0000
0000
0000
0000
0000
0000
0000
0000
0000
0000
0000
0000
0000
0000
0000
0000
0000
0000
0000
0000
0000
0000
0000
0000
1000
0000
0000
0000
0000
0000
0000
0000
0000
0000
0000
0000
0000
0000
0000
0000
0000
0000
0000
0000
0000
0000
0000
0000
0000
0000
0000
0000
0000
0000
0000
0000
0000
0000
0000
0000
0000
0000
0000
0000
0000
0000
0000
0000
0000
0000
0000
0000
0022
0033
0000
0000
0000
0000
0000
0000
0000
0000
0000
0000
0000
0000
0000
0000
0022
0033
0000
0000
0000
0000
0000
0000
0000
0000
0000
0000
0000
0000
0000
0000
0022
0033
0000
0000
0000
0000
0000
0000
0000
0000
0000
0000
0000
0000
0000
0000
2200
3300
0000
0000
0000
0000
0000
0000
0000
0000
0000
0000
0000
0000
0000
0000
2200
3300
0000
0000
0000
0000
0000
0000
0000
0000
0000
0000
0000
0000
0000
0000
2200
3300
0000
0000
0000
0000
0000
0000
0000
0000
0000
0000
0000
0000
0000
0000
,
0010
0100
1000
0001
,
0010
0100
1000
0001
,
0100
0010
1000
0001
,
0010
0100
1000
0010
,
1001
0001
0100
0010
,
1001
0001
0010
0100
,
0001
1000
0010
0100
,
0001
1000
0100
0010
,
1001
0001
0100
0010
,
1000
0001
0100
0010
,
0001
0010
0100
0010
,
1001
0010
1000
0100
,
1001
0010
1000
0001
,
0100
0010
1000
0001
,
0100
0010
1000
0001
,
0100
0010
1000
0001
,
0100
0000
0000
0000
1000
0000
0000
0000
0022
0000
0000
0033
2200
0000
0000
3300
,
0202
0000
0000
0000
0000
0000
0000
0000
0000
0000
0000
0000
0000
0000
0000
0000
0000
0000
0000
0000
0000
0000
0000
0000
0000
0000
0000
0000
0000
0000
0000
0000
0000
0000
0000
0000
0000
0000
0000
0000
0303
0000
0000
0000
0000
0000
0000
0000
2020
0000
0000
0000
0000
0000
0000
0000
0000
0000
0000
0000
0000
0000
0000
0000
0000
0000
0000
0000
0000
0000
0000
0000
0000
0000
0000
0000
0000
0000
0000
0000
0000
0000
0000
0000
0000
0000
0000
0000
3030
0000
0000
0000
0000
0000
0000
0000
0022
0000
0000
0000
0000
0000
0000
0000
0000
0000
0000
0000
0000
0000
0000
0000
0000
0000
0000
0000
0000
0000
0000
0000
0000
0000
0000
0000
0000
0000
0000
0000
0000
0000
0000
0000
0000
0000
0000
0000
0000
0000
0033
0000
0000
0000
0000
0000
2200
0000
0000
0000
0000
0000
0000
0000
0000
0000
0000
0000
0000
0000
0000
0000
0000
0000
0000
0000
0000
0000
0000
0000
0000
0000
0000
0000
0000
0000
0000
0000
0000
0000
0000
0000
0000
0000
0000
0000
0000
0000
3300
0000
0000
0000
0000
0000
,
0220
0000
0000
0000
0000
0000
0000
0000
0000
0000
0000
0000
0000
0000
0000
0000
0000
0000
0000
0000
0000
0000
0000
0330
0200
0000
0000
0000
0000
0000
2300
0000
0000
0000
0000
0000
3020
0000
0000
0000
0000
0000
0032
0000
0000
0000
0000
0000
,
2003
3200
0302
2003
3200
0302
0023
0230
,
2300
3020
0032
2003
3200
0302
0023
0230
,
2300
3020
0032
2003
3200
0302
0023
0230
,
2300
3002
0203
2300
3020
0230
2300
3020
,
0032
0000
2003
0000
3200
0000
0320
0030
2002
0000
0000
0000
0000
0000
0000
3003
,
1001
0000
0100
0000
1000
0001
0000
0100
,
0010
0000
0100
0000
1000
0010
0000
0001
,
0100
0000
0010
0000
1000
0100
0000
0010
,
0001
0011
1100
0000
,
1001
0000
0100
0000
1000
0100
0000
0001
,
0100
0000
0010
0000
1000
0001
0000
0010
,
0100
0000
1000
0000
0010
1000
0000
0001
,
0100
1100
0011
0000
,
1001
0000
0010
0000
0100
0001
0000
0010
,
1000
0000
0001
0000
0100
0010
0000
0100
,
1000
0000
0001
0000
0010
0100
0000
1000
,
0100
0011
1100
0000
,
1001
0000
0010
0000
0001
0100
0000
1000
,
0010
0000
1000
0000
0001
0010
0000
0001
,
0100
1000
0100
0000
0010
0001
0010
0000
,
1000
0100
1000
0100
0001
0010
0001
0010
,
1100
0011
0110
1001
,
1010
0101
0011
1100
,
0110
0101
1010
0110
,
1001
0101
1010
0011
,
1100
0101
1010
1001
,
0011
1100
0101
1010
,
1100
0011
0101
1010
,
1001
0110
0101
1010
,
1100
0011
1010
0101
,
1001
1010
0101
0110
,
1100
0011
1001
0110
,
0011
1100
1010
0101
,
0110
1001
0011
1100
,
0101
1010
1100
0011
,
1001
0101
1010
0110
,
1001
0101
1010
1100
,
0010
0001
0100
1000
,
0001
0000
0000
0000
0000
0000
0000
0000
0000
0000
0000
0000
2200
3300
0000
0000
0000
0000
0000
0000
0000
0000
0000
0000
2200
3300
0000
0000
0000
0000
0000
0000
0000
0000
0000
0000
0022
0033
0000
0000
0000
0000
0000
0000
0000
0000
0000
0000
0022
0033
0000
0000
0000
0000
0000
0000
0000
0000
0000
0000
0000
0000
0000
0000
0000
0000
0000
0000
0000
0000
0000
0000
0000
0000
0000
0000
0000
0000
0000
0000
0000
0000
0000
0000
0000
0000
0000
0000
0000
0000
0000
0000
0000
0000
0000
0000
0001
0000
0000
0000
0000
0000
0000
0000
0000
0000
0000
0000
0000
0000
0000
0000
0000
0000
0000
0000
0000
0000
0000
0000
0000
0000
0000
0000
0000
0000
0000
0000
0000
0000
0000
0000
0000
0000
0000
0000
0000
0000
0000
0000
0000
0000
0000
0000
1000
0000
0000
0000
0000
0000
0000
0000
0000
0000
0000
0000
0000
0000
0000
0000
0000
0000
0000
0000
0000
0000
0000
0000
0000
0000
0000
0000
0000
0000
0000
0000
0000
0000
0000
0000
0000
0000
0000
0000
0000
0000
0000
0000
0000
0000
0000
0000
,
0100
0000
0000
0000
0000
0000
0000
0000
0000
0000
0000
0000
0000
0000
0000
0000
0000
0000
0000
0000
0000
0000
0000
0000
0000
0000
0000
0000
0000
0000
0000
0000
0000
0000
0000
0000
0000
0000
0000
0000
0000
0000
0000
0000
0000
0000
0000
0000
1000
0000
0000
0000
0000
0000
0000
0000
0000
0000
0000
0000
0022
0033
0000
0000
0000
0000
0000
0000
0000
0000
0000
0000
0022
0033
0000
0000
0000
0000
0000
0000
0000
0000
0000
0000
2200
3300
0000
0000
0000
0000
0000
0000
0000
0000
0000
0000
2200
3300
0000
0000
0000
0000
0000
0000
0000
0000
0000
0000
0000
0000
0000
0000
0000
0000
0000
0000
0000
0000
0000
0000
0000
0000
0000
0000
0000
0000
0000
0000
0000
0000
0000
0000
0000
0000
0000
0000
0000
0000
0000
0000
0000
0000
0000
0000
0001
0000
0000
0000
0000
0000
0000
0000
0000
0000
0000
0000
0000
0000
0000
0000
0000
0000
0000
0000
0000
0000
0000
0000
0000
0000
0000
0000
0000
0000
0000
0000
0000
0000
0000
0000
0000
0000
0000
0000
0000
0000
0000
0000
0000
0000
0000
0000
,
1000
0000
0000
0000
0000
0000
0000
0000
0000
0000
0000
0000
0000
0000
0000
0000
0000
0000
0000
0000
0000
0000
0000
0000
0000
0000
0000
0000
0000
0000
0000
0000
0000
0000
0000
0000
0000
0000
0000
0000
0000
0000
0000
0000
0000
0000
0000
0000
0100
0000
0000
0000
0000
0000
0000
0000
0000
0000
0000
0000
0000
0000
0000
0000
0000
0000
0000
0000
0000
0000
0000
0000
0000
0000
0000
0000
0000
0000
0000
0000
0000
0000
0000
0000
0000
0000
0000
0000
0000
0000
0000
0000
0000
0000
0000
0000
0010
0000
0000
0000
0000
0000
0000
0000
0000
0000
0000
0000
0000
0000
0000
0000
0000
0000
0000
0000
0000
0000
0000
0000
0000
0000
0000
0000
0000
0000
0000
0000
0000
0000
0000
0000
0000
0000
0000
0000
0000
0000
0000
0000
0000
0000
0000
0000
1000
0000
0000
0000
0000
0000
0000
0000
0000
0000
0000
0000
0202
0303
0000
0000
0000
0000
0000
0000
0000
0000
0000
0000
0202
0303
0000
0000
0000
0000
0000
0000
0000
0000
0000
0000
2020
3030
0000
0000
0000
0000
0000
0000
0000
0000
0000
0000
,
2020
3030
0000
0000
0000
0000
0000
0000
0000
0000
0000
0000
0000
0000
0000
0000
0000
0000
0000
0000
0000
0000
0000
0000
0000
0000
0000
0000
0000
0000
0000
0000
0000
0000
0000
0000
0000
0000
0000
0000
0000
0000
0000
0000
0000
0000
0000
0000
1000
0000
0000
0000
0000
0000
0000
0000
0000
0000
0000
0000
0000
0000
0000
0000
0000
0000
0000
0000
0000
0000
0000
0000
0000
0000
0000
0000
0000
0000
0000
0000
0000
0000
0000
0000
0000
0000
0000
0000
0000
0000
0000
0000
0000
0000
0000
0000
0100
0000
0000
0000
0000
0000
0000
0000
0000
0000
0000
0000
0000
0000
0000
0000
0000
0000
0000
0000
0000
0000
0000
0000
0000
0000
0000
0000
0000
0000
0000
0000
0000
0000
0000
0000
0000
0000
0000
0000
0000
0000
0000
0000
0000
0000
0000
0000
0001
0000
0000
0000
0000
0000
0000
0000
0000
0000
0000
0000
0000
0000
0000
0000
0000
0000
0000
0000
0000
0000
0000
0000
0000
0000
0000
0000
0000
0000
0000
0000
0000
0000
0000
0000
0000
0000
0000
0000
0000
0000
0000
0000
0000
0000
0000
0000
,
1000
0000
0000
0000
0022
0033
0022
0033
2200
3300
2200
3300
0010
0000
0000
0000
,
1000
0001
0100
0010
,
0100
1000
0001
0100
,
1000
0001
1000
0100
,
0010
1000
0001
0100
,
0010
1000
0100
0001
,
0010
0100
0001
1000
,
0100
1000
0001
0100
,
0010
1000
0001
0010
,
0100
1000
0010
0001
,
1000
0010
0100
0001
,
1000
0100
0001
1000
,
0100
0001
1000
0100
,
0001
0010
0001
1000
,
0010
0100
1000
0001
,
0100
1000
0001
0010
,
1000
0001
0010
0100
,
1000
0010
0001
1000
,
0100
0001
1000
0100
,
0001
0010
0100
1000
,
0010
0001
1000
0100
,
1000
0001
0010
1000
,
0001
0100
1000
0001
,
0010
1000
0100
0001
,
1000
0010
0001
1000
,
0010
0100
0001
0010
,
1000
0001
0100
0010
,
1000
0001
0010
0100
,
0010
0001
0100
1000
,
0001
0010
1000
0001
,
0010
0100
1000
0010
,
0001
1000
0001
0010
,
1000
0100
0010
0001
,
0100
1000
0010
0001
,
1000
0100
0001
0010
,
0100
0001
0010
1000
,
0001
0000
0000
0010
0000
0000
0001
0000
0000
1100
0000
1100
,
0000
1100
0000
0000
0000
0000
0000
0000
0000
0011
0000
0011
,
0000
0000
0000
0000
0000
0000
0000
0000
0000
0000
0000
0000
0000
0000
0000
0000
0011
0000
0000
0000
0000
0000
0000
0000
0000
0000
0000
0000
0000
0000
0000
0000
0000
0000
0000
0000
0000
0000
0000
0000
0000
0000
0000
0000
0000
0000
0000
0000
0000
0000
0000
0000
0000
0000
0000
0000
0000
0000
0000
0000
0000
0000
0000
0000
0000
0000
0000
0000
0000
0000
0000
0000
0000
0000
0000
0000
0000
0000
0000
0000
0000
0000
0000
0000
0000
0000
0000
0000
0000
0000
0000
0000
0000
0000
0000
0000
0000
0000
0000
0000
0000
0000
0000
0000
0000
0000
0000
0000
0000
0000
0000
0000
0000
0000
0000
0000
0000
0000
0000
0000
0000
0000
0000
0000
0000
0000
0000
0000
0000
0000
0000
0000
0000
0000
0000
0000
0000
0000
0000
0000
0000
0000
0000
0000
1001
0000
0000
0000
0000
0000
0000
0000
0000
0000
0000
0000
0000
0000
0000
0000
0000
0000
0000
0000
0000
0000
0000
0000
0000
0000
0000
0000
0000
0000
0110
0000
0000
0000
0000
0000
0000
0000
0000
0000
0000
0000
0000
0000
0000
0000
0000
0000
,
0000
0000
0000
0000
1001
0000
0000
0000
0000
0000
0000
0000
0000
0000
0110
0000
0000
0000
0000
0000
0000
0000
0000
0000
0000
1001
0000
0000
0000
0000
0000
0000
0000
0000
0000
0000
0110
0000
0000
0000
0000
0000
0000
0000
0000
0000
0000
0000
2002
0000
0000
0000
0000
0000
0000
0000
0000
0000
0000
0000
0000
0000
0000
0000
,
0000
0000
0000
0000
,
0000
0000
0000
3003
;
