#TITLE:Battle on the Big Bridge;
#SUBTITLE:;
#ARTIST:Xi;
#TITLETRANSLIT:;
#SUBTITLETRANSLIT:;
#ARTISTTRANSLIT:;
#CREDIT:Mad Matt;
#BANNER:../Tachyon Gamma-bn.png;
#BACKGROUND:../Tachyon Gamma-bg.png;
#LYRICSPATH:;
#CDTITLE:;
#MUSIC:Battle on the Big Bridge.ogg;
#OFFSET:-0.429;
#SAMPLESTART:44.100;
#SAMPLELENGTH:14.000;
#SELECTABLE:YES;
#DISPLAYBPM:270.000;
#BPMS:0.000=270.000;
#STOPS:;
#BGCHANGES:;
// cache tags:
#FIRSTBEAT:8.000;
#LASTBEAT:411.000;
#SONGFILENAME:Songs/Tachyon Gamma/Battle on the Big Bridge - [Mad Matt]/Battle on the Big Bridge.sm;
#HASMUSIC:1;
#HASBANNER:1;
#MUSICLENGTH:97.671;
// end cache tags

//---------------dance-single - Mad Matt----------------
#NOTES:
     dance-single:
     Mad Matt:
     Challenge:
     14:
     1.000,1.000,0.174,0.471,0.358,750.000,17.000,46.000,0.000,0.000:

0000
0000
0000
0000
,
0000
0000
0000
0000
,
1000
0100
0010
0001
0100
0001
1000
0200
,
0000
1300
0010
0100
0001
1000
0100
1000
,
0001
0100
0010
1000
0100
1000
0001
0200
,
0000
0301
0010
0100
1000
0001
0100
0001
,
1000
0100
0010
0001
0100
0001
1000
0200
,
0000
1300
0100
0010
0001
1000
0010
1000
,
0001
0010
0100
1000
0010
1000
0001
0200
,
0000
0301
1000
0100
1000
0010
0100
0001
,
0010
0001
0100
0010
0100
0001
0010
0200
,
0000
1300
0010
0100
0010
1000
0100
0010
,
0001
0100
0010
0100
0001
0010
0001
0200
,
0000
0310
1000
0100
1000
0010
0100
0001
,
0010
0100
0010
0001
0100
0010
1000
0200
,
0000
0310
0001
0100
0001
0010
0100
1000
,
0010
0100
0010
1000
0100
0010
0001
0200
,
0000
0310
1000
0100
1000
0010
0100
0010
,
1000
0001
0000
0010
0001
1000
0000
0010
,
1000
0000
0001
0000
0000
0000
0010
0000
0001
1000
0001
1000
0001
0000
0000
0000
,
1000
0001
0000
0010
0001
1000
0000
0010
,
1000
0001
0010
0001
0100
0010
1000
0100
,
1000
0001
0000
0100
0001
1000
0000
0100
,
1000
0000
0001
0000
0000
0000
0100
0000
0001
1000
0001
1000
0001
0000
0000
0000
,
0100
0010
0000
1000
0011
1100
0011
0000
,
0000
0000
0000
0000
,
0001
0100
0001
0010
0001
1000
0001
0100
,
0010
1000
0001
1000
0100
0020
0000
0000
,
0031
1000
0010
1000
0100
0020
0000
0000
,
0031
0100
0001
0010
0100
1000
0010
0100
,
0001
1000
0001
0010
0001
0100
0001
1000
,
0100
1000
0010
1000
0100
0020
0000
0000
,
0130
1000
0001
1000
0010
0200
0000
0000
,
0310
1000
0100
1000
0010
0100
0001
0010
,
0400
0000
0000
0000
,
0000
0000
1300
0001
0100
0000
0010
0000
,
2000
0000
0000
3002
0000
0000
0023
0000
,
0032
0000
0000
0203
0000
0000
0320
0000
,
1030
0001
1000
0100
1000
0010
1000
0001
,
0100
0001
1000
0001
0010
0001
0100
0010
,
1000
0100
1000
0010
0100
0001
0010
0001
,
0100
0010
1000
0100
0010
0001
0400
0000
,
0301
1000
0001
0010
0001
0100
0001
1000
,
0100
0010
0100
1000
0001
0010
0100
1000
,
0001
1000
0010
1000
0100
1000
0001
0100
,
0001
0010
0001
1000
0100
0010
0001
0000
,
0100
0010
0100
0000
0001
0000
1000
0000
0100
0000
0010
0000
0001
0000
1000
0000
,
0000
0010
0000
1000
0001
0000
0010
0000
,
0001
1000
0010
0100
0001
1000
0010
1000
0001
0100
0001
1000
0010
0100
0001
1000
,
0100
1000
0001
1000
0010
1000
0001
0010
,
0100
1010
0100
0011
,
1000
0001
0010
0100
1000
0001
1000
0100
0010
0001
1000
0001
1000
0000
0000
0000
,
0001
0100
0010
1000
0001
0100
0001
1000
0010
1000
0001
0100
0010
1000
0001
0100
,
0001
1000
0010
1000
0001
0100
0010
1000
0001
0100
0001
1000
0010
1000
0001
1000
,
0001
0100
0000
0001
1000
0100
0000
1000
,
0001
0000
0100
0000
0001
0000
1000
0000
0100
0010
0100
0000
1000
0000
0001
0000
,
0200
0010
0310
2000
0001
3001
0020
0100
,
0130
0000
1000
0000
2002
3003
0000
0000
2020
3030
0000
0000
0220
0330
0000
0000
,
0010
1000
0001
1000
0100
1000
0010
1000
,
0001
0010
0001
1000
0001
0100
0001
1000
,
0100
1000
0010
1000
0001
1000
0100
0010
,
0001
0100
0001
1000
0010
1000
0100
0010
,
0001
1000
0000
0010
1000
0001
0000
0010
,
0001
0000
1000
0000
0010
0000
0100
0000
0001
1000
0001
0000
0010
0000
0100
0000
,
1000
0001
1000
0010
1000
0100
1000
0010
,
0100
0001
1000
0001
0100
0020
0000
0000
,
1030
0001
0010
0001
0100
0020
0000
0000
,
1030
0100
1000
0010
0100
0001
0010
0100
,
1000
0001
1000
0010
1000
0100
1000
0001
,
0100
0001
0010
0001
0100
0020
0000
0000
,
0130
0001
1000
0001
0010
0200
0000
0000
,
0310
0001
0100
0001
0010
0100
1000
0010
,
0400
0000
0000
0000
,
0000
0000
0301
1000
0100
0000
0010
0000
,
0002
0000
0000
2003
0000
0000
3020
0000
,
2030
0000
0000
3200
0000
0000
0320
0000
,
0031
1000
0001
0100
0001
0010
0001
1000
,
0100
1000
0001
1000
0010
1000
0100
0010
,
0001
0100
0001
0010
0100
1000
0010
1000
,
0100
0010
0001
0100
0010
1000
0400
0000
,
1300
0001
1000
0010
1000
0100
1000
0001
,
0100
0010
0100
0001
1000
0010
0100
0001
,
1000
0001
0010
0001
0100
0001
1000
0100
,
1000
0010
1000
0001
0100
0010
1000
0000
,
0100
0010
0100
0000
1000
0000
0001
0000
0100
0000
0010
0000
1000
0000
0001
0000
,
0000
0010
0000
0001
1000
0000
0010
0000
,
1000
0100
0010
0001
1000
0001
0010
0100
1000
0001
0010
0001
1000
0100
1000
0001
,
0100
0010
1000
0001
0010
0001
1000
0010
,
0100
0011
0100
1010
,
0001
0100
0001
1000
0010
1000
0001
0100
0010
1000
0001
1000
0001
0000
0000
0000
,
1000
0100
1000
0001
0010
0100
1000
0001
0010
0001
1000
0100
1000
0001
0010
0100
,
1000
0001
0010
0001
1000
0100
1000
0001
0010
0100
1000
0001
1000
0001
0100
0001
,
1000
0001
0000
1000
0001
0100
0000
0001
,
1000
0000
0100
0000
1000
0000
0001
0000
0100
0010
0100
0000
0001
0000
1000
0000
,
0200
0010
0310
0002
1000
1003
0020
0100
,
0130
0000
0001
0000
2002
3003
0000
0000
0022
0033
0000
0000
0220
0330
0000
0000
,
0010
0001
1000
0001
0100
0001
0010
0001
,
1000
0010
1000
0001
1000
0100
1000
0001
,
0100
0001
0010
0001
1000
0001
0100
0010
,
1000
0100
1000
0001
0010
0001
0100
0010
,
1000
0001
0000
0010
0001
1000
0000
0010
,
1000
0000
0001
0000
0010
0000
0100
0000
1000
0001
1000
0000
0010
0000
0100
0000
,
0001
1000
0000
0100
1000
0001
0100
0000
;
