#TITLE:Cyberspeed 03;
#SUBTITLE:;
#ARTIST:Mark Knight;
#TITLETRANSLIT:;
#SUBTITLETRANSLIT:;
#ARTISTTRANSLIT:;
#CREDIT:;
#BANNER:;
#BACKGROUND:;
#LYRICSPATH:;
#CDTITLE:;
#MUSIC:InGame03.mp3;
#OFFSET:0.000;
#SAMPLESTART:50.000;
#SAMPLELENGTH:20.000;
#SELECTABLE:YES;
#BPMS:0.000=160.000;
#STOPS:;
#BGCHANGES:;
// cache tags:
#FIRSTBEAT:1.500;
#LASTBEAT:399.500;
#SONGFILENAME:Songs/other/cyberspeed3/cyberspeed3.sm;
#HASMUSIC:1;
#HASBANNER:0;
#MUSICLENGTH:390.580;
// end cache tags

//---------------dance-single - ----------------
#NOTES:
     dance-single:
     :
     Hard:
     9:
     0.242,0.345,0.141,0.000,0.000,606.000,55.000,0.000,0.000,0.000:  // measure 1
0000
0000
0000
1000
0001
0000
0001
0000
,  // measure 2
0000
0001
0001
0001
0001
0001
0001
0001
,  // measure 3
0000
0000
0000
0000
0000
0001
0000
0000
,  // measure 4
0000
0000
0000
0000
,  // measure 5
0000
0000
0000
1010
,  // measure 6
0000
0000
0000
0000
,  // measure 7
0000
0000
0000
0000
,  // measure 8
0001
0010
0000
0000
0000
0000
0000
0000
,  // measure 9
0000
0000
0000
0000
,  // measure 10
0000
0000
0010
0100
0000
0001
1000
0001
,  // measure 11
1000
0001
1000
0001
0000
0001
0000
0001
,  // measure 12
0000
0001
0000
0001
1000
0001
1000
0010
,  // measure 13
1000
0000
0010
0010
0000
0010
0100
0000
,  // measure 14
0010
0000
1000
1000
1000
0000
1000
0001
,  // measure 15
1000
0001
1000
0001
1000
0001
0000
0001
,  // measure 16
0001
0000
0001
1000
0001
0000
0101
1000
,  // measure 17
0001
0000
1000
0001
0001
0000
0001
0001
,  // measure 18
0001
0000
0100
0001
0100
0000
0001
1000
,  // measure 19
0001
1000
0000
0001
1000
0001
0000
0000
,  // measure 20
1000
0001
1000
0001
0000
1001
1000
0001
,  // measure 21
1000
0001
1000
0001
1000
1100
0100
1000
,  // measure 22
0010
1000
0010
1000
0001
0010
0011
0001
,  // measure 23
0010
1000
0100
1000
0100
1001
0100
0001
,  // measure 24
0101
0100
0010
1000
0010
1010
1000
1010
,  // measure 25
0011
0001
0010
0011
0001
0010
1010
1010
,  // measure 26
0010
1001
0010
0001
0011
0010
0011
1000
,  // measure 27
1010
1010
0010
1001
1001
1000
1001
1001
,  // measure 28
1001
0100
1100
1100
1100
1000
0010
1000
,  // measure 29
0001
1000
1001
0000
0001
1000
0001
1000
,  // measure 30
0100
1000
0000
0001
1000
0001
1000
0010
,  // measure 31
1000
0001
0000
0011
0011
0000
0010
1000
,  // measure 32
0010
0000
1000
0001
1000
0001
1000
0001
,  // measure 33
0000
0100
0010
1000
0001
1000
0001
0000
,  // measure 34
1001
0100
0000
1000
0001
1000
0100
1000
,  // measure 35
0000
1100
0100
0000
0001
1000
0001
1000
,  // measure 36
0000
0001
1000
0001
1000
0010
1000
0010
,  // measure 37
1000
0010
1000
0001
1000
0000
0001
1000
,  // measure 38
0001
0000
1000
0001
1000
0001
1000
0100
,  // measure 39
1000
0100
0000
1000
0001
1000
0001
1000
,  // measure 40
0001
0000
1000
0001
1000
0001
1000
0001
,  // measure 41
1000
0000
0001
1000
0001
1000
0010
0100
,  // measure 42
1000
0000
0001
0010
0100
0000
1000
1000
,  // measure 43
0100
0010
0001
0000
0010
0100
1000
1000
,  // measure 44
0100
0010
0001
0001
0000
0001
1000
0001
,  // measure 45
1000
0001
1000
0001
0000
1001
0001
0000
,  // measure 46
1000
0000
0001
1000
0001
1001
0000
1000
,  // measure 47
0001
1000
0010
1000
0010
0000
1000
0001
,  // measure 48
1000
0001
1000
0010
1000
0001
1000
0001
,  // measure 49
0000
1000
0001
1000
0000
1001
0001
0000
,  // measure 50
1000
0001
0000
1000
0001
1000
0010
1000
,  // measure 51
0001
1000
0001
1000
0001
0000
1000
0100
,  // measure 52
1000
0001
1000
0010
1000
0000
0010
1000
,  // measure 53
0001
1000
0001
1001
0000
0010
1000
0010
,  // measure 54
0001
1000
0001
1000
0001
0000
1000
0010
,  // measure 55
1000
0010
1000
0001
1000
0100
0010
0000
,  // measure 56
0100
1000
0001
1000
0010
0100
1000
0001
,  // measure 57
0000
1001
0000
1010
0000
0001
0000
0001
,  // measure 58
0000
1000
0001
1000
0100
0010
0100
0010
,  // measure 59
0100
1000
0000
0001
0100
0001
1000
0001
,  // measure 60
1000
0001
1000
0000
0001
0000
0001
1001
,  // measure 61
0000
1000
0000
0001
0000
1000
0000
0000
,  // measure 62
1010
0010
0010
0000
0001
0010
0100
0100
,  // measure 63
0010
0000
0001
0000
0001
1000
0001
1000
,  // measure 64
0000
0001
1000
0001
0001
1000
0000
1000
,  // measure 65
1000
0000
0001
1000
0001
1000
0000
0001
,  // measure 66
0000
1000
0000
0000
0001
0000
0001
0000
,  // measure 67
0001
1000
0000
0001
1000
0001
0000
0001
,  // measure 68
0000
0000
0001
1000
0001
1000
0001
0000
,  // measure 69
0001
0000
0000
0001
0000
0001
0000
0001
,  // measure 70
0000
1000
0001
0000
0001
0000
1001
0000
,  // measure 71
1001
0000
0001
1000
0000
0001
1000
0001
,  // measure 72
0000
0001
0000
0000
0001
0000
0001
0000
,  // measure 73
0000
0001
0001
0000
0000
0001
0000
0001
,  // measure 74
0000
1000
0001
1000
0001
1000
0001
1000
,  // measure 75
0010
0000
1000
0010
1000
0010
1000
0010
,  // measure 76
1000
0001
0000
1000
0001
0001
0000
1000
,  // measure 77
0001
1000
0001
0000
0100
1000
0001
1000
,  // measure 78
0010
1000
0010
1000
0010
0001
0010
0001
,  // measure 79
0001
0010
0001
1000
0001
0100
0010
0100
,  // measure 80
0010
0100
0000
1001
0000
1000
0001
1000
,  // measure 81
1001
0000
0001
1000
0000
0001
0000
1001
,  // measure 82
0100
0010
1010
1010
0001
0000
0010
0000
,  // measure 83
0011
0010
0100
1000
0001
1000
0000
0001
,  // measure 84
0000
1001
0010
0100
0000
1000
0001
1000
,  // measure 85
0001
0000
1000
0001
1000
0000
0001
1000
,  // measure 86
0001
1000
0001
1000
0010
0100
0010
0000
,  // measure 87
0100
1000
0001
1000
0001
1000
0000
0001
,  // measure 88
1000
0100
0010
1000
0001
1000
0000
0010
,  // measure 89
1000
0001
1000
0010
1000
0001
1000
0000
,  // measure 90
0010
1000
0010
1010
0001
0001
0100
0100
,  // measure 91
0000
1000
0001
1000
0001
1000
0001
1000
,  // measure 92
0001
0000
1000
0001
1000
0010
1000
0010
,  // measure 93
1000
0001
1000
0000
0001
1000
0011
0100
,  // measure 94
1000
0000
0001
1000
0001
1000
0001
1000
,  // measure 95
0010
1000
0100
0001
1000
0001
0010
0001
,  // measure 96
0010
0001
0100
1000
0001
1000
0001
1000
,  // measure 97
0000
0010
1000
1010
0000
0001
0100
0001
,  // measure 98
1000
0001
0000
1010
1000
0001
1000
0000
,  // measure 99
0001
1000
0001
1000
1010
0001
0000
0011
,  // measure 100
0011
0100
1000
0001
1000
0001
0010
0100
;
