#TITLE:AAA;
#SUBTITLE:;
#ARTIST:DJ Amuro vs. DM Ashura;
#TITLETRANSLIT:;
#SUBTITLETRANSLIT:;
#ARTISTTRANSLIT:;
#CREDIT:;
#BANNER:AAA.png;
#BACKGROUND:AAA-bg.PNG;
#LYRICSPATH:;
#CDTITLE:Magnakcd.png;
#MUSIC:AAA.mp3;
#OFFSET:-0.020;
#SAMPLESTART:71.914;
#SAMPLELENGTH:12.000;
#SELECTABLE:YES;
#BPMS:0.000=160.000,99.250=160.020;
#STOPS:;
#BGCHANGES:16.000=Lightning1.avi=1.000=1=0=1,
20.000=Fireworks.avi=1.000=0=0=1,
24.000=Lady2.avi=1.000=0=0=1,
28.000=Text10.avi=1.000=0=0=1,
32.000=Snow.avi=1.000=0=0=1,
48.000=Unicorn1.avi=1.000=0=0=1,
60.000=Unicorn2.avi=1.000=0=0=1,
64.000=Text16s.avi=1.000=0=0=1,
76.000=Fireworks.avi=1.000=0=0=1,
78.000=Lightning1.avi=1.000=0=0=1,
80.000=Snow2.avi=1.000=0=0=1,
92.000=Snow.avi=1.000=0=0=1,
94.000=Snow5.avi=1.000=0=0=1,
96.000=Unicorn1.avi=1.000=0=0=1,
112.000=Text10.avi=1.000=0=0=1,
120.000=Lady2.avi=1.000=0=0=1,
128.000=Text16s.avi=1.000=0=0=1,
144.000=Unicorn2.avi=1.000=0=0=1,
152.000=Snow.avi=1.000=0=0=1,
156.000=Lightning1.avi=1.000=0=0=1,
160.000=Lady2.avi=1.000=0=0=1,
184.000=Fireworks.avi=1.000=0=0=1,
192.000=Text10.avi=1.000=0=0=1,
200.000=Unicorn2.avi=1.000=0=0=1,
216.000=Unicorn1.avi=1.000=0=0=1,
218.000=Fireworks.avi=1.000=0=0=1,
220.000=Snow.avi=1.000=0=0=1,
221.000=Snow5.avi=1.000=0=0=1,
222.000=Snow.avi=1.000=0=0=1,
223.000=Snow2.avi=1.000=0=0=1,
224.000=Text16s.avi=1.000=0=0=1,
240.000=Fireworks.avi=1.000=0=0=1,
248.000=Lady2.avi=1.000=0=0=1,
252.000=Lightning1.avi=1.000=0=0=1,
256.000=Unicorn1.avi=1.000=0=0=1,
257.000=Unicorn2.avi=1.000=0=0=1,
258.000=Text10.avi=1.000=0=0=1,
272.000=Snow.avi=1.000=0=0=1,
288.000=Lightning1.avi=1.000=0=0=1,
290.000=Text10.avi=1.000=0=0=1,
292.000=Lady2.avi=1.000=0=0=1,
294.000=Snow2.avi=1.000=0=0=1,
296.000=Unicorn1.avi=1.000=0=0=1,
298.000=Fireworks.avi=1.000=0=0=1,
300.000=Text16s.avi=1.000=0=0=1,
304.000=Unicorn1.avi=1.000=0=0=1,
312.000=Snow.avi=1.000=0=0=1,
316.000=Unicorn2.avi=1.000=0=0=1,
320.000=Snow2.avi=1.000=0=0=1,
336.000=Unicorn2.avi=1.000=0=0=1,
352.000=Text16s.avi=1.000=0=0=1,
356.000=Lady2.avi=1.000=0=0=1,
360.000=Snow5.avi=1.000=0=0=1,
364.000=Text10.avi=1.000=0=0=1,
368.000=Snow.avi=1.000=0=0=1,
372.000=Unicorn1.avi=1.000=0=0=1,
376.000=Lightning1.avi=1.000=0=0=1,
377.000=Unicorn2.avi=1.000=0=0=1,
378.000=Lady2.avi=1.000=0=0=1,
379.000=Fireworks.avi=1.000=0=0=1,
380.000=Text10.avi=1.000=0=0=1,
381.000=Snow2.avi=1.000=0=0=1,
382.000=Text16s.avi=1.000=0=0=1,
383.000=Lightning1.avi=1.000=0=0=1,
384.000=Unicorn1.avi=1.000=0=0=1,
400.000=Text10.avi=1.000=0=0=1,
408.000=Snow.avi=1.000=0=0=1,
410.000=Snow5.avi=1.000=0=0=1,
412.000=Fireworks.avi=1.000=0=0=1,
416.000=Snow2.avi=1.000=0=0=1,
424.000=Lady2.avi=1.000=0=0=1,
432.000=Text16s.avi=1.000=0=0=1,
434.000=Text10.avi=1.000=0=0=1,
436.000=Snow5.avi=1.000=0=0=1,
438.000=Unicorn2.avi=1.000=0=0=1,
440.000=Fireworks.avi=1.000=0=0=1,
448.000=Lady2.avi=1.000=0=0=1,
464.000=Text10.avi=1.000=0=0=1,
472.000=Snow2.avi=1.000=0=0=1,
480.000=Lightning1.avi=1.000=0=0=1,
484.000=Unicorn1.avi=1.000=0=0=1,
488.000=Lady2.avi=1.000=0=0=1,
492.000=Unicorn2.avi=1.000=0=0=1,
496.000=Snow.avi=1.000=0=0=1,
504.000=Lady2.avi=1.000=0=0=1,
508.000=Fireworks.avi=1.000=0=0=1,
510.000=Unicorn2.avi=1.000=0=0=1,
512.000=AAA-bg.PNG=1.000=0=0=1,
99999=-nosongbg-=1.000=0=0=0 // don't automatically add -songbackground-
;
// cache tags:
#FIRSTBEAT:0.000;
#LASTBEAT:512.021;
#SONGFILENAME:Songs/longs versions/aaa max/AAA.sm;
#HASMUSIC:1;
#HASBANNER:1;
#MUSICLENGTH:195.061;
// end cache tags

//---------------dance-single - ----------------
#NOTES:
     dance-single:
     :
     Challenge:
     13:
     1.000,1.000,1.000,0.072,1.000,1745.000,283.000,14.000,0.000,1.000:
1001
0100
0010
0001
0100
0010
1000
0001
0010
0100
1000
0100
0010
0010
0010
0010
,
0010
0100
0001
1000
0010
0100
0001
0010
0100
1000
0001
0100
1000
1000
1000
1000
,
1000
0010
0001
1000
0100
0010
0001
0010
0100
1000
0001
0100
0010
0010
0010
0010
,
0010
1000
0001
0010
0100
0001
0010
0100
1000
0001
0100
0010
1000
0001
0100
0010
,
1001
0010
0100
1000
0010
0100
0001
1000
0001
1000
0010
0001
0100
0100
0100
0100
,
1100
0010
1000
0001
0010
0100
1000
0001
0010
0100
0001
1000
0010
0010
0010
0010
,
1010
0100
0010
0001
0100
0010
1000
0001
1000
0001
0100
0010
0001
0001
0001
0001
,
1001
0010
0100
1000
0010
0100
0001
0010
0100
1000
0001
0010
0100
0001
1000
0100
,
1010
0100
0001
0010
1000
0010
0100
0010
0100
0010
1000
0001
0010
1000
0100
0010
,
1100
0001
1000
0010
0100
1000
0001
0010
1000
0001
0100
1000
0010
0100
0001
1000
,
0110
0001
0100
0010
1000
0100
0010
0001
0100
0010
1000
0001
0100
0010
0001
0100
,
1010
0001
0100
0010
0001
0010
0100
1000
0001
1000
0100
1000
0100
0001
0100
0001
,
0110
1000
0001
0100
1000
0001
0010
1000
0100
0001
1000
0010
0100
1000
0001
0100
,
1010
0001
0010
0100
1000
0010
0100
0001
0010
1000
0001
0010
0100
1000
0010
0001
,
1010
0100
0010
0100
1000
0001
0100
0001
1000
0010
0001
0100
0010
1000
0100
0001
,
0010
0000
0000
0100
0000
0000
0001
0000
0000
1000
0000
0000
0010
0000
0000
0001
0000
0000
0100
0000
0000
0010
0000
0000
1000
0000
0000
0100
0000
0000
0010
0000
0000
0001
0000
0000
0100
0000
0010
0000
1000
0000
0010
0000
0100
0000
0001
0000
,
0110
1000
0010
0001
0010
0100
1000
0010
0100
0001
1000
0010
0001
1000
0100
0001
,
0110
1000
0010
0100
0010
1000
0100
0010
0001
1000
0100
0010
0001
0100
1000
0010
,
1100
0010
1000
0100
0010
0001
0010
0100
1000
0100
0010
0001
0100
0010
1000
0100
,
0010
0010
0010
0010
0100
0100
0100
0100
0001
0001
0001
0001
1000
1000
1000
1000
,
0110
0001
0010
0001
0100
0010
1000
0100
0010
0001
1000
0100
0010
0001
0010
0100
,
0011
1000
0001
1000
0001
1000
0010
0100
0001
1000
0100
0010
0001
0010
0100
1000
,
0101
0010
1000
0010
1000
0010
0100
0010
0001
0010
1000
0010
0100
0001
0010
0100
,
0001
0001
0001
0001
0010
0010
0010
0010
0100
0100
0100
0100
1000
1000
1000
1000
,
0110
0000
0000
0000
0000
0000
0000
0000
0000
0000
0000
0000
0000
0000
0000
0000
0110
0000
0000
0000
0000
0000
0000
0000
0000
0000
0000
0000
0000
0000
0000
0000
0001
1000
0000
0000
0000
0000
0000
0000
0000
0000
0000
0000
0000
0000
0000
0000
0110
0000
0000
0000
0000
0000
0000
0000
0000
0000
0000
0000
0000
0000
0000
0000
,
0100
1000
0000
0000
0000
0000
0000
0000
0000
0000
0000
0000
0000
0000
0000
0000
0110
0000
0000
0000
0000
0000
0000
0000
0000
0000
0000
0000
0000
0000
0000
0000
0001
1000
0000
0000
0000
0000
0000
0000
0000
0000
0000
0000
0000
0000
0000
0000
1000
0000
0000
0000
0000
0000
0000
0000
0000
0000
0000
0000
0100
0000
0000
0000
,
1000
0000
0000
0000
1001
0000
0000
0000
1000
0000
0000
0100
1000
0000
0000
1000
,
0010
0000
0000
0010
0100
0000
0000
0100
1000
0000
0000
1000
0100
0000
0000
0100
,
0001
0000
0000
0000
0000
0000
0000
0000
0000
0000
0000
0000
0000
0000
0000
0000
1001
0000
0000
0000
0000
0000
0000
0000
0000
0000
0000
0000
0000
0000
0000
0000
0001
1000
0000
0000
0000
0000
0000
0000
0000
0000
0000
0000
0000
0000
0000
0000
0110
0000
0000
0000
0000
0000
0000
0000
0000
0000
0000
0000
0000
0000
0000
0000
,
0010
0100
0000
0000
0000
0000
0000
0000
0000
0000
0000
0000
0000
0000
0000
0000
1001
0000
0000
0000
0000
0000
0000
0000
0000
0000
0000
0000
0000
0000
0000
0000
0001
0100
0000
0000
0000
0000
0000
0000
0000
0000
0000
0000
0000
0000
0000
0000
1010
0000
0000
0000
0000
0000
0000
0000
0000
0000
0000
0000
0000
0000
0000
0000
,
0010
0110
1000
0001
0010
0100
1000
0010
0100
0001
0010
0100
1001
0010
1000
0001
,
0110
0000
0000
0001
0000
0000
0010
0000
0000
0100
0000
0000
1000
0000
0000
0010
0000
0000
0100
0000
0000
0001
0000
0000
1010
0000
0000
0100
0000
0000
1000
0000
0000
0100
0000
0000
0010
0000
0001
0000
1000
0000
0100
0000
0010
0000
0001
0000
,
0110
0000
1001
0010
0001
0010
1100
0010
0100
0010
1001
0010
1000
0001
0110
0001
,
1000
0100
0011
0100
1000
0001
0110
0001
1000
0010
1001
0100
1010
0100
1001
0010
,
0001
0010
1100
0010
0100
1000
0011
1000
0001
1000
0110
0001
0010
0100
1001
0010
,
0001
0010
1100
0010
1000
0010
0101
1000
0001
0100
1010
0001
1100
0001
1010
0001
,
1000
0001
0110
1000
0100
0010
1001
0010
0100
1000
0110
0001
0010
0001
1100
0010
,
0100
0010
1001
0100
0010
0001
1100
0010
0001
0010
1100
0001
1010
0001
1100
0010
,
0100
1000
0011
1000
0010
1000
0101
0010
0100
0001
1010
0001
0010
0001
1100
0010
,
0100
1000
0011
1000
0001
1000
0110
0001
0010
0100
1001
0010
1100
0010
0101
1000
,
0001
1000
0110
0001
0100
0010
1001
0010
1000
0001
0110
0001
0010
0001
1100
0010
,
0100
1000
0101
0010
0100
0001
1010
0001
1000
0001
1100
0010
1001
0100
0011
0100
,
1000
0001
1010
0100
0001
1000
0110
0001
0010
0001
1100
0010
1000
0010
0101
1000
,
0100
0001
1010
0001
0010
0001
1100
0010
0100
1000
0011
1000
0011
1000
0011
1000
,
0010
0001
1100
0010
0100
0001
1010
0100
0001
1000
0110
0001
0010
0100
1001
0010
,
0100
1000
0011
1000
0100
0010
1100
0001
0010
0100
0011
0100
0011
0100
1010
0100
,
0001
1000
0110
0001
0010
0100
1001
0010
1000
0010
0101
1000
0001
0100
1010
0100
,
0001
1000
0101
0010
0100
0001
1010
0001
0100
0010
1100
0001
1010
0001
0110
1000
,
0202
0000
1010
0303
0100
0000
1001
0000
0010
0000
0110
0000
1000
0000
0011
0000
,
0100
1010
0001
1100
0010
1001
0101
1100
,
0010
0011
0100
1001
0010
0101
0010
1001
,
0100
0110
1000
0011
0100
1010
0011
1100
,
0010
0101
0010
1001
0010
1100
0010
0101
,
0010
1100
0010
1100
0010
0101
1000
0110
,
1000
0101
0010
0101
1000
0011
0100
1001
,
0100
0011
0100
1001
0010
1001
0110
1001
,
0110
1001
0110
0011
1000
0110
0010
1100
,
0010
1001
0100
0011
1000
0011
1100
0110
,
1000
0110
1000
0011
1000
0011
1000
0101
,
1000
0101
1000
1010
0100
0011
1010
0110
,
0001
0011
0100
0110
1000
1001
0010
1100
,
0010
0000
0101
0000
1000
0000
1010
0000
0001
0000
1100
0000
0101
0000
1100
0010
,
0001
1000
0101
0010
0001
1000
0011
0100
0001
1000
0011
1000
0010
0100
1010
0100
,
0220
0000
0000
0000
0330
0000
0000
0000
1000
0100
0010
0001
0100
0001
1000
0100
,
0011
0000
0000
0000
1001
0000
0000
0000
0010
0100
0010
0100
1001
0100
0010
0001
,
0010
0100
1000
0010
1100
0010
0100
0001
1000
0010
1000
0001
0110
1000
0001
1000
,
0001
1000
0010
0000
0101
1000
0010
0000
0001
1000
0010
0000
0101
1000
0010
0100
,
0001
0010
0100
1000
0001
0100
1000
0100
1000
0100
0010
0100
1000
0100
0010
0001
,
0010
0100
1000
0001
1000
0001
0010
0100
1000
0001
0010
0100
1000
0001
0100
1000
,
0100
0001
1000
0010
1000
0100
0010
0001
0010
0100
1000
0010
0100
1000
0100
0001
,
0100
0010
1000
0100
0010
0001
0010
0100
0010
0100
0010
0001
1000
0100
1000
0010
,
0100
0001
1000
0010
1000
0100
0010
0001
0100
0010
1000
0001
1000
0010
1000
0100
,
0010
0001
1000
0100
0010
0001
0010
0100
1000
0001
1000
0100
1000
0100
0010
0001
,
0010
0100
1000
0010
0100
0001
1000
0010
1000
0100
0010
0001
0100
0001
1000
0100
,
0010
0001
0100
0001
1000
0100
0010
0001
0100
1000
0010
0001
1000
0100
1000
0010
,
0200
0000
0000
0000
0000
0000
0000
0000
1300
0010
1000
0100
0010
0001
0010
0100
,
1000
0010
0100
1000
0100
0001
1000
0010
1000
0100
0010
0001
0100
0010
0100
0001
,
1000
0010
1000
0100
0010
0001
0010
0100
1000
0100
0010
0001
0010
0100
1000
0001
,
0100
0010
1000
0001
0100
0010
1000
0001
0100
0010
1000
0001
0100
0010
1000
0001
,
1000
0100
0010
0001
0010
0100
1000
0001
0010
0100
1000
0001
0010
0100
1000
0001
,
0110
0000
0000
0000
0000
0000
0000
0000
0000
0000
0000
0000
0000
0000
0000
0000
0001
1000
0000
0000
0000
0000
0000
0000
0000
0000
0000
0000
0000
0000
0000
0000
0020
0000
0100
0000
0000
0000
0000
0000
0000
0000
0000
0000
0100
0000
0000
0000
0030
0000
0000
0000
0000
0000
0000
0000
0100
0000
0000
0000
0000
0000
0000
0000
,
2000
0000
0001
0000
3100
0010
0000
0000
1000
0100
0010
0001
0100
0010
1000
0100
,
2010
0000
0010
0000
3100
0000
0100
0000
0010
0100
0001
1000
0010
1000
0100
0010
,
0002
0010
0100
1003
1000
0100
0001
1000
,
2100
0100
0010
0001
3010
0100
1000
0010
,
0110
0010
0100
1100
1000
0100
1001
0100
,
1001
0000
0100
0000
0010
0001
1000
0100
0010
0001
0100
0010
1000
0100
0010
0001
,
0100
0000
0000
0010
0000
0000
1000
0000
0000
0100
0000
0000
1000
0000
0000
0010
0000
0000
0100
0000
0000
0001
0000
0000
0010
0000
0000
0100
0000
0000
1000
0000
0000
0010
0000
0000
0100
0000
1000
0000
0000
0000
0000
0000
0000
0000
1000
0000
,
0022
0000
0033
0001
,
1000
0000
0000
0000
0000
0000
0000
0000
0000
0000
0010
0000
0100
0000
0000
0000
0000
0000
1000
0000
0000
0000
0000
0000
0000
0000
0000
0000
0000
0000
0010
0000
0000
0000
0000
0000
0000
0000
0000
0000
0000
0000
0100
0000
0000
1000
0000
0000
,
0110
0000
0001
1000
0000
0100
0000
1000
,
0000
0000
0001
0000
0000
0000
0100
0000
0000
0000
0010
0000
0000
0000
1000
0010
,
1010
0000
0000
0100
0001
1000
0100
0010
,
0000
1001
0000
0110
0000
0000
0000
0100
,
0011
0000
1000
0100
0010
0001
0100
0010
1000
0100
0010
0001
0100
0010
1000
0001
,
0010
0100
1000
0010
0100
0001
0010
0100
1000
0100
1000
0100
0010
0001
0010
0001
,
0110
0000
0010
1000
0100
1000
0100
0010
0100
0010
0001
0010
0100
1000
0010
0100
,
0001
1000
0010
1000
0100
0010
0001
0100
1000
0100
0010
1000
0010
1000
0010
1000
,
0100
0010
0001
0010
0100
1000
0010
0100
0001
1000
0010
1000
0100
0010
0001
0100
,
0010
1000
0100
0010
0001
0010
0100
0010
0001
0010
0100
1000
0001
0100
0010
1000
,
0001
1000
0100
0010
0001
0100
0001
1000
0100
0010
0001
0100
0001
1000
0010
1000
,
0100
0010
0001
0100
1000
0100
0001
0100
1000
0100
0001
0010
1000
0010
0001
0010
,
0100
1000
0010
0100
0001
1000
0010
1000
0100
0010
0001
0100
0010
1000
0100
0010
,
0001
0010
0100
1000
0010
0100
0010
0100
0010
0100
1000
0100
0001
0100
0010
1000
,
0100
1000
0001
0010
1001
0100
0001
0100
0001
0010
0100
0001
1010
0001
0100
1000
,
0010
0100
1000
0010
1001
0100
0010
0001
0100
0010
0100
0010
1001
0010
0100
0001
,
0010
1000
0001
1000
0101
0010
0001
1000
0001
0010
0100
0010
1001
0100
1000
0001
,
1000
0100
0010
0001
0110
1000
0001
0010
0001
1000
0001
0010
1100
0001
1000
0010
,
0100
0010
0001
0100
1001
0010
0100
0010
0001
1000
0001
0100
1010
0001
0010
1000
,
0001
0100
0010
0100
1001
0010
0100
0001
1000
0100
1000
0010
1001
0100
0010
0001
,
0100
1000
0010
1000
0011
0100
1000
0010
0100
1000
0100
0010
0101
0010
1000
0001
,
0100
1000
0001
1000
0110
0001
1000
0100
0010
1000
0100
0001
1010
0001
1000
0010
,
0100
0010
0001
0010
0001
0010
1100
0010
0100
0010
1001
0010
1000
0001
0110
0001
,
1000
0100
0011
0100
1000
0001
0110
0001
1000
0010
1001
0100
1010
0100
1001
0010
,
0001
0010
1100
0010
0100
1000
0011
1000
0001
1000
0110
0001
0010
0100
1001
0010
,
0001
0010
1100
0010
1000
0010
0101
1000
0001
0100
1010
0001
1100
0001
1010
0001
,
1000
0001
0110
1000
0100
0010
1001
0010
0100
1000
0110
0001
0010
0001
1100
0010
,
0100
0010
1001
0100
0010
0001
1100
0010
0001
0010
1100
0001
1010
0001
1100
0010
,
0100
1000
0011
1000
0010
1000
0101
0010
0100
0001
1010
0001
0010
0001
1100
0010
,
0100
1000
0011
1000
0001
1000
0110
0001
0010
0100
1001
0010
1100
0010
0101
1000
,
0001
1000
0110
0001
0100
0010
1001
0010
1000
0001
0110
0001
0010
0001
1100
0010
,
0100
1000
0101
0010
0100
0001
1010
0001
1000
0001
1100
0010
1001
0100
0011
0100
,
1000
0001
1010
0100
0001
1000
0110
0001
0010
0001
1100
0010
1000
0010
0101
1000
,
0100
0001
1010
0001
0010
0001
1100
0010
0100
1000
0011
1000
0011
1000
0011
1000
,
0010
0001
1100
0010
0100
0001
1010
0100
0001
1000
0110
0001
0010
0100
1001
0010
,
0100
1000
0011
1000
0100
0010
1100
0001
0010
0100
0011
0100
0011
0100
1010
0100
,
0001
1000
0110
0001
0010
0100
1001
0010
1000
0010
0101
1000
0001
0100
1010
0100
,
0001
1000
0101
0010
0100
0001
1010
0001
0100
0010
1100
0001
1010
0001
0110
1000
,
0202
0303
0000
0000
0000
0000
0000
0000
0000
0000
0000
0000
0000
0000
0000
0000
0000
0000
0000
0000
0000
0000
0000
0000
0000
0000
0000
0000
0000
0000
0000
0000
0000
0000
0000
0000
0000
0000
0000
0000
0000
0000
0000
0000
0000
0000
0000
0000
0000
0000
0000
0000
0000
0000
0000
0000
0000
0000
0000
0000
0000
0000
0000
0000
0000
0000
0000
0000
0000
0000
0000
0000
0000
0000
0000
0000
0000
0000
0000
0000
0000
0000
0000
0000
0000
0000
0000
0000
0000
0000
0000
0000
0000
0000
0000
0000
0000
0000
0000
0000
0000
0000
0000
0000
0000
0000
0000
0000
0000
0000
0000
0000
0000
0000
0000
0000
0000
0000
0000
0000
0000
0000
0000
0000
0000
0000
0000
0000
0000
0000
0000
0000
0000
0000
0000
0000
0000
0000
0000
0000
0000
0000
0000
0000
0000
0000
0000
0000
0000
0000
0000
0000
0000
0000
0000
0000
0000
0000
0000
0000
0000
0000
0000
0000
0000
0000
0000
0000
0000
0000
0000
0000
0000
0000
0000
0000
0000
0000
0000
0000
0000
0000
0000
0000
0000
0000
0000
0000
0000
0000
0000
0000
;
