#TITLE:PARANOiA Scaper;
#SUBTITLE:~Dirty Mix~;
#ARTIST:190 vs. L.E.D. LIGHT-G;
#TITLETRANSLIT:;
#SUBTITLETRANSLIT:;
#ARTISTTRANSLIT:;
#CREDIT:;
#BANNER:PScaper.png;
#BACKGROUND:PScaper-bg.png;
#LYRICSPATH:;
#CDTITLE:!title.png;
#MUSIC:PScaper.mp3;
#OFFSET:-0.020;
#SAMPLESTART:50.539;
#SAMPLELENGTH:24.280;
#SELECTABLE:YES;
#BPMS:0.000=190.000,166.000=191.000,168.000=192.000,170.000=193.000,172.000=194.000,174.000=195.000,176.000=196.000,178.000=197.000,180.000=198.000,182.000=199.000,184.000=200.000,198.000=205.000,200.000=204.000,202.000=203.000,204.000=202.000,206.000=201.000,209.000=200.000,212.000=199.000,238.000=200.000;
#STOPS:160.000=0.280
,162.000=0.360
;
#BGCHANGES:;
// cache tags:
#FIRSTBEAT:16.000;
#LASTBEAT:318.000;
#SONGFILENAME:Songs/toune 3/PScaper/PScaper.sm;
#HASMUSIC:1;
#HASBANNER:1;
#MUSICLENGTH:102.384;
// end cache tags

//---------------dance-single - MANIAC----------------
#NOTES:
     dance-single:
     MANIAC:
     Hard:
     10:
     0.851,0.932,1.000,0.000,0.000,487.000,123.000,0.000,0.000,0.000:
0000
0000
0000
0000
,
0000
0000
0000
0000
,
0000
0000
0000
0000
,
0000
0000
0000
0000
,
1000
0010
0100
0001
1000
0100
0001
0000
,
0010
1000
0100
0000
0001
0100
0010
0000
,
0100
0001
0010
0100
0001
0010
1000
0000
,
0010
1000
0100
0000
0001
0100
0010
0000
,
0100
1000
0100
0001
0100
1000
0100
1000
,
0010
0001
0010
1000
0010
0001
0010
0001
,
0100
1000
0100
0001
0100
1000
0100
0001
,
0010
0001
0010
1000
0010
0001
0010
0100
,
0000
0100
0010
0001
1000
0010
0100
0000
,
0001
0100
0010
0000
1000
0010
0100
0000
,
0010
0001
0100
0010
1000
0100
0010
1000
,
0001
0100
0011
0000
1000
0010
1100
0000
,
0001
0100
0010
0001
0100
0000
0101
0000
,
0010
1000
0100
0010
1000
0000
0110
0000
,
1000
0001
0100
0010
0001
0000
0101
0000
,
0010
1000
0100
0000
0001
0100
0010
0000
,
0011
0010
0110
0000
1000
0010
0100
0000
,
0110
0010
0011
0000
0010
1000
0100
0000
,
0010
0001
0110
1000
0100
0010
0011
0100
,
0011
0010
1100
0010
0110
0001
1001
0000
,
0001
0100
0010
1000
0100
0010
1001
0100
,
0010
0001
0100
0010
1000
0100
0011
0100
,
0001
0100
0010
1000
0100
0010
0101
0010
,
1000
0100
0010
1000
0001
0100
0110
0000
,
0010
0001
0010
0100
1010
0100
0010
0001
,
0100
1000
0100
0010
0101
0010
0100
1000
,
0010
0100
0010
0100
1010
0001
0010
1000
,
0100
0010
0100
0010
0101
1000
0100
0010
,
0001
0100
0010
0001
0101
0000
1010
0000
,
0100
0010
1000
0001
0110
0000
1100
0000
,
0010
0100
0001
0010
1100
0000
0110
0000
,
0001
1000
0010
0100
1010
0000
0101
0000
,
0010
1000
0100
0010
0101
1010
1010
0000
,
0100
0001
1000
0100
0110
0011
0011
0000
,
0010
1000
0100
0001
0110
0101
0101
0000
,
0010
1000
0100
0010
0011
0110
0110
0000
,
1010
1100
0101
0110
,
0101
0000
1001
0000
1000
0010
1100
0000
,
0001
0010
0101
0000
0001
1000
0100
0010
,
0101
0000
1001
0000
1000
0001
0110
0000
,
0010
1000
0011
0000
0100
0001
0010
1000
,
0110
0000
1001
0000
1000
0001
0110
0000
,
0001
1000
0110
0000
0100
0001
1000
0010
,
0101
0000
1010
0000
0100
0001
0110
0000
,
1000
0010
0101
0000
0001
1000
0010
0100
,
1010
0000
0101
0000
1000
0010
0100
0001
,
0110
1000
0110
0001
0010
1000
0100
0010
,
0011
0010
0110
1000
0100
0010
0001
0100
,
1010
0100
0011
0010
0100
1000
0010
0000
,
0011
0000
0000
0000
1100
0100
0110
0001
,
0011
0000
0000
0110
0000
0011
0000
0110
,
0010
1010
0001
0110
0011
1000
0110
0100
,
0101
0000
0100
1100
0000
0011
0000
0011
,
0100
0011
0010
1010
0110
0000
1010
0000
,
0110
0000
0011
0000
0001
0100
0010
1000
,
0001
0010
0100
0001
0010
1000
0100
0010
,
0101
0000
1010
0000
0100
0010
0001
0100
,
1010
0000
0101
0000
0010
1000
0100
0010
,
0101
0000
1010
0000
0100
0010
1000
0001
,
0100
0010
1000
0000
0001
0100
0010
1000
,
0001
0100
1010
0000
0100
0001
0010
0100
,
0001
1000
0110
0000
0001
1000
0010
0100
,
0001
0010
0110
0000
1000
0010
0100
0001
,
0010
1000
0011
0000
0100
0010
1000
0001
,
0100
0010
0101
0010
1000
0010
0100
1000
,
0010
1000
0101
0100
0001
0010
1000
0100
,
0001
0010
0110
1000
0001
0100
0010
1000
,
0100
0001
0110
1000
0100
0001
0110
1000
,
0010
0100
0011
0100
0010
1000
0110
0001
,
0100
0010
1010
0010
0110
0001
0010
0000
,
1100
0010
0100
0000
0011
0101
0101
1100
,
0110
1010
0011
0110
1010
1001
0000
0000
,
0000
0000
0000
0000
,
0000
0000
0000
0000
,
0000
0000
0000
0000
,
0000
0000
1001
0000
;

//---------------dance-single - TRICKY----------------
#NOTES:
     dance-single:
     TRICKY:
     Medium:
     8:
     0.596,0.582,0.371,0.020,0.000,387.000,38.000,2.000,0.000,0.000:
0000
0000
0000
0000
,
0000
0000
0000
0000
,
0000
0000
0000
0000
,
0000
0000
0000
0000
,
1000
0100
1000
1100
,
0001
0100
0001
0101
,
0010
0001
0010
0000
1000
0100
1000
0000
,
0001
0010
0001
0000
0100
1000
0100
0000
,
0010
1000
0010
0001
,
0100
1000
0100
0001
,
0100
1000
0100
0000
0001
0010
0001
0000
,
0010
0001
0010
0000
0100
1000
0100
0000
,
0010
0011
0010
0110
,
0010
0100
0010
0000
0100
0010
0100
0000
,
0001
0101
0100
0110
,
0010
0100
0010
0000
1000
0100
1000
0000
,
0001
0000
0010
0000
0100
0001
0100
0000
,
0010
0000
0100
0000
1000
0010
0100
0000
,
1000
0100
0101
0101
,
0010
0100
1100
1100
,
0001
0000
0010
0000
1000
0010
0100
0000
,
0010
0000
0001
0000
0010
1000
0100
0000
,
0010
0110
0100
0101
,
0001
0101
0001
1001
,
0001
0100
0010
0000
1000
0010
0100
0000
,
0010
0000
0010
0000
0100
0010
0100
0000
,
0001
0100
0001
0000
1000
0010
1000
0000
,
0100
0000
0100
0000
1000
0010
0100
0000
,
0001
0000
0010
0000
0010
1000
0100
0000
,
0001
0010
0001
0000
1000
0100
1000
0000
,
1000
0000
0100
0000
0010
0001
0010
0000
,
0100
0010
0100
0000
0010
1000
0010
0000
,
0001
0010
0001
0010
0001
0010
0001
0000
,
0010
1010
0010
0110
,
1000
0100
1000
0100
1000
0100
1000
0000
,
1000
1010
0010
0011
,
0010
1000
0010
0001
0010
1000
0010
0000
,
0010
0011
0010
1010
,
0100
1000
0100
0001
0100
1000
0100
0000
,
0010
0011
0010
0110
,
1001
1000
0001
0010
,
0010
0010
1000
1100
,
0001
0101
1000
1100
,
0001
1001
0010
0011
,
0100
1100
0010
0011
,
0010
1001
1000
1010
,
0001
0101
1000
1010
,
0001
0000
1001
0000
0100
0001
0100
0000
,
0010
1000
0010
0000
0010
1000
0001
0100
,
0010
1000
0001
0000
1000
0100
1000
0100
,
1000
0100
1000
0000
1000
0010
1000
0010
,
1000
0010
1000
0000
0001
0010
0001
0010
,
0001
0010
0001
0000
0001
1000
0010
0000
,
0010
0000
0000
0000
0100
0010
0100
0001
,
0100
0000
0000
0100
0000
0001
0000
0100
,
0010
0100
0001
0100
0010
0100
0001
0100
,
0010
0000
1000
0100
0000
1000
0000
0010
,
0100
0010
1000
0010
0100
0000
1000
0000
,
0001
1000
2002
0000
,
0000
0000
0000
3003
0010
0001
0010
0000
,
1000
0100
1000
0000
0100
0010
0100
0001
,
0100
0000
0001
0000
0010
1000
0010
0000
,
0100
0001
0100
0000
0010
0100
0010
1000
,
0010
0000
1000
0000
0001
0010
0001
0000
,
1000
0100
1000
0000
0001
0010
0001
0100
,
0001
0000
0100
0000
0100
1000
0010
0000
,
0001
0100
0010
0000
1000
0100
1000
0010
,
1000
0000
0001
0000
1000
0100
1000
0010
,
1000
0100
1000
0000
0001
0010
0001
0100
,
0001
0010
0001
0000
0010
1000
0010
0000
,
0010
0001
0010
0000
0001
0100
0010
1000
,
0100
0000
0110
0000
1000
0010
1000
0100
,
1000
0010
1000
0000
0001
0100
0001
0010
,
0001
0100
0001
0000
0010
0001
0010
0000
,
0100
1000
0100
0000
0001
0010
0001
1000
,
0100
1000
0001
0100
1000
0010
0000
0000
,
0000
0000
0000
0000
,
0000
0000
0000
0000
,
0000
0000
0000
0000
,
0000
0000
1001
0000
;

//---------------dance-single - BASIC----------------
#NOTES:
     dance-single:
     BASIC:
     Easy:
     5:
     0.367,0.427,0.147,0.029,0.000,245.000,15.000,3.000,0.000,0.000:
0000
0000
0000
0000
,
0000
0000
0000
0000
,
0000
0000
0000
0000
,
0000
0000
0000
0000
,
1000
0000
1000
0000
,
0001
0000
0001
0000
,
0010
0010
0010
0000
,
0100
0100
0100
0000
,
0001
0000
0010
0000
,
0100
0000
1000
0000
,
0001
0001
0001
0000
,
1000
1000
1000
0000
,
0010
0001
0010
0001
,
0010
0100
0010
0000
,
0100
1000
0100
0010
,
0100
1000
0010
1000
,
0001
0010
0100
0000
,
0010
0100
1000
0000
,
1000
0100
0001
0100
,
0010
0100
1000
0100
,
0001
0010
1000
0000
,
0010
0001
0010
0000
,
0010
0010
0100
0100
,
0001
0001
0001
0000
,
0001
0010
1000
0010
,
0001
0010
1000
0010
,
0100
0001
0100
1000
,
0100
0001
0100
1000
,
0100
0100
0010
0010
,
1000
1000
0001
0001
,
0100
0100
0010
0010
,
1000
1000
0001
0000
,
0001
0010
0001
0010
,
0001
1001
0001
1001
,
1000
0100
1000
0100
,
1000
1001
1000
1001
,
0010
1000
0010
0001
,
0010
0001
0010
1000
,
0100
0001
0100
1000
,
0100
1000
0100
0010
,
0002
0000
0000
0000
,
0000
0003
0001
0001
,
0001
0001
0010
0010
,
0010
0010
0100
0100
,
0100
0100
1000
1000
,
1000
1000
0100
0100
,
0100
0100
0001
0001
,
0001
0001
1000
1000
,
1000
1000
0100
0100
,
0100
0100
1000
0100
,
1000
0000
0001
0010
,
0001
0000
0100
0010
,
0100
0000
0001
1000
,
0001
0000
0100
0000
,
1100
0000
0100
0000
,
0011
0000
0010
0001
,
0010
0000
1000
0100
,
1000
0000
0001
0000
,
1000
0000
2002
0000
,
0000
0000
0000
3003
0010
0000
0010
0000
,
0100
0100
0001
1000
,
1001
0000
1000
1000
,
0001
0001
0100
0010
,
0110
0000
0010
0010
,
0001
0001
1000
0100
,
1100
0000
0010
0010
,
1000
1000
0001
1000
,
1001
0000
0010
0001
,
0010
0001
1000
0001
,
1000
0001
1000
0010
,
1000
0010
0100
0010
,
0100
0010
1000
0010
,
0001
0010
1000
0010
,
0001
0010
0100
1000
,
0100
0001
0100
1100
,
0100
0101
1001
0000
,
0000
0000
0000
0000
,
0000
0000
0000
0000
,
0000
0000
0000
0000
,
0000
0000
1001
0000
;
