#TITLE:This Is Sparta (Techno Remix);
#SUBTITLE:Feels The Arrow;
#ARTIST:Keaton Monger;
#TITLETRANSLIT:;
#SUBTITLETRANSLIT:;
#ARTISTTRANSLIT:;
#CREDIT:Ov3rHell3XoduZ;
#BANNER:../bn.png;
#BACKGROUND:../bg.png;
#LYRICSPATH:;
#CDTITLE:;
#MUSIC:Sparta.ogg;
#OFFSET:-4.415;
#SAMPLESTART:39.600;
#SAMPLELENGTH:11.920;
#SELECTABLE:YES;
#BPMS:0.000=140.150,95.500=135.000,96.000=140.150,111.500=135.000,112.000=140.150,127.500=135.000,128.000=140.150,155.000=135.000,156.000=140.150,191.500=130.000,192.000=140.150,199.500=135.000,200.000=140.150,239.000=135.000,240.000=140.150;
#STOPS:;
#BGCHANGES:;
// cache tags:
#FIRSTBEAT:8.000;
#LASTBEAT:290.000;
#SONGFILENAME:Songs/EXoduz' Feels The Arrow/This Is Sparta - [Ov3rHell3XoduZ]/This Is Sparta.sm;
#HASMUSIC:1;
#HASBANNER:1;
#MUSICLENGTH:130.112;
// end cache tags

//---------------dance-single - Ov3rHell3XoduZ----------------
#NOTES:
     dance-single:
     Ov3rHell3XoduZ:
     Challenge:
     12:
     1.000,1.000,0.215,0.630,1.000,887.000,28.000,82.000,12.000,7.000:

0000
0000
0000
0000
,
0000
0000
0000
0000
,
1000
0100
0000
0010
0001
0000
1000
0100
1000
0000
0001
0000
0100
0000
0010
0000
,
1000
0100
1000
0100
1000
0000
0000
0000
0001
0000
0000
0000
0100
0010
0100
0010
0100
0000
0000
0000
0001
0010
0001
0010
0001
0000
0000
0000
1000
0100
1000
0100
,
1000
0001
0000
0100
0010
0000
1000
0100
0010
0000
0001
0000
1000
0000
0001
0000
,
0010
0100
0010
0100
0010
0000
0000
0000
0001
0000
0000
0000
1000
0100
1000
0100
1000
0000
0000
0000
0001
0100
0001
0100
0001
0000
0000
0000
1000
0010
1000
0010
,
2000
3000
2200
3300
0220
0330
2200
3300
,
2020
3030
0202
0303
2002
3003
0022
0033
,
2200
3300
0220
0330
0022
0033
0202
0303
,
2002
3003
2200
3300
2002
3003
0202
0303
,
2202
3303
2202
3303
2022
3033
2022
3033
,
0222
0000
0333
0000
0222
0000
0333
0000
2220
0000
3330
0000
1000
1000
1000
1000
,
0001
0100
0000
0010
1000
0000
0100
0010
0001
0000
1000
0000
0100
0000
0010
0000
,
0001
1000
0001
1000
0001
0000
0000
0000
1000
0000
0000
0000
0100
0010
0100
0010
0100
0000
0000
0000
1000
0001
1000
0001
1000
0000
0000
0000
0010
0100
0010
0100
,
0010
1000
0000
0001
0100
0000
0010
1000
0001
0000
1000
0000
0100
0000
1000
0000
,
0001
1000
0001
1000
0001
0000
0000
0000
1000
0000
0000
0000
0001
0100
0001
0100
0001
0000
0000
0000
1000
0100
1000
0100
1000
0000
0000
0000
0001
0010
0001
0010
,
0001
1000
0000
0001
0100
0000
0010
1000
0001
0000
1000
0000
0100
0000
0010
0000
,
0100
1000
0100
1000
0100
0000
0000
0000
0010
0000
0000
0000
0001
1000
0001
1000
0001
0000
0000
0000
1000
0010
1000
0010
1000
0000
0000
0000
0001
0100
0001
0100
,
0001
0100
0000
0010
1000
0000
0001
0100
0001
0000
1000
0000
0100
0000
1000
0000
,
0001
0100
0001
0100
0001
0000
0000
0000
1000
0000
0000
0000
0010
0100
0010
0100
0010
0000
0000
0000
1000
0100
1000
0100
1000
0000
0000
0000
0001
1000
0001
1000
,
0002
0000
0000
0000
0013
0000
0100
1000
0001
0000
0100
0000
0100
0000
0010
1000
,
0002
0000
0013
0000
0100
0000
1000
0001
1000
0000
0010
0000
0100
0001
0010
0001
,
0020
0000
0100
0000
0130
0000
1000
0001
2000
0000
3100
0000
0010
0000
0001
1000
,
0002
0000
1003
0010
0100
0001
0010
0001
0010
0100
1000
0010
0100
0001
1000
0001
,
0010
0100
0000
1000
0001
0000
1000
0010
1000
0000
0001
0000
0010
0000
0100
0000
,
1000
0001
1000
0001
1000
0000
0000
0000
0010
0000
0000
0000
0100
0001
0100
0001
0100
0000
0000
0000
0010
1000
0010
1000
0010
0000
0000
0000
1000
0001
1000
0001
,
1000
0100
0000
0010
0001
0000
1000
0001
1000
0000
0001
0000
0100
0000
0010
0000
,
1000
0100
1000
0100
1000
0000
0000
0000
0001
0000
0000
0000
1000
0010
1000
0010
1000
0000
0000
0000
0001
0100
0001
0100
0001
0000
0000
0000
1000
0100
1000
0100
,
1000
0100
0000
1000
0001
0000
1000
0100
0010
0000
0001
0000
0100
0000
0001
0000
,
0010
0100
0010
0100
0010
0000
0000
0000
0001
0000
0000
0000
1000
0100
1000
0100
1000
0000
0000
0000
0001
1000
0001
1000
0001
0000
0000
0000
1000
0010
1000
0010
,
1000
0001
0000
1000
0100
0000
0010
0001
1000
0000
0001
0000
0100
0000
0001
0000
,
1000
0100
1000
0100
1000
0000
0000
0000
0001
0000
0000
0000
1000
0010
1000
0010
1000
0000
0000
0000
0001
0100
0001
0100
0001
0000
0000
0000
1000
0001
1000
0001
,
1000
0002
0000
0000
,
0000
0203
0000
0000
,
0000
0320
0000
0000
,
0000
2030
0000
0000
,
0000
3200
0000
0320
,
0000
0032
0000
2003
,
0000
0000
3002
0000
MM00
0000
MMM0
0003
,
MMM2
0000
0000
0000
2003
0000
0000
0000
3200
0000
0000
0000
0310
0010
0010
0010
,
0001
0100
0000
0010
1000
0000
0001
0010
0001
0000
1000
0000
0100
0000
0010
0000
,
0001
0100
0001
0100
0001
0000
0000
0000
1000
0000
0000
0000
0100
0010
0100
0010
0100
0000
0000
0000
1000
0001
1000
0001
1000
0000
0000
0000
0010
1000
0010
1000
,
0010
0100
0000
0001
0010
0000
0100
1000
0001
0000
1000
0000
0010
0000
0100
0000
,
0001
1000
0001
1000
0001
0000
0000
0000
1000
0000
0000
0000
0010
0100
0010
0100
0010
0000
0000
0000
0001
0010
0001
0010
0001
0000
0000
0000
1000
0100
1000
0100
,
1000
0100
0000
0010
0001
0000
1000
0100
1000
0000
0001
0000
1000
0000
0010
0000
,
0100
0001
0100
0001
0100
0000
0000
0000
0010
0000
0000
0000
1000
0100
1000
0100
1000
0000
0000
0000
0001
1000
0001
1000
0001
0000
0000
0000
1000
0010
1000
0010
,
1000
0001
0000
0100
0010
0000
1000
0100
1000
0000
0001
0000
0010
0000
0100
0000
,
1000
0001
1000
0001
1000
0000
0000
0000
0010
0000
0000
0000
0100
0001
0100
0001
0100
0000
0000
0000
0010
1000
0010
1000
0010
0000
0000
0000
1000
0100
1000
0100
,
1000
0001
0000
1000
0010
0000
0100
0001
0010
0000
0100
0000
1000
0000
0001
0000
,
1000
0100
1000
0100
1000
0000
0000
0000
0001
0000
0000
0000
1000
0010
1000
0010
1000
0000
0000
0000
0001
0010
0001
0010
0001
0000
0000
0000
1000
0001
1000
0001
,
1000
0100
0000
0010
0001
0000
1000
0001
1000
0000
0001
0000
0100
0000
0001
0000
,
0010
0100
0010
0100
0010
0000
0000
0000
0001
0000
0000
0000
1000
0001
1000
0001
1000
0000
0000
0000
0010
0100
0010
0100
0010
0000
0000
0000
1000
0100
1000
0100
,
1000
0001
0000
1000
0100
0000
0010
0001
1000
0000
0010
0000
0100
0000
0001
0000
,
1000
0100
1000
0100
1000
0000
0000
0000
0001
0000
0000
0000
1000
0010
1000
0010
1000
0000
0000
0000
0001
0010
0001
0010
0001
0000
0000
0000
1000
0100
1000
0100
,
1000
0001
0000
0100
0010
0000
1000
0001
0010
0000
0100
0000
1000
0000
0001
0000
,
1000
0010
1000
0010
1000
0000
0000
0000
0001
0000
0000
0000
0010
0100
0010
0100
0010
0000
0000
0000
0001
0100
0001
0100
0001
0000
0000
0000
1000
0001
1000
0001
,
1000
0100
0000
0010
0001
0000
1000
0100
0010
0000
0001
0000
1000
0000
0010
0000
,
0100
0001
0100
0001
0100
0000
0000
0000
0010
0000
0000
0000
1000
0001
1000
0001
1000
0000
0000
0000
0001
0010
0001
0010
0001
0000
0000
0000
0100
0010
0100
0010
,
0200
0300
0202
0303
0022
0033
2200
3300
,
0022
0000
0033
0000
2020
0000
3030
0000
0202
0000
0303
0000
0100
0100
0100
0100
,
0010
1000
0100
1000
0001
0100
0001
0010
0100
1000
0010
0100
0010
1000
0100
0010
,
0001
1000
0001
0100
0001
0010
0001
1000
0010
0100
0010
1000
0100
1000
0001
0010
,
0100
1000
0010
0100
0010
1000
0100
0010
0001
1000
0001
0100
0001
0010
0100
1000
,
0001
0100
0001
0100
0001
0000
1000
0000
0100
0000
0010
0000
0001
1000
0001
1000
0001
0000
0100
0000
0010
1000
0010
1000
0010
0000
0100
0000
0001
0010
0001
0010
,
0001
0100
0001
0010
0100
1000
0010
0100
0010
1000
0100
0010
0001
1000
0001
0010
,
0001
1000
0001
1000
0001
0000
0100
0000
0010
0000
1000
0000
0100
0010
0100
0010
0100
0000
1000
0000
0001
0100
0001
0100
0001
0000
1000
0000
0010
0100
0010
0100
,
0010
1000
0100
1000
0001
0010
0001
1000
0100
0010
0001
1000
0010
0100
0001
1000
,
0010
0100
0010
0100
0010
0000
1000
0000
0100
0000
0010
0000
0001
1000
0001
1000
0001
0000
0100
0000
0010
1000
0010
1000
0010
0000
0100
0000
0001
1000
0001
1000
,
0001
0010
0100
1000
0001
0100
0001
1000
0100
0010
0001
1000
0010
0100
0010
1000
,
0100
1000
0001
0010
0001
1000
0100
0010
0001
1000
0010
1000
0100
0010
0001
1000
,
0001
0100
0010
1000
0100
1000
0001
0010
0001
1000
0100
0010
0001
1000
0001
0100
,
0001
1000
0100
1000
0010
0100
0010
1000
0100
0010
0001
1000
0001
0100
0001
0010
,
0100
0000
MMMM
0000
;
