#TITLE:20031023;
#SUBTITLE:;
#ARTIST:DJ Sharpnel;
#TITLETRANSLIT:;
#SUBTITLETRANSLIT:;
#ARTISTTRANSLIT:;
#CREDIT:;
#BANNER:nookie bn.png;
#BACKGROUND:nookie bg.png;
#LYRICSPATH:;
#CDTITLE:;
#MUSIC:twothousand.ogg;
#OFFSET:-0.191;
#SAMPLESTART:244.222;
#SAMPLELENGTH:21.452;
#SELECTABLE:YES;
#DISPLAYBPM:179.000;
#BPMS:0.000=179.000,920.000=117.073;
#STOPS:;
#BGCHANGES:;
// cache tags:
#FIRSTBEAT:12.000;
#LASTBEAT:934.083;
#SONGFILENAME:Songs/SHARPNELSTREAMZ v2/20031023/twothousand.sm;
#HASMUSIC:1;
#HASBANNER:1;
#MUSICLENGTH:318.732;
// end cache tags

//---------------dance-single - 16- (TYLR)----------------
#NOTES:
     dance-single:
     16- (TYLR):
     Challenge:
     16:
     1.000,1.000,0.009,0.003,1.000,3153.000,3.000,1.000,0.000,0.000:
0000
0000
0000
0000
,
0000
0000
0000
0000
,
0000
0000
0000
0000
,
1001
0000
1000
0000
0010
0000
0100
0001
0100
0001
1000
0000
0010
0000
0100
0001
,
1000
0000
1000
0000
0100
0000
0010
0001
0010
0001
1000
0000
0100
0000
0010
0001
,
1000
0000
1000
0000
0010
0000
0100
0001
0100
0001
1000
0000
0010
0000
0100
0001
,
1000
0000
1000
0000
0100
0000
0010
0001
0010
0001
1000
0000
0100
0000
0010
0001
,
0100
0000
0100
0000
0010
0000
1000
0001
1000
0001
0100
0000
0010
0000
1000
0001
,
0010
0000
0010
0000
0100
0000
1000
0001
1000
0001
0010
0000
0100
0000
1000
0001
,
0100
0000
0100
0000
0010
0000
1000
0001
1000
0001
0100
0000
0010
0000
1000
0001
,
0010
0000
0010
0000
0100
0000
1000
0001
1000
0001
0010
0000
0100
0000
1000
0001
,
0100
0000
0100
0000
0010
0000
1000
0001
1000
0001
0100
0000
0010
0000
1000
0001
,
0010
0100
1000
0000
0010
0100
0001
1000
0010
0100
0001
0000
0010
0100
1000
0000
,
0010
0100
0001
0000
0010
0100
1000
0001
0010
0100
1000
0000
0001
0100
0010
0000
,
1000
0001
0010
0000
0100
1000
0001
0010
0100
1000
0001
0000
0100
0010
1000
0000
,
0100
0010
0001
0000
0100
0010
1000
0001
0100
0010
1000
0000
0001
0010
0100
0000
,
1000
0001
0100
0000
0010
1000
0001
0100
0010
1000
0001
0000
0010
0100
1000
0000
,
0001
0100
0010
0000
1000
0001
0010
0100
1000
0001
0010
0000
0100
1000
0100
0010
,
0001
1000
0001
0100
0010
1000
0010
0100
0001
0010
0100
1000
0001
1000
0100
0010
,
0001
0100
0001
0010
0100
1000
0010
0100
0001
0010
0001
0100
0010
1000
0100
0010
,
0001
0100
0001
1000
0010
0100
0010
1000
0001
0010
0001
1000
0100
0010
0100
1000
,
0001
0100
0001
1000
0010
0100
0001
1000
0100
0010
0100
1000
0001
0010
0001
1000
,
0001
0100
0010
1000
0001
1000
0010
0100
0001
1000
0100
1000
0001
0010
0100
1000
,
0001
0100
0001
1000
0100
0010
0001
1000
0001
0100
0010
1000
0001
1000
0010
0100
,
0001
0010
0100
1000
0001
1000
0100
0010
0001
0100
0010
1000
0001
1000
0010
0100
,
0001
0010
0100
1000
0001
1000
0100
0010
0001
0100
0010
1000
0001
1000
0010
0100
,
0001
0010
0100
1000
0001
1000
0100
0010
0001
0100
0010
1000
0001
1000
0010
0100
,
0001
0100
0010
1000
0001
1000
0010
0100
0001
1000
0010
1000
0001
0010
0001
1000
,
0001
0100
0001
1000
0010
0100
0010
1000
0001
0010
0001
1000
0100
0010
0100
1000
,
0001
0100
0001
1000
0010
0100
0001
1000
0100
0010
0100
1000
0001
0010
0001
1000
,
0001
0100
0010
1000
0001
1000
0010
0100
0001
1000
0100
1000
0001
0010
0100
1000
,
0001
0100
0001
1000
0100
0010
0001
1000
0001
0100
0010
1000
0001
1000
0010
0100
,
0001
0010
0100
1000
0001
1000
0100
0010
0001
0100
0010
1000
0001
1000
0010
0100
,
0001
0010
0100
1000
0001
1000
0100
0010
0001
0100
0010
1000
0001
1000
0010
0100
,
0001
0010
0100
1000
0001
1000
0100
0010
0001
0100
0010
1000
0001
1000
0010
0100
,
0001
0100
0010
1000
0001
1000
0010
0100
0001
1000
0010
1000
0100
0010
0100
1000
,
0001
0100
0001
1000
0010
0100
0010
1000
0001
0010
0001
1000
0100
0010
0100
1000
,
0001
0100
0001
1000
0010
0100
0001
1000
0100
0010
0100
1000
0001
0010
0001
1000
,
0001
0100
0010
1000
0001
1000
0010
0100
0001
1000
0100
1000
0001
0010
0100
1000
,
0001
0100
0001
1000
0100
0010
0001
1000
0001
0100
0010
1000
0001
1000
0010
0100
,
0001
0010
0100
1000
0001
1000
0100
0010
0001
0100
0010
1000
0001
1000
0010
0100
,
0001
0010
0100
1000
0001
1000
0100
0010
0001
0100
0010
1000
0001
1000
0010
0100
,
0001
0010
0100
1000
0001
1000
0100
0010
0001
0100
0010
1000
0001
1000
0010
0100
,
0001
0100
0010
1000
0001
1000
0010
0100
0001
1000
0010
1000
0001
0010
0001
1000
,
0001
0100
0001
1000
0010
0100
0010
1000
0001
0010
0001
1000
0100
0010
0100
1000
,
0001
0100
0001
1000
0010
0100
0001
1000
0100
0010
0100
1000
0001
0010
0001
1000
,
0001
0100
0010
1000
0001
1000
0010
0100
0001
1000
0100
1000
0001
0010
0100
1000
,
0001
0100
0001
1000
0100
0010
0001
1000
0001
0100
0010
1000
0001
1000
0010
0100
,
0001
0010
0100
1000
0001
1000
0100
0010
0001
0100
0010
1000
0001
1000
0010
0100
,
0001
0010
0100
1000
0001
1000
0100
0010
0001
0100
0010
1000
0001
1000
0010
0100
,
0001
0010
0100
1000
0001
1000
0100
0010
0001
0100
0010
1000
0001
1000
0010
0100
,
0001
0100
0010
1000
0001
1000
0010
0100
0001
1000
0010
1000
0100
0010
0100
1000
,
0001
0100
0010
0100
0001
0010
0100
0000
,
1000
0001
0100
0010
1000
0001
0010
0000
,
0100
0010
0001
0000
0100
0001
1000
0010
,
1000
0100
0010
0001
1000
0000
0001
0100
,
0001
0010
0100
0010
0001
0100
0010
0000
,
1000
0001
0010
0100
1000
0001
0100
0000
,
0010
0100
0001
0000
0010
0001
1000
0100
,
1000
0010
0100
0001
1000
0000
0001
0010
,
0001
0100
0010
0100
0001
0010
0100
0000
,
1000
0001
0100
0010
1000
0001
0010
0000
,
0100
0010
0001
0000
0100
0001
1000
0010
,
1000
0100
0010
0001
1000
0000
0001
0100
,
0001
0010
0100
0010
0001
0100
0010
0000
,
1000
0001
0010
0100
1000
0001
0100
0000
,
0001
1000
0001
0100
0010
1000
0001
1000
0001
0010
0100
1000
0001
1000
0100
0010
,
0001
1000
0010
1000
0001
0010
0100
0010
0001
0100
0010
1000
0100
1000
0010
0100
,
0001
0010
0001
1000
0100
0010
0100
1000
0001
0100
0001
1000
0010
0100
0010
1000
,
0001
0010
0001
1000
0100
0010
0001
1000
0010
0100
0010
1000
0001
0100
0001
1000
,
0001
0010
0100
1000
0001
1000
0100
0010
0001
1000
0010
1000
0001
0100
0010
1000
,
0001
0010
0001
1000
0010
0100
0001
1000
0001
0010
0100
1000
0001
1000
0100
0010
,
0001
0100
0010
1000
0001
1000
0010
0100
0001
0010
0100
1000
0001
1000
0100
0010
,
0001
0100
0010
1000
0001
1000
0010
0100
0001
0010
0100
1000
0001
1000
0100
0010
,
0001
0100
0010
1000
0001
1000
0010
0100
0001
0010
0100
1000
0001
1000
0100
0010
,
0001
0010
0100
1000
0001
1000
0100
0010
0001
1000
0100
1000
0001
0100
0001
1000
,
0001
0010
0001
1000
0100
0010
0100
1000
0001
0100
0001
1000
0010
0100
0010
1000
,
0001
0010
0001
1000
0100
0010
0001
1000
0010
0100
0010
1000
0001
0100
0001
1000
,
0001
0010
0100
1000
0001
1000
0100
0010
0001
1000
0010
1000
0001
0100
0010
1000
,
0001
0010
0001
1000
0010
0100
0001
1000
0001
0010
0100
1000
0001
1000
0100
0010
,
0001
0100
0010
1000
0001
1000
0010
0100
0001
0010
0100
1000
0001
1000
0100
0010
,
0001
0100
0010
1000
0001
1000
0010
0100
0001
0010
0100
1000
0001
1000
0100
0010
,
0001
0100
0010
1000
0001
1000
0010
0100
0001
0010
0100
1000
0001
1000
0100
0010
,
0001
0010
0100
1000
0001
1000
0100
0010
0001
1000
0100
1000
0010
0100
0010
1000
,
0100
0010
0001
1000
0010
0100
0010
1000
0001
0010
0001
1000
0100
0010
0100
1000
,
0001
0100
0001
1000
0010
0100
0001
1000
0100
0010
0100
1000
0001
0010
0001
1000
,
0001
0100
0010
1000
0001
1000
0010
0100
0001
1000
0100
1000
0001
0010
0100
1000
,
0001
0100
0001
1000
0100
0010
0001
1000
0001
0100
0010
1000
0001
1000
0010
0100
,
0001
0010
0100
1000
0001
1000
0100
0010
0001
0100
0010
1000
0001
1000
0010
0100
,
0001
0010
0100
1000
0001
1000
0100
0010
0001
0100
0010
1000
0001
1000
0010
0100
,
0001
0010
0100
1000
0001
1000
0100
0010
0001
0100
0010
1000
0001
1000
0010
0100
,
0001
0100
0010
1000
0001
1000
0010
0100
0001
1000
0010
1000
0001
0010
0001
1000
,
0001
0100
0001
1000
0010
0100
0010
1000
0001
0010
0001
1000
0100
0010
0100
1000
,
0001
0100
0001
1000
0010
0100
0001
1000
0100
0010
0100
1000
0001
0010
0001
1000
,
0001
0100
0010
1000
0001
1000
0010
0100
0001
1000
0100
1000
0001
0010
0100
1000
,
0001
0100
0001
1000
0100
0010
0001
1000
0001
0100
0010
1000
0001
1000
0010
0100
,
0001
0010
0100
1000
0001
1000
0100
0010
0001
0100
0010
1000
0001
1000
0010
0100
,
0001
0010
0100
1000
0001
1000
0100
0010
0001
0100
0010
1000
0001
1000
0010
0100
,
0001
0010
0100
1000
0001
1000
0100
0010
0001
0100
0010
1000
0001
1000
0010
0100
,
0001
0100
0010
1000
0001
1000
0010
0100
0001
0010
0100
0010
0001
0100
0010
1000
,
0001
0010
0100
1000
0001
0010
0001
1000
0001
0100
0010
1000
0001
1000
0010
0100
,
0001
0010
0100
1000
0100
0010
0001
1000
0001
0100
0010
1000
0001
1000
0010
0100
,
0001
0010
0100
1000
0001
1000
0100
0010
0001
1000
0001
0100
0010
0100
0001
1000
,
0100
0010
0100
1000
0001
0010
0001
1000
0001
0100
0010
1000
0010
0100
0001
0010
,
0100
1000
0100
0010
0001
1000
0001
0100
0001
0100
0010
1000
0010
0100
0001
0010
,
0100
1000
0100
0010
0001
1000
0001
0100
0001
0100
0010
1000
0010
0100
0001
0010
,
0100
1000
0100
0010
0001
1000
0001
0100
0001
0100
0010
1000
0010
0100
0001
1000
,
0100
0010
0100
1000
0001
0010
0001
1000
0001
0100
0010
1000
0001
0010
0100
1000
,
0001
0100
0010
1000
0001
0100
0001
1000
0001
0010
0100
1000
0001
1000
0100
0010
,
0001
0100
0010
1000
0010
0100
0001
1000
0001
0010
0100
1000
0001
1000
0100
0010
,
0001
0100
0010
1000
0001
1000
0010
0100
0001
1000
0001
0010
0100
0010
0001
1000
,
0010
0100
0010
1000
0001
0100
0001
1000
0001
0010
0100
1000
0100
0010
0001
0100
,
0010
1000
0010
0100
0001
1000
0001
0010
0001
0010
0100
1000
0100
0010
0001
0100
,
0010
1000
0010
0100
0001
1000
0001
0010
0001
0010
0100
1000
0100
0010
0001
0100
,
0010
1000
0010
0100
0001
1000
0001
0010
0001
0010
0100
1000
0100
0010
0001
1000
,
0010
0100
0010
1000
0001
0010
0001
1000
0010
0100
0001
0010
0100
1000
0010
0100
,
0001
0010
0100
1000
0001
0010
0001
1000
0001
0100
0010
1000
0001
1000
0010
0100
,
0001
0010
0100
1000
0100
0010
0001
1000
0001
0100
0010
1000
0001
1000
0010
0100
,
0001
0010
0100
1000
0001
1000
0100
0010
0001
1000
0001
0100
0010
0100
0001
1000
,
0100
0010
0100
1000
0001
0010
0001
1000
0001
0100
0010
1000
0010
0100
0001
0010
,
0100
1000
0100
0010
0001
1000
0001
0100
0001
0100
0010
1000
0010
0100
0001
0010
,
0100
1000
0100
0010
0001
1000
0001
0100
0001
0100
0010
1000
0010
0100
0001
0010
,
0100
1000
0100
0010
0001
1000
0001
0100
0001
0100
0010
1000
0010
0100
0001
1000
,
0100
0010
0100
1000
0001
0010
0001
1000
0001
0100
0010
1000
0001
0010
0100
1000
,
0001
0100
0010
1000
0001
0100
0001
1000
0001
0010
0100
1000
0001
1000
0100
0010
,
0001
0100
0010
1000
0010
0100
0001
1000
0001
0010
0100
1000
0001
1000
0100
0010
,
0001
0100
0010
1000
0001
1000
0010
0100
0001
1000
0001
0010
0100
0010
0001
1000
,
0010
0100
0010
1000
0001
0100
0001
1000
0001
0010
0100
1000
0100
0010
0001
0100
,
0010
1000
0010
0100
0001
1000
0001
0010
0001
0010
0100
1000
0100
0010
0001
0100
,
0010
1000
0010
0100
0001
1000
0001
0010
0001
0010
0100
1000
0100
0010
0001
0100
,
0010
1000
0010
0100
0001
1000
0001
0010
0100
1000
0100
0010
0001
1000
0001
0100
,
0010
1000
0100
1000
0010
0100
0001
0010
0001
0100
0010
1000
0100
0010
0001
0100
,
0010
1000
0100
1000
0010
0100
0001
0000
,
1000
0001
0010
0100
1000
0001
0100
0000
,
0010
0100
0001
0000
0010
0001
1000
0100
,
1000
0010
0100
0001
1000
0000
0001
0010
,
0001
0100
0010
0100
0001
0010
0100
0000
,
1000
0001
0100
0010
1000
0001
0010
0000
,
0100
0010
0001
0000
0100
0001
1000
0010
,
1000
0100
0010
0001
1000
0000
0001
0100
,
0001
0010
0100
0010
0001
0100
0010
0000
,
1000
0001
0010
0100
1000
0001
0100
0000
,
0010
0100
0001
0000
0010
0001
1000
0100
,
1000
0010
0100
0001
1000
0000
0001
0010
,
0001
0100
0010
0100
0001
0010
0100
0000
,
1000
0001
0100
0010
1000
0001
0010
0001
,
0100
0000
0001
0010
0100
1000
0100
0010
,
0001
0100
0010
0100
0001
1000
0001
1000
,
1001
0000
0001
0000
0010
0000
0100
1000
0100
1000
0001
0000
0010
0000
0100
1000
,
0001
0000
0001
0000
0100
0000
0010
1000
0010
1000
0001
0000
0100
0000
0010
1000
,
0001
0000
0001
0000
0010
0000
0100
1000
0100
1000
0001
0000
0010
0000
0100
1000
,
0001
0000
0001
0000
0100
0000
0010
1000
0010
1000
0001
0000
0100
0000
0010
1000
,
0100
0000
0100
0000
0010
0000
0001
1000
0001
1000
0100
0000
0010
0000
0001
1000
,
0010
0000
0010
0000
0100
0000
0001
1000
0001
1000
0010
0000
0100
0000
0001
1000
,
0100
0000
0100
0000
0010
0000
0001
1000
0001
1000
0100
0000
0010
0000
0001
1000
,
0010
0000
0010
0000
0100
0000
0001
1000
0001
1000
0010
0000
0100
0000
0010
1000
,
0001
0000
0001
0000
0100
0000
0010
1000
0010
1000
0001
0000
0100
0000
0010
1000
,
0001
0000
0001
0000
0010
0000
0100
1000
0100
1000
0001
0000
0010
0000
0100
1000
,
0001
0000
0001
0000
0100
0000
0010
1000
0010
1000
0001
0000
0100
0000
0010
1000
,
0001
0000
0001
0000
0010
0000
0100
1000
0100
1000
0001
0000
0010
0000
0100
1000
,
0010
0000
0010
0000
0100
0000
0001
1000
0001
1000
0010
0000
0100
0000
0001
1000
,
0100
0000
0100
0000
0010
0000
0001
1000
0001
1000
0100
0000
0010
0000
0001
1000
,
0010
0100
0010
1000
0001
0100
0001
1000
0001
0010
0100
1000
0001
1000
0100
0010
,
0001
0100
0010
0100
0001
0010
0100
1000
0010
1000
0100
0010
0001
0100
0010
1000
,
0002
0003
0000
0000
0000
0000
0000
0000
0000
0000
0000
0000
0000
0000
0000
0000
,
1000
0000
0010
0100
0001
0000
1000
0000
0100
0010
0100
0000
1100
0000
1000
0000
,
0001
1000
0001
0100
0010
1000
0010
1000
0100
0010
0001
1000
0001
0100
0001
0100
,
0010
1000
0001
1000
0010
0100
0010
0100
0001
1000
0100
1000
0001
0010
0001
0010
,
0100
1000
0100
0010
0001
1000
0001
1000
0010
1000
0001
0100
0010
1000
0010
1000
,
0100
0010
0100
1000
0001
0010
0001
0010
0100
0010
0001
0100
0001
1000
0100
0010
,
0001
1000
0001
0100
0010
1000
0010
1000
0100
0010
0001
1000
0001
0100
0001
0100
,
0010
1000
0001
1000
0010
0100
0010
0100
0001
1000
0100
1000
0001
0010
0001
0010
,
0100
1000
0100
0010
0001
1000
0001
1000
0010
1000
0001
0100
0010
1000
0010
1000
,
0100
0010
0100
1000
0001
0010
0001
0010
0100
0010
0001
0100
0001
1000
0100
0010
,
0001
1000
0001
0100
0010
1000
0010
1000
0100
0010
0001
1000
0001
0100
0001
0100
,
0010
1000
0001
1000
0010
0100
0010
0100
0001
1000
0100
1000
0001
0010
0001
0010
,
0100
1000
0100
0010
0001
1000
0001
1000
0010
1000
0001
0100
0010
1000
0010
1000
,
0100
0010
0100
1000
0001
0010
0001
0010
0100
0010
0001
0100
0001
1000
0100
0010
,
0001
1000
0001
0100
0010
1000
0010
1000
0100
0010
0001
1000
0001
0100
0001
0100
,
0010
1000
0001
1000
0010
0100
0010
0100
0001
1000
0100
1000
0001
0010
0001
0010
,
0100
1000
0100
0010
0001
1000
0001
1000
0010
0100
0001
0100
0010
1000
0010
1000
,
0100
0010
0100
1000
0001
0010
0001
1000
0010
0100
0001
0010
0001
0100
0010
1000
,
0001
0010
0100
1000
0001
1000
0010
0100
0001
0010
0100
1000
0001
1000
0010
0100
,
0001
0010
0100
1000
0001
0100
0010
0100
0001
1000
0010
1000
0001
0100
0010
1000
,
0001
0010
0100
1000
0001
1000
0010
0100
0001
0010
0100
1000
0001
1000
0010
1000
,
0100
0010
0100
1000
0010
0100
0001
0100
0010
1000
0001
1000
0010
0100
0001
0010
,
0001
0100
0010
1000
0001
1000
0100
0010
0001
0100
0010
1000
0001
1000
0100
0010
,
0001
0100
0010
1000
0001
0010
0100
0010
0001
1000
0100
1000
0001
0010
0100
1000
,
0001
0100
0010
1000
0001
1000
0100
0010
0001
0100
0010
1000
0001
1000
0100
1000
,
0010
0100
0010
1000
0100
0010
0001
0010
0100
1000
0001
1000
0100
0010
0001
1000
,
0001
0010
0100
1000
0001
1000
0010
0100
0001
0010
0100
1000
0001
1000
0010
0100
,
0001
0010
0100
1000
0001
0100
0010
0100
0001
1000
0010
1000
0001
0100
0010
1000
,
0001
0010
0100
1000
0001
1000
0010
0100
0001
0010
0100
1000
0001
1000
0010
1000
,
0100
0010
0100
1000
0010
0100
0001
0100
0010
1000
0001
1000
0010
0100
0001
0010
,
0001
0100
0010
1000
0001
1000
0100
0010
0001
0100
0010
1000
0001
1000
0100
0010
,
0001
0100
0010
1000
0001
0010
0100
0010
0001
1000
0100
1000
0001
0010
0100
1000
,
0001
0100
0010
1000
0001
1000
0100
0010
0001
0100
0010
1000
0001
1000
0100
1000
,
0010
0100
0010
1000
0100
0010
0001
0010
0100
1000
0010
1000
0100
0010
0001
0100
,
0010
0000
1000
0001
0000
1000
0001
0000
0010
0000
0100
1000
0000
0100
1000
0000
,
0010
0000
0100
0001
0000
0100
0001
0000
1000
0000
0001
0010
0000
0001
0010
0000
,
0100
0000
1000
0001
0000
1000
0001
0000
0100
0000
0010
1000
0000
0010
1000
0000
,
0100
0000
0010
0001
0000
0010
0001
0000
0100
0000
0001
0100
0000
0100
0010
0000
,
1000
0000
0001
0010
0000
0001
0010
0000
0100
0000
1000
0001
0000
1000
0001
0000
,
0100
0000
0010
1000
0000
0010
1000
0000
0001
0000
0010
0100
0000
0010
0100
0000
,
1000
0000
0001
1000
0000
0001
1000
0000
0010
0000
0100
0001
0000
0100
0001
0000
,
0010
0000
0100
1000
0000
0100
1000
0000
0010
0000
1000
0010
0000
0010
0100
0000
,
0001
0000
0100
0001
0000
0100
0001
0000
1000
0000
0001
1000
0000
0001
1000
0000
,
0010
0000
0100
0001
0000
0100
0001
0000
1000
0000
0001
0010
0000
0001
0010
0000
,
0100
0000
1000
0001
0000
1000
0001
0000
0100
0000
0010
1000
0000
0010
1000
0000
,
0100
0000
0010
0001
0000
0010
0001
0000
0100
0000
0001
0100
0000
0100
0010
0000
,
1000
0000
0001
0010
0000
0001
0010
0000
0100
0000
1000
0001
0000
1000
0001
0000
,
0100
0000
0010
1000
0000
0010
1000
0000
0001
0000
0010
0100
0000
0010
0100
0000
,
1000
0100
1000
0001
0010
0001
1000
0001
1000
0010
0100
0001
1000
0001
0100
0010
,
1000
0100
0010
0001
0100
0001
0010
0100
1000
0010
0100
0010
1000
0100
0010
0001
,
1000
0010
0100
0001
1000
0001
0010
0100
1000
0010
0100
0001
1000
0001
0010
0100
,
1000
0010
0100
0001
1000
0100
0010
0100
1000
0001
0010
0001
1000
0100
0010
0001
,
1000
0010
0100
0001
1000
0001
0010
0100
1000
0010
0100
0001
1000
0001
0010
0001
,
0100
0010
0100
0001
0010
0100
1000
0100
0010
0001
1000
0001
0010
0100
1000
0010
,
1000
0100
0010
0001
1000
0001
0100
0010
1000
0100
0010
0001
1000
0001
0100
0010
,
1000
0100
0010
0001
1000
0010
0100
0010
1000
0001
0100
0001
1000
0010
0100
0001
,
1000
0100
0010
0001
1000
0001
0100
0010
1000
0100
0010
0001
1000
0001
0100
0001
,
0010
0100
0010
0001
0100
0010
1000
0010
0100
0001
1000
0001
0100
0010
1000
0001
,
1000
0010
0100
0001
1000
0001
0010
0100
1000
0010
0100
0001
1000
0001
0010
0100
,
1000
0010
0100
0001
1000
0100
0010
0100
1000
0001
0010
0001
1000
0100
0010
0001
,
1000
0010
0100
0001
1000
0001
0010
0100
1000
0010
0100
0001
1000
0001
0010
0001
,
0100
0010
0100
0001
0010
0100
1000
0100
0010
0001
1000
0001
0010
0100
1000
0010
,
1000
0100
0010
0001
1000
0001
0100
0010
1000
0100
0010
0001
1000
0001
0100
0010
,
1000
0100
0010
0001
1000
0010
0100
0010
1000
0001
0100
0001
1000
0010
0100
0001
,
1000
0100
0010
0001
1000
0001
0100
0010
1000
0100
0010
0001
1000
0001
0100
0001
,
0010
0100
0010
0001
0100
0010
1000
0010
0100
0001
0010
0001
0100
0010
1000
0100
,
0010
0000
0000
0000
0000
0000
0000
0000
0000
0000
0000
0000
0001
0000
0000
0000
0000
0000
0100
0000
0000
0000
0000
0000
0001
0100
0000
0000
0000
0000
0000
0000
0000
0000
0000
0000
0000
0000
0000
0000
0000
0000
0000
0000
0000
0000
0000
0000
,
0100
0010
0000
0000
0000
0000
0000
0000
0000
0000
0000
0000
1000
0000
0000
0000
0000
0000
0001
0000
0000
0000
0000
0000
0001
0010
0000
0000
0000
0000
0000
0000
0000
0000
0000
0000
0000
0000
0000
0000
0000
0000
0001
0000
0000
0000
0000
0000
,
1000
0010
0100
0010
1000
0001
0010
0100
,
1000
0000
0000
0000
0000
0000
0010
0000
0000
0000
0000
0000
0100
0000
0000
0000
0000
0000
0001
0000
0000
0000
0000
0000
0001
1000
0000
0000
0000
0000
0000
0000
0000
0000
0000
0000
0000
0000
0000
0000
0000
0000
0000
0000
0000
0000
0000
0000
;

//---------------dance-single - 15- (TYLR)----------------
#NOTES:
     dance-single:
     15- (TYLR):
     Hard:
     15:
     1.000,1.000,0.009,0.003,1.000,2929.000,3.000,1.000,0.000,0.000:
0000
0000
0000
0000
,
0000
0000
0000
0000
,
0000
0000
0000
0000
,
1001
0000
0001
0000
0100
0000
0010
1000
0010
1000
0001
0000
0100
0000
0010
1000
,
0001
0000
0001
0000
0010
0000
0100
1000
0100
1000
0001
0000
0010
0000
0100
1000
,
0001
0000
0001
0000
0100
0000
0010
1000
0010
1000
0001
0000
0100
0000
0010
1000
,
0001
0000
0001
0000
0010
0000
0100
1000
0100
1000
0001
0000
0010
0000
0100
1000
,
0010
0000
0010
0000
0100
0000
0001
1000
0001
1000
0010
0000
0100
0000
0001
1000
,
0100
0000
0100
0000
0010
0000
0001
1000
0001
1000
0100
0000
0010
0000
0001
1000
,
0010
0000
0010
0000
0100
0000
0001
1000
0001
1000
0010
0000
0100
0000
0001
1000
,
0100
0000
0100
0000
0010
0000
0001
1000
0001
1000
0100
0000
0010
0000
0001
1000
,
0010
0000
0010
0000
0100
0000
0001
1000
0001
1000
0010
0000
0100
0000
0001
1000
,
0100
0010
0001
0000
0100
0010
1000
0001
0100
0010
1000
0000
0100
0010
0001
0000
,
0100
0010
1000
0000
0100
0010
0001
1000
0100
0010
0001
0000
1000
0010
0100
0000
,
0001
1000
0100
0000
0010
0001
1000
0100
0010
0001
1000
0000
0010
0100
0001
0000
,
0010
0100
1000
0000
0010
0100
0001
1000
0010
0100
0001
0000
1000
0100
0010
0000
,
0001
1000
0010
0000
0100
0001
1000
0010
0100
0001
1000
0000
0100
0010
0001
0000
,
1000
0010
0100
0000
0001
1000
0100
0010
0001
1000
0100
0000
0010
0001
0010
0100
,
1000
0001
1000
0010
0100
0001
0100
0010
1000
0100
0010
0001
1000
0001
0010
0100
,
1000
0010
1000
0100
0010
0001
0100
0010
1000
0100
1000
0010
0100
0001
0010
0100
,
1000
0001
0100
0000
0010
1000
0001
0000
1000
0100
0010
0000
0001
1000
0010
0000
,
0100
0001
1000
0000
0100
0010
0001
0000
0100
0010
1000
0000
0001
0010
0100
0000
,
1000
0010
0100
0000
0001
1000
0100
0000
0010
0001
1000
0000
0010
0100
0001
0000
,
0010
0100
1000
0000
0001
0100
0010
0000
1000
0001
0010
0000
0100
1000
0001
0000
,
0100
0010
1000
0000
0100
0010
0001
0000
1000
0010
0100
0000
0001
0010
0100
0000
,
1000
0010
0100
0000
0001
1000
0100
0000
0010
0001
1000
0000
0010
0100
0001
0000
,
0010
0100
1000
0000
0001
0100
0010
0000
1000
0001
0010
0000
0100
1000
0010
0000
,
0100
0001
1000
0000
0100
0010
0001
0000
0100
0010
1000
0000
0001
0010
0100
0000
,
1000
0001
0100
0000
0010
1000
0001
0000
0010
0100
1000
0000
0010
0100
0001
0000
,
0010
0100
1000
0000
0001
0100
0010
0000
1000
0001
0010
0000
0100
1000
0001
0000
,
0100
0010
1000
0000
0100
0010
0001
0000
1000
0010
0100
0000
0001
1000
0100
0000
,
0010
0001
1000
0000
0010
0100
0001
0000
0010
0100
1000
0000
0001
0100
0010
0000
,
1000
0100
0010
0000
0001
0100
0010
0000
1000
0001
0010
0000
0100
1000
0001
0000
,
0100
0010
1000
0000
0001
0010
0100
0000
1000
0001
0100
0000
0010
1000
0100
0000
,
0010
0001
1000
0001
0010
0100
1000
0001
1000
0010
0100
0001
1000
0001
0100
0010
,
1000
0010
0100
0001
1000
0001
0100
0010
1000
0001
0100
0001
0010
0100
0010
0001
,
0100
0010
1000
0000
0100
0010
0001
0000
1000
0010
0100
0000
0001
1000
0100
0000
,
0010
0001
1000
0000
0001
0010
0100
0000
1000
0010
0100
0000
0001
1000
0010
0000
,
0100
0001
1000
0000
0100
1000
0001
0000
0010
0100
1000
0000
0001
0100
0010
0000
,
1000
0001
0010
0000
0100
1000
0001
0000
0100
0010
1000
0000
0001
1000
0100
0000
,
0010
0001
0100
0000
0010
1000
0001
0000
0010
0100
1000
0000
0001
0100
0010
0000
,
1000
0100
0010
0000
0001
1000
0010
0000
0100
0001
1000
0000
0100
0010
0001
0000
,
0100
0010
1000
0000
0001
0010
0100
0000
1000
0001
0100
0000
0010
1000
0001
0000
,
1000
0100
0010
0000
0001
1000
0010
0000
0100
0001
0010
0000
0100
1000
0001
0000
,
0100
0010
1000
0000
0100
0010
0001
0000
1000
0010
0100
0000
0001
1000
0100
0000
,
0010
0001
1000
0000
0001
0100
0010
0000
1000
0100
0010
0000
0001
1000
0010
0000
,
0100
0001
1000
0000
0100
0010
0001
0000
1000
0010
0100
0000
0001
1000
0100
0000
,
0010
0001
1000
0000
0001
0100
0010
0000
1000
0001
0010
0000
0100
1000
0001
0000
,
0100
0010
1000
0000
0001
0010
0100
0000
1000
0001
0100
0000
0010
1000
0100
0000
,
0010
0001
0100
0000
0010
1000
0001
0000
0010
0100
1000
0000
0001
0100
0010
0000
,
1000
0100
0010
0001
1000
0001
0010
0100
1000
0010
0100
0001
1000
0001
0100
0010
,
1000
0010
0100
0001
1000
0001
0100
0010
1000
0001
0100
0001
0010
0100
0010
0001
,
1000
0010
0100
0010
1000
0100
0010
0000
,
0001
1000
0010
0100
0001
1000
0100
0000
,
0010
0100
1000
0000
0010
1000
0001
0100
,
0001
0010
0100
1000
0001
0000
1000
0010
,
1000
0100
0010
0100
1000
0010
0100
0000
,
0001
1000
0100
0010
0001
1000
0010
0000
,
0100
0010
1000
0000
0100
1000
0001
0010
,
0001
0100
0010
1000
0001
0000
1000
0100
,
1000
0010
0100
0010
1000
0100
0010
0000
,
0001
1000
0010
0100
0001
1000
0100
0000
,
0010
0100
1000
0000
0010
1000
0001
0100
,
0001
0010
0100
1000
0001
0000
1000
0010
,
1000
0100
0010
0100
1000
0010
0100
0000
,
0001
1000
0100
0010
0001
1000
0010
0000
,
1000
0001
1000
0010
0100
0001
1000
0001
1000
0100
0010
0001
1000
0001
0010
0100
,
1000
0001
0100
0001
1000
0100
0010
0100
1000
0010
0100
0001
0010
0001
0100
0010
,
1000
0100
1000
0001
0010
0100
0010
0001
1000
0010
1000
0001
0100
0010
0100
0001
,
1000
0100
1000
0001
0010
0100
1000
0001
0100
0010
0100
0001
1000
0010
1000
0001
,
1000
0100
0010
0001
1000
0001
0010
0100
1000
0001
0100
0001
1000
0010
0100
0001
,
1000
0100
1000
0001
0100
0010
1000
0001
1000
0100
0010
0001
1000
0001
0010
0100
,
1000
0010
0100
0001
1000
0001
0100
0010
1000
0100
0010
0001
1000
0001
0010
0100
,
1000
0010
0100
0001
1000
0001
0100
0010
1000
0100
0010
0001
1000
0001
0010
0100
,
1000
0010
0100
0001
1000
0001
0100
0010
1000
0100
0010
0001
1000
0001
0010
0100
,
1000
0100
0010
0001
1000
0001
0010
0100
1000
0001
0010
0001
1000
0010
1000
0001
,
1000
0100
1000
0001
0010
0100
0010
0001
1000
0010
1000
0001
0100
0010
0100
0001
,
1000
0100
1000
0001
0010
0100
1000
0001
0100
0010
0100
0001
1000
0010
1000
0001
,
1000
0100
0010
0001
1000
0001
0010
0100
1000
0001
0100
0001
1000
0010
0100
0001
,
1000
0100
1000
0001
0100
0010
1000
0001
1000
0100
0010
0001
1000
0001
0010
0100
,
1000
0010
0100
0001
1000
0001
0100
0010
1000
0100
0010
0001
1000
0001
0010
0100
,
1000
0010
0100
0001
1000
0001
0100
0010
1000
0100
0010
0001
1000
0001
0010
0100
,
1000
0010
0100
0001
1000
0001
0100
0010
1000
0100
0010
0001
1000
0001
0010
0100
,
1000
0100
0010
0001
1000
0001
0010
0100
1000
0001
0010
0001
0100
0010
0100
0001
,
0010
0100
1000
0001
0100
0010
0100
0001
1000
0100
1000
0001
0010
0100
0010
0001
,
1000
0010
1000
0001
0100
0010
1000
0001
0010
0100
0010
0001
1000
0100
1000
0001
,
1000
0010
0100
0001
1000
0001
0100
0010
1000
0001
0010
0001
1000
0100
0010
0001
,
1000
0010
1000
0001
0010
0100
1000
0001
1000
0010
0100
0001
1000
0001
0100
0010
,
1000
0100
0010
0001
1000
0001
0010
0100
1000
0010
0100
0001
1000
0001
0100
0010
,
1000
0100
0010
0001
1000
0001
0010
0100
1000
0010
0100
0001
1000
0001
0100
0010
,
1000
0100
0010
0001
1000
0001
0010
0100
1000
0010
0100
0001
1000
0001
0100
0010
,
1000
0010
0100
0001
1000
0001
0100
0010
1000
0001
0100
0001
1000
0100
1000
0001
,
1000
0010
1000
0001
0100
0010
0100
0001
1000
0100
1000
0001
0010
0100
0010
0001
,
1000
0010
1000
0001
0100
0010
1000
0001
0010
0100
0010
0001
1000
0100
1000
0001
,
1000
0010
0100
0001
1000
0001
0100
0010
1000
0001
0010
0001
1000
0100
0010
0001
,
1000
0010
1000
0001
0010
0100
1000
0001
1000
0010
0100
0001
1000
0001
0100
0010
,
1000
0100
0010
0001
1000
0001
0010
0100
1000
0010
0100
0001
1000
0001
0100
0010
,
1000
0100
0010
0001
1000
0001
0010
0100
1000
0010
0100
0001
1000
0001
0100
0010
,
1000
0100
0010
0001
1000
0001
0010
0100
1000
0010
0100
0001
1000
0001
0100
0010
,
1000
0010
0100
0001
1000
0001
0100
0010
1000
0100
0010
0100
1000
0010
0100
0001
,
1000
0001
0100
0000
0010
1000
0001
0000
1000
0100
0010
0000
0001
1000
0010
0000
,
0100
0001
1000
0000
0100
0010
0001
0000
0100
0010
1000
0000
0001
0010
0100
0000
,
1000
0010
0100
0000
0001
1000
0100
0000
0010
0001
1000
0000
0010
0100
0001
0000
,
0010
0100
1000
0000
0001
0100
0010
0000
1000
0001
0010
0000
0100
1000
0001
0000
,
0100
0010
1000
0000
0100
0010
0001
0000
1000
0010
0100
0000
0001
0010
0100
0000
,
1000
0010
0100
0000
0001
1000
0100
0000
0010
0001
1000
0000
0010
0100
0001
0000
,
0010
0100
1000
0000
0001
0100
0010
0000
1000
0001
0010
0000
0100
1000
0010
0000
,
0100
0001
1000
0000
0100
0010
0001
0000
0100
0010
1000
0000
0001
0010
0100
0000
,
1000
0001
0100
0000
0010
1000
0001
0000
0010
0100
1000
0000
0010
0100
0001
0000
,
0010
0100
1000
0000
0001
0100
0010
0000
1000
0001
0010
0000
0100
1000
0001
0000
,
0100
0010
1000
0000
0100
0010
0001
0000
1000
0010
0100
0000
0001
1000
0100
0000
,
0010
0001
1000
0000
0010
0100
0001
0000
0010
0100
1000
0000
0001
0100
0010
0000
,
1000
0100
0010
0000
0001
0100
0010
0000
1000
0001
0010
0000
0100
1000
0001
0000
,
0100
0010
1000
0000
0001
0010
0100
0000
1000
0001
0100
0000
0010
1000
0100
0000
,
0010
0001
1000
0001
0010
0100
1000
0001
1000
0010
0100
0001
1000
0001
0100
0010
,
1000
0010
0100
0001
1000
0001
0100
0010
1000
0001
0100
0001
0010
0100
0010
0001
,
0100
0010
1000
0000
0100
0010
0001
0000
1000
0010
0100
0000
0001
1000
0100
0000
,
0010
0001
1000
0000
0001
0010
0100
0000
1000
0010
0100
0000
0001
1000
0010
0000
,
0100
0001
1000
0000
0100
1000
0001
0000
0010
0100
1000
0000
0001
0100
0010
0000
,
1000
0001
0010
0000
0100
1000
0001
0000
0100
0010
1000
0000
0001
1000
0100
0000
,
0010
0001
0100
0000
0010
1000
0001
0000
0010
0100
1000
0000
0001
0100
0010
0000
,
1000
0100
0010
0000
0001
1000
0010
0000
0100
0001
1000
0000
0100
0010
0001
0000
,
0100
0010
1000
0000
0001
0010
0100
0000
1000
0001
0100
0000
0010
1000
0001
0000
,
1000
0100
0010
0000
0001
1000
0010
0000
0100
0001
0010
0000
0100
1000
0001
0000
,
0100
0010
1000
0000
0100
0010
0001
0000
1000
0010
0100
0000
0001
1000
0100
0000
,
0010
0001
1000
0000
0001
0100
0010
0000
1000
0100
0010
0000
0001
1000
0010
0000
,
0100
0001
1000
0000
0100
0010
0001
0000
1000
0010
0100
0000
0001
1000
0100
0000
,
0010
0001
1000
0000
0001
0100
0010
0000
1000
0001
0010
0000
0100
1000
0001
0000
,
0100
0010
1000
0000
0001
0010
0100
0000
1000
0001
0100
0000
0010
1000
0100
0000
,
0010
0001
0100
0000
0010
1000
0001
0000
0010
0100
1000
0000
0001
0100
0010
0000
,
1000
0001
0100
0010
1000
0001
1000
0100
0010
0001
0010
0100
1000
0001
1000
0010
,
0100
0001
0010
0001
0100
0010
1000
0100
1000
0010
0100
0001
0010
0100
1000
0010
,
0100
0001
0010
0001
0100
0010
1000
0000
,
0001
1000
0100
0010
0001
1000
0010
0000
,
0100
0010
1000
0000
0100
1000
0001
0010
,
0001
0100
0010
1000
0001
0000
1000
0100
,
1000
0010
0100
0010
1000
0100
0010
0000
,
0001
1000
0010
0100
0001
1000
0100
0000
,
0010
0100
1000
0000
0010
1000
0001
0100
,
0001
0010
0100
1000
0001
0000
1000
0010
,
1000
0100
0010
0100
1000
0010
0100
0000
,
0001
1000
0100
0010
0001
1000
0010
0000
,
0100
0010
1000
0000
0100
1000
0001
0010
,
0001
0100
0010
1000
0001
0000
1000
0100
,
1000
0010
0100
0010
1000
0100
0010
0000
,
0001
1000
0010
0100
0001
1000
0100
1000
,
0010
0000
1000
0100
0010
0001
0010
0100
,
1000
0010
0100
0010
1000
0001
1000
0001
,
1001
0000
1000
0000
0100
0000
0010
0001
0010
0001
1000
0000
0100
0000
0010
0001
,
1000
0000
1000
0000
0010
0000
0100
0001
0100
0001
1000
0000
0010
0000
0100
0001
,
1000
0000
1000
0000
0100
0000
0010
0001
0010
0001
1000
0000
0100
0000
0010
0001
,
1000
0000
1000
0000
0010
0000
0100
0001
0100
0001
1000
0000
0010
0000
0100
0001
,
0010
0000
0010
0000
0100
0000
1000
0001
1000
0001
0010
0000
0100
0000
1000
0001
,
0100
0000
0100
0000
0010
0000
1000
0001
1000
0001
0100
0000
0010
0000
1000
0001
,
0010
0000
0010
0000
0100
0000
1000
0001
1000
0001
0010
0000
0100
0000
1000
0001
,
0100
0000
0100
0000
0010
0000
1000
0001
1000
0001
0100
0000
0010
0000
0100
0001
,
1000
0000
1000
0000
0010
0000
0100
0001
0100
0001
1000
0000
0010
0000
0100
0001
,
1000
0000
1000
0000
0100
0000
0010
0001
0010
0001
1000
0000
0100
0000
0010
0001
,
1000
0000
1000
0000
0010
0000
0100
0001
0100
0001
1000
0000
0010
0000
0100
0001
,
1000
0000
1000
0000
0100
0000
0010
0001
0010
0001
1000
0000
0100
0000
0010
0001
,
0100
0000
0100
0000
0010
0000
1000
0001
1000
0001
0100
0000
0010
0000
1000
0001
,
0010
0000
0010
0000
0100
0000
1000
0001
1000
0001
0010
0000
0100
0000
1000
0001
,
0100
0010
0100
0001
1000
0010
1000
0001
1000
0100
0010
0001
1000
0001
0010
0100
,
1000
0010
0100
0010
1000
0100
0010
0001
0100
0001
0010
0100
1000
0010
0100
0001
,
2000
3000
0000
0000
0000
0000
0000
0000
0000
0000
0000
0000
0000
0000
0000
0000
,
0001
0000
0100
0010
1000
0000
0001
0000
0010
0100
0010
0000
0011
0000
0001
0000
,
1000
0001
1000
0010
0100
0001
0100
0001
0010
0100
1000
0001
1000
0010
1000
0010
,
0100
0001
1000
0001
0100
0010
0100
0010
1000
0001
0010
0001
1000
0100
1000
0100
,
0010
0001
0010
0100
1000
0001
1000
0001
0100
0001
1000
0010
0100
0001
0100
0001
,
0010
0100
0010
0001
1000
0100
1000
0100
0010
0100
1000
0010
1000
0001
0010
0100
,
1000
0001
1000
0010
0100
0001
0100
0001
0010
0100
1000
0001
1000
0010
1000
0010
,
0100
0001
1000
0001
0100
0010
0100
0010
1000
0001
0010
0001
1000
0100
1000
0100
,
0010
0001
0010
0100
1000
0001
1000
0001
0100
0001
1000
0010
0100
0001
0100
0001
,
0010
0100
0010
0001
1000
0100
1000
0100
0010
0100
1000
0010
1000
0001
0010
0100
,
1000
0001
1000
0010
0100
0001
0100
0001
0010
0100
1000
0001
1000
0010
1000
0010
,
0100
0001
1000
0001
0100
0010
0100
0010
1000
0001
0010
0001
1000
0100
1000
0100
,
0010
0001
0010
0100
1000
0001
1000
0001
0100
0001
1000
0010
0100
0001
0100
0001
,
0010
0100
0010
0001
1000
0100
1000
0100
0010
0100
1000
0010
1000
0001
0010
0100
,
1000
0001
1000
0010
0100
0001
0100
0001
0010
0100
1000
0001
1000
0010
1000
0010
,
0100
0001
1000
0001
0100
0010
0100
0010
1000
0001
0010
0001
1000
0100
1000
0100
,
0010
0001
0010
0100
1000
0001
1000
0001
0100
0010
1000
0010
0100
0001
0100
0001
,
0010
0100
0010
0001
1000
0100
1000
0001
0100
0010
1000
0100
1000
0010
0100
0001
,
1000
0100
0010
0001
1000
0001
0100
0010
1000
0100
0010
0001
1000
0001
0100
0010
,
1000
0100
0010
0001
1000
0010
0100
0010
1000
0001
0100
0001
1000
0010
0100
0001
,
1000
0100
0010
0001
1000
0001
0100
0010
1000
0100
0010
0001
1000
0001
0100
0001
,
0010
0100
0010
0001
0100
0010
1000
0010
0100
0001
1000
0001
0100
0010
1000
0100
,
1000
0010
0100
0001
1000
0001
0010
0100
1000
0010
0100
0001
1000
0001
0010
0100
,
1000
0010
0100
0001
1000
0100
0010
0100
1000
0001
0010
0001
1000
0100
0010
0001
,
1000
0010
0100
0001
1000
0001
0010
0100
1000
0010
0100
0001
1000
0001
0010
0001
,
0100
0010
0100
0001
0010
0100
1000
0100
0010
0001
1000
0001
0010
0100
1000
0001
,
1000
0100
0010
0001
1000
0001
0100
0010
1000
0100
0010
0001
1000
0001
0100
0010
,
1000
0100
0010
0001
1000
0010
0100
0010
1000
0001
0100
0001
1000
0010
0100
0001
,
1000
0100
0010
0001
1000
0001
0100
0010
1000
0100
0010
0001
1000
0001
0100
0001
,
0010
0100
0010
0001
0100
0010
1000
0010
0100
0001
1000
0001
0100
0010
1000
0100
,
1000
0010
0100
0001
1000
0001
0010
0100
1000
0010
0100
0001
1000
0001
0010
0100
,
1000
0010
0100
0001
1000
0100
0010
0100
1000
0001
0010
0001
1000
0100
0010
0001
,
1000
0010
0100
0001
1000
0001
0010
0100
1000
0010
0100
0001
1000
0001
0010
0001
,
0100
0010
0100
0001
0010
0100
1000
0100
0010
0001
0100
0001
0010
0100
1000
0010
,
0100
0000
0001
1000
0000
0001
1000
0000
0100
0000
0010
0001
0000
0010
0001
0000
,
0100
0000
0010
1000
0000
0010
1000
0000
0001
0000
1000
0100
0000
1000
0100
0000
,
0010
0000
0001
1000
0000
0001
1000
0000
0010
0000
0100
0001
0000
0100
0001
0000
,
0010
0000
0100
1000
0000
0100
1000
0000
0010
0000
1000
0010
0000
0010
0100
0000
,
0001
0000
1000
0100
0000
1000
0100
0000
0010
0000
0001
1000
0000
0001
1000
0000
,
0010
0000
0100
0001
0000
0100
0001
0000
1000
0000
0100
0010
0000
0100
0010
0000
,
0001
0000
1000
0001
0000
1000
0001
0000
0100
0000
0010
1000
0000
0010
1000
0000
,
0100
0000
0010
0001
0000
0010
0001
0000
0100
0000
0001
0100
0000
0100
0010
0000
,
1000
0000
0010
1000
0000
0010
1000
0000
0001
0000
1000
0001
0000
1000
0001
0000
,
0100
0000
0010
1000
0000
0010
1000
0000
0001
0000
1000
0100
0000
1000
0100
0000
,
0010
0000
0001
1000
0000
0001
1000
0000
0010
0000
0100
0001
0000
0100
0001
0000
,
0010
0000
0100
1000
0000
0100
1000
0000
0010
0000
1000
0010
0000
0010
0100
0000
,
0001
0000
1000
0100
0000
1000
0100
0000
0010
0000
0001
1000
0000
0001
1000
0000
,
0010
0000
0100
0001
0000
0100
0001
0000
1000
0000
0100
0010
0000
0100
0010
0000
,
0001
0010
0001
1000
0100
1000
0001
1000
0001
0100
0010
1000
0001
1000
0010
0100
,
0001
0010
0100
1000
0010
1000
0100
0010
0001
0100
0010
0100
0001
0010
0100
1000
,
0001
0100
0010
1000
0001
1000
0100
0010
0001
0100
0010
1000
0001
1000
0100
0010
,
0001
0100
0010
1000
0001
0010
0100
0010
0001
1000
0100
1000
0001
0010
0100
1000
,
0001
0100
0010
1000
0001
1000
0100
0010
0001
0100
0010
1000
0001
1000
0100
1000
,
0010
0100
0010
1000
0100
0010
0001
0010
0100
1000
0001
1000
0100
0010
0001
0100
,
0001
0010
0100
1000
0001
1000
0010
0100
0001
0010
0100
1000
0001
1000
0010
0100
,
0001
0010
0100
1000
0001
0100
0010
0100
0001
1000
0010
1000
0001
0100
0010
1000
,
0001
0010
0100
1000
0001
1000
0010
0100
0001
0010
0100
1000
0001
1000
0010
1000
,
0100
0010
0100
1000
0010
0100
0001
0100
0010
1000
0001
1000
0010
0100
0001
1000
,
0001
0100
0010
1000
0001
1000
0100
0010
0001
0100
0010
1000
0001
1000
0100
0010
,
0001
0100
0010
1000
0001
0010
0100
0010
0001
1000
0100
1000
0001
0010
0100
1000
,
0001
0100
0010
1000
0001
1000
0100
0010
0001
0100
0010
1000
0001
1000
0100
1000
,
0010
0100
0010
1000
0100
0010
0001
0010
0100
1000
0001
1000
0100
0010
0001
0100
,
0001
0010
0100
1000
0001
1000
0010
0100
0001
0010
0100
1000
0001
1000
0010
0100
,
0001
0010
0100
1000
0001
0100
0010
0100
0001
1000
0010
1000
0001
0100
0010
1000
,
0001
0010
0100
1000
0001
1000
0010
0100
0001
0010
0100
1000
0001
1000
0010
1000
,
0100
0010
0100
1000
0010
0100
0001
0100
0010
1000
0100
1000
0010
0100
0001
0010
,
0100
0000
0000
0000
0000
0000
0000
0000
0000
0000
0000
0000
1000
0000
0000
0000
0000
0000
0001
0000
0000
0000
0000
0000
0001
0100
0000
0000
0000
0000
0000
0000
0000
0000
0000
0000
0000
0000
0000
0000
0000
0000
0000
0000
0000
0000
0000
0000
,
0100
0010
0000
0000
0000
0000
0000
0000
0000
0000
0000
0000
1000
0000
0000
0000
0000
0000
0001
0000
0000
0000
0000
0000
0001
0010
0000
0000
0000
0000
0000
0000
0000
0000
0000
0000
0000
0000
0000
0000
0000
0000
0001
0000
0000
0000
0000
0000
,
1000
0010
0100
0001
0100
0010
1000
0001
,
0010
0000
0000
0000
0000
0000
0100
0000
0000
0000
0000
0000
0010
0000
0000
0000
0000
0000
0001
0000
0000
0000
0000
0000
0001
1000
0000
0000
0000
0000
0000
0000
0000
0000
0000
0000
0000
0000
0000
0000
0000
0000
0000
0000
0000
0000
0000
0000
;

//---------------dance-single - 14- (TYLR)----------------
#NOTES:
     dance-single:
     14- (TYLR):
     Medium:
     14:
     1.000,1.000,0.013,0.003,1.000,2817.000,4.000,1.000,0.000,0.000:
0000
0000
0000
0000
,
0000
0000
0000
0000
,
0000
0000
0000
0000
,
1001
0000
1000
0000
0010
0000
0100
0001
0100
0001
1000
0000
0010
0000
0100
0001
,
1000
0000
1000
0000
0100
0000
0010
0001
0010
0001
1000
0000
0100
0000
0010
0001
,
1000
0000
1000
0000
0010
0000
0100
0001
0100
0001
1000
0000
0010
0000
0100
0001
,
1000
0000
1000
0000
0100
0000
0010
0001
0010
0001
1000
0000
0100
0000
0010
0001
,
0100
0000
0100
0000
0010
0000
1000
0001
1000
0001
0100
0000
0010
0000
1000
0001
,
0010
0000
0010
0000
0100
0000
1000
0001
1000
0001
0010
0000
0100
0000
1000
0001
,
0100
0000
0100
0000
0010
0000
1000
0001
1000
0001
0100
0000
0010
0000
1000
0001
,
0010
0000
0010
0000
0100
0000
1000
0001
1000
0001
0010
0000
0100
0000
1000
0001
,
0100
0000
0100
0000
0010
0000
1000
0001
1000
0001
0100
0000
0010
0000
1000
0001
,
0010
0100
1000
0000
0010
0100
0001
1000
0010
0100
0001
0000
0010
0100
1000
0000
,
0010
0100
0001
0000
0010
0100
1000
0001
0010
0100
1000
0000
0001
0100
0010
0000
,
1000
0001
0010
0000
0100
1000
0001
0010
0100
1000
0001
0000
0100
0010
1000
0000
,
0100
0010
0001
0000
0100
0010
1000
0001
0100
0010
1000
0000
0001
0010
0100
0000
,
1000
0001
0100
0000
0010
1000
0001
0100
0010
1000
0001
0000
0010
0100
1000
0000
,
0001
0100
0010
0000
1000
0001
0010
0100
1000
0001
0010
0000
0100
1000
0100
0010
,
0001
1000
0001
0100
0010
1000
0010
0100
0001
0010
0100
1000
0001
1000
0100
0010
,
0001
0100
0001
0010
0100
1000
0010
0100
0001
0010
0001
0100
0010
1000
0100
0010
,
0001
1000
0010
0000
0100
0001
1000
0000
0001
0010
0100
0000
1000
0001
0100
0000
,
0010
1000
0001
0000
0010
0100
1000
0000
0010
0100
0001
0000
1000
0100
0010
0000
,
0001
0100
0010
0000
1000
0001
0010
0000
0100
1000
0001
0000
0100
0010
1000
0000
,
0100
0010
0001
0000
1000
0010
0100
0000
0001
1000
0100
0000
0010
0001
1000
0000
,
0010
0100
0001
0000
0010
0100
1000
0000
0001
0100
0010
0000
1000
0100
0010
0000
,
0001
0100
0010
0000
1000
0001
0010
0000
0100
1000
0001
0000
0100
0010
1000
0000
,
0100
0010
0001
0000
1000
0010
0100
0000
0001
1000
0100
0000
0010
0001
0100
0000
,
0010
1000
0001
0000
0010
0100
1000
0000
0010
0100
0001
0000
1000
0100
0010
0000
,
0001
1000
0010
0000
0100
0001
1000
0000
0100
0010
0001
0000
0100
0010
1000
0000
,
0100
0010
0001
0000
1000
0010
0100
0000
0001
1000
0100
0000
0010
0001
1000
0000
,
0010
0100
0001
0000
0010
0100
1000
0000
0001
0100
0010
0000
1000
0001
0010
0000
,
0100
1000
0001
0000
0100
0010
1000
0000
0100
0010
0001
0000
1000
0010
0100
0000
,
0001
0010
0100
0000
1000
0010
0100
0000
0001
1000
0100
0000
0010
0001
1000
0000
,
0010
0100
0001
0000
1000
0100
0010
0000
0001
1000
0010
0000
0100
0001
0010
0000
,
0100
1000
0001
1000
0100
0010
0001
1000
0001
0100
0010
1000
0001
1000
0010
0100
,
0001
0100
0010
1000
0001
1000
0010
0100
0001
1000
0010
1000
0100
0010
0100
1000
,
0010
0100
0001
0000
0010
0100
1000
0000
0001
0100
0010
0000
1000
0001
0010
0000
,
0100
1000
0001
0000
1000
0100
0010
0000
0001
0100
0010
0000
1000
0001
0100
0000
,
0010
1000
0001
0000
0010
0001
1000
0000
0100
0010
0001
0000
1000
0010
0100
0000
,
0001
1000
0100
0000
0010
0001
1000
0000
0010
0100
0001
0000
1000
0001
0010
0000
,
0100
1000
0010
0000
0100
0001
1000
0000
0100
0010
0001
0000
1000
0010
0100
0000
,
0001
0010
0100
0000
1000
0001
0100
0000
0010
1000
0001
0000
0010
0100
1000
0000
,
0010
0100
0001
0000
1000
0100
0010
0000
0001
1000
0010
0000
0100
0001
1000
0000
,
0001
0010
0100
0000
1000
0001
0100
0000
0010
1000
0100
0000
0010
0001
1000
0000
,
0010
0100
0001
0000
0010
0100
1000
0000
0001
0100
0010
0000
1000
0001
0010
0000
,
0100
1000
0001
0000
1000
0010
0100
0000
0001
0010
0100
0000
1000
0001
0100
0000
,
0010
1000
0001
0000
0010
0100
1000
0000
0001
0100
0010
0000
1000
0001
0010
0000
,
0100
1000
0001
0000
1000
0010
0100
0000
0001
1000
0100
0000
0010
0001
1000
0000
,
0010
0100
0001
0000
1000
0100
0010
0000
0001
1000
0010
0000
0100
0001
0010
0000
,
0100
1000
0010
0000
0100
0001
1000
0000
0100
0010
0001
0000
1000
0010
0100
0000
,
0001
0010
0100
1000
0001
1000
0100
0010
0001
0100
0010
1000
0001
1000
0010
0100
,
0001
0100
0010
1000
0001
1000
0010
0100
0001
1000
0010
1000
0100
0010
0100
1000
,
0001
0100
0010
0100
0001
0010
0100
0000
,
1000
0001
0100
0010
1000
0001
0010
0000
,
0100
0010
0001
0000
0100
0001
1000
0010
,
1000
0100
0010
0001
1000
0000
0001
0100
,
0001
0010
0100
0010
0001
0100
0010
0000
,
1000
0001
0010
0100
1000
0001
0100
0000
,
0010
0100
0001
0000
0010
0001
1000
0100
,
1000
0010
0100
0001
1000
0000
0001
0010
,
0001
0100
0010
0100
0001
0010
0100
0000
,
1000
0001
0100
0010
1000
0001
0010
0000
,
0100
0010
0001
0000
0100
0001
1000
0010
,
1000
0100
0010
0001
1000
0000
0001
0100
,
0001
0010
0100
0010
0001
0100
0010
0000
,
1000
0001
0010
0100
1000
0001
0100
0000
,
0001
1000
0001
0100
0010
1000
0001
1000
0001
0010
0100
1000
0001
1000
0100
0010
,
0001
1000
0010
1000
0001
0010
0100
0010
0001
0100
0010
1000
0100
1000
0010
0100
,
0001
0010
0001
1000
0100
0010
0100
1000
0001
0100
0001
1000
0010
0100
0010
1000
,
0001
0010
0001
1000
0100
0010
0001
1000
0010
0100
0010
1000
0001
0100
0001
1000
,
0001
0010
0100
1000
0001
1000
0100
0010
0001
1000
0010
1000
0001
0100
0010
1000
,
0001
0010
0001
1000
0010
0100
0001
1000
0001
0010
0100
1000
0001
1000
0100
0010
,
0001
0100
0010
1000
0001
1000
0010
0100
0001
0010
0100
1000
0001
1000
0100
0010
,
0001
0100
0010
1000
0001
1000
0010
0100
0001
0010
0100
1000
0001
1000
0100
0010
,
0001
0100
0010
1000
0001
1000
0010
0100
0001
0010
0100
1000
0001
1000
0100
0010
,
0001
0010
0100
1000
0001
1000
0100
0010
0001
1000
0100
1000
0001
0100
0001
1000
,
0001
0010
0001
1000
0100
0010
0100
1000
0001
0100
0001
1000
0010
0100
0010
1000
,
0001
0010
0001
1000
0100
0010
0001
1000
0010
0100
0010
1000
0001
0100
0001
1000
,
0001
0010
0100
1000
0001
1000
0100
0010
0001
1000
0010
1000
0001
0100
0010
1000
,
0001
0010
0001
1000
0010
0100
0001
1000
0001
0010
0100
1000
0001
1000
0100
0010
,
0001
0100
0010
1000
0001
1000
0010
0100
0001
0010
0100
1000
0001
1000
0100
0010
,
0001
0100
0010
1000
0001
1000
0010
0100
0001
0010
0100
1000
0001
1000
0100
0010
,
0001
0100
0010
1000
0001
1000
0010
0100
0001
0010
0100
1000
0001
1000
0100
0010
,
0001
0010
0100
1000
0001
1000
0100
0010
0001
1000
0100
1000
0010
0100
0010
1000
,
0100
0010
0001
1000
0010
0100
0010
1000
0001
0010
0001
1000
0100
0010
0100
1000
,
0001
0100
0001
1000
0010
0100
0001
1000
0100
0010
0100
1000
0001
0010
0001
1000
,
0001
0100
0010
1000
0001
1000
0010
0100
0001
1000
0100
1000
0001
0010
0100
1000
,
0001
0100
0001
1000
0100
0010
0001
1000
0001
0100
0010
1000
0001
1000
0010
0100
,
0001
0010
0100
1000
0001
1000
0100
0010
0001
0100
0010
1000
0001
1000
0010
0100
,
0001
0010
0100
1000
0001
1000
0100
0010
0001
0100
0010
1000
0001
1000
0010
0100
,
0001
0010
0100
1000
0001
1000
0100
0010
0001
0100
0010
1000
0001
1000
0010
0100
,
0001
0100
0010
1000
0001
1000
0010
0100
0001
1000
0010
1000
0001
0010
0001
1000
,
0001
0100
0001
1000
0010
0100
0010
1000
0001
0010
0001
1000
0100
0010
0100
1000
,
0001
0100
0001
1000
0010
0100
0001
1000
0100
0010
0100
1000
0001
0010
0001
1000
,
0001
0100
0010
1000
0001
1000
0010
0100
0001
1000
0100
1000
0001
0010
0100
1000
,
0001
0100
0001
1000
0100
0010
0001
1000
0001
0100
0010
1000
0001
1000
0010
0100
,
0001
0010
0100
1000
0001
1000
0100
0010
0001
0100
0010
1000
0001
1000
0010
0100
,
0001
0010
0100
1000
0001
1000
0100
0010
0001
0100
0010
1000
0001
1000
0010
0100
,
0001
0010
0100
1000
0001
1000
0100
0010
0001
0100
0010
1000
0001
1000
0010
0100
,
0001
0100
0010
1000
0001
1000
0010
0100
0001
0010
0100
0010
0001
0100
0010
1000
,
0001
1000
0010
0000
0100
0001
1000
0000
0001
0010
0100
0000
1000
0001
0100
0000
,
0010
1000
0001
0000
0010
0100
1000
0000
0010
0100
0001
0000
1000
0100
0010
0000
,
0001
0100
0010
0000
1000
0001
0010
0000
0100
1000
0001
0000
0100
0010
1000
0000
,
0100
0010
0001
0000
1000
0010
0100
0000
0001
1000
0100
0000
0010
0001
1000
0000
,
0010
0100
0001
0000
0010
0100
1000
0000
0001
0100
0010
0000
1000
0100
0010
0000
,
0001
0100
0010
0000
1000
0001
0010
0000
0100
1000
0001
0000
0100
0010
1000
0000
,
0100
0010
0001
0000
1000
0010
0100
0000
0001
1000
0100
0000
0010
0001
0100
0000
,
0010
1000
0001
0000
0010
0100
1000
0000
0010
0100
0001
0000
1000
0100
0010
0000
,
0001
1000
0010
0000
0100
0001
1000
0000
0100
0010
0001
0000
0100
0010
1000
0000
,
0100
0010
0001
0000
1000
0010
0100
0000
0001
1000
0100
0000
0010
0001
1000
0000
,
0010
0100
0001
0000
0010
0100
1000
0000
0001
0100
0010
0000
1000
0001
0010
0000
,
0100
1000
0001
0000
0100
0010
1000
0000
0100
0010
0001
0000
1000
0010
0100
0000
,
0001
0010
0100
0000
1000
0010
0100
0000
0001
1000
0100
0000
0010
0001
1000
0000
,
0010
0100
0001
0000
1000
0100
0010
0000
0001
1000
0010
0000
0100
0001
0010
0000
,
0100
1000
0001
1000
0100
0010
0001
1000
0001
0100
0010
1000
0001
1000
0010
0100
,
0001
0100
0010
1000
0001
1000
0010
0100
0001
1000
0010
1000
0100
0010
0100
1000
,
0010
0100
0001
0000
0010
0100
1000
0000
0001
0100
0010
0000
1000
0001
0010
0000
,
0100
1000
0001
0000
1000
0100
0010
0000
0001
0100
0010
0000
1000
0001
0100
0000
,
0010
1000
0001
0000
0010
0001
1000
0000
0100
0010
0001
0000
1000
0010
0100
0000
,
0001
1000
0100
0000
0010
0001
1000
0000
0010
0100
0001
0000
1000
0001
0010
0000
,
0100
1000
0010
0000
0100
0001
1000
0000
0100
0010
0001
0000
1000
0010
0100
0000
,
0001
0010
0100
0000
1000
0001
0100
0000
0010
1000
0001
0000
0010
0100
1000
0000
,
0010
0100
0001
0000
1000
0100
0010
0000
0001
1000
0010
0000
0100
0001
1000
0000
,
0001
0010
0100
0000
1000
0001
0100
0000
0010
1000
0100
0000
0010
0001
1000
0000
,
0010
0100
0001
0000
0010
0100
1000
0000
0001
0100
0010
0000
1000
0001
0010
0000
,
0100
1000
0001
0000
1000
0010
0100
0000
0001
0010
0100
0000
1000
0001
0100
0000
,
0010
1000
0001
0000
0010
0100
1000
0000
0001
0100
0010
0000
1000
0001
0010
0000
,
0100
1000
0001
0000
1000
0010
0100
0000
0001
1000
0100
0000
0010
0001
1000
0000
,
0010
0100
0001
0000
1000
0100
0010
0000
0001
1000
0010
0000
0100
0001
0010
0000
,
0100
1000
0010
0000
0100
0001
1000
0000
0100
0010
0001
0000
1000
0010
0100
0000
,
0001
1000
0010
0100
0001
1000
0001
0010
0100
1000
0100
0010
0001
1000
0001
0100
,
0010
1000
0100
1000
0010
0100
0001
0010
0001
0100
0010
1000
0100
0010
0001
0100
,
0010
1000
0100
1000
0010
0100
0001
0000
,
1000
0001
0010
0100
1000
0001
0100
0000
,
0010
0100
0001
0000
0010
0001
1000
0100
,
1000
0010
0100
0001
1000
0000
0001
0010
,
0001
0100
0010
0100
0001
0010
0100
0000
,
1000
0001
0100
0010
1000
0001
0010
0000
,
0100
0010
0001
0000
0100
0001
1000
0010
,
1000
0100
0010
0001
1000
0000
0001
0100
,
0001
0010
0100
0010
0001
0100
0010
0000
,
1000
0001
0010
0100
1000
0001
0100
0000
,
0010
0100
0001
0000
0010
0001
1000
0100
,
1000
0010
0100
0001
1000
0000
0001
0010
,
0001
0100
0010
0100
0001
0010
0100
0000
,
1000
0001
0100
0010
1000
0001
0010
0001
,
0100
0000
0001
0010
0100
1000
0100
0010
,
0001
0100
0010
0100
0001
1000
0001
1000
,
1001
0000
0001
0000
0010
0000
0100
1000
0100
1000
0001
0000
0010
0000
0100
1000
,
0001
0000
0001
0000
0100
0000
0010
1000
0010
1000
0001
0000
0100
0000
0010
1000
,
0001
0000
0001
0000
0010
0000
0100
1000
0100
1000
0001
0000
0010
0000
0100
1000
,
0001
0000
0001
0000
0100
0000
0010
1000
0010
1000
0001
0000
0100
0000
0010
1000
,
0100
0000
0100
0000
0010
0000
0001
1000
0001
1000
0100
0000
0010
0000
0001
1000
,
0010
0000
0010
0000
0100
0000
0001
1000
0001
1000
0010
0000
0100
0000
0001
1000
,
0100
0000
0100
0000
0010
0000
0001
1000
0001
1000
0100
0000
0010
0000
0001
1000
,
0010
0000
0010
0000
0100
0000
0001
1000
0001
1000
0010
0000
0100
0000
0010
1000
,
0001
0000
0001
0000
0100
0000
0010
1000
0010
1000
0001
0000
0100
0000
0010
1000
,
0001
0000
0001
0000
0010
0000
0100
1000
0100
1000
0001
0000
0010
0000
0100
1000
,
0001
0000
0001
0000
0100
0000
0010
1000
0010
1000
0001
0000
0100
0000
0010
1000
,
0001
0000
0001
0000
0010
0000
0100
1000
0100
1000
0001
0000
0010
0000
0100
1000
,
0010
0000
0010
0000
0100
0000
0001
1000
0001
1000
0010
0000
0100
0000
0001
1000
,
0100
0000
0100
0000
0010
0000
0001
1000
0001
1000
0100
0000
0010
0000
0001
1000
,
0010
0100
0010
1000
0001
0100
0001
1000
0001
0010
0100
1000
0001
1000
0100
0010
,
0001
0100
0010
0100
0001
0010
0100
1000
0010
1000
0100
0010
0001
0100
0010
1000
,
0002
0003
0000
0000
0000
0000
0000
0000
0000
0000
0000
0000
0000
0000
0000
0000
,
1000
0000
0010
0100
0001
0000
1000
0000
0100
0010
0100
0000
1100
0000
1000
0000
,
1001
0000
0001
0100
0010
0100
0001
0000
1000
0000
0001
1000
0100
1000
0001
0000
,
0010
0000
0100
0010
0001
0010
0100
0000
1000
0000
0001
1000
0010
1000
0001
0000
,
0010
0000
0100
1000
0001
1000
0100
0000
0010
0000
0001
1000
0100
1000
0001
0000
,
0100
0000
0010
1000
0001
1000
0010
0000
0100
0000
0001
0100
0010
1000
0001
0000
,
0010
0000
0001
0010
0100
0010
0001
0000
1000
0000
0001
1000
0010
1000
0001
0000
,
0100
0000
0010
0100
0001
0100
0010
0000
1000
0000
0001
1000
0100
1000
0001
0000
,
0100
0000
0010
1000
0001
1000
0010
0000
0100
0000
0001
1000
0010
1000
0001
0000
,
0010
0000
0100
1000
0001
1000
0100
0000
0010
0000
0001
0010
0100
1000
0001
0000
,
1000
0000
0001
0100
0010
0100
0001
0000
1000
0000
0001
1000
0100
1000
0001
0000
,
0010
0000
0100
0010
0001
0010
0100
0000
1000
0000
0001
1000
0010
1000
0001
0000
,
0010
0000
0100
1000
0001
1000
0100
0000
0010
0000
0001
1000
0100
1000
0001
0000
,
0100
0000
0010
1000
0001
1000
0010
0000
0100
0000
0001
0100
0010
1000
0001
0000
,
0010
0000
0001
0010
0100
0010
0001
0000
1000
0000
0001
1000
0010
1000
0001
0000
,
0100
0000
0010
0100
0001
0100
0010
0000
1000
0000
0001
1000
0100
1000
0001
0000
,
0100
0001
1000
0001
1000
0100
0010
0100
1000
0001
0100
0010
1000
0001
1000
0100
,
0010
0001
1000
0001
0010
0100
1000
0010
0100
0001
0010
0001
0100
0010
1000
0001
,
0010
0000
0001
1000
0010
1000
0001
0000
0010
0000
0001
1000
0010
1000
0001
0000
,
0010
0000
0100
1000
0001
1000
0100
0000
0010
0000
0001
1000
0100
1000
0001
0000
,
0100
0000
0010
1000
0001
1000
0010
0000
0100
0000
0001
1000
0010
1000
0001
0000
,
0010
0000
0100
1000
0001
1000
0100
0000
0010
0000
0001
1000
0100
1000
0001
0000
,
0100
0000
0001
1000
0100
1000
0001
0000
0100
0000
0001
1000
0100
1000
0001
0000
,
0100
0000
0010
1000
0001
1000
0010
0000
0100
0000
0001
1000
0010
1000
0001
0000
,
0010
0000
0100
1000
0001
1000
0100
0000
0010
0000
0001
1000
0100
1000
0001
0000
,
0100
0000
0010
1000
0001
1000
0010
0000
0100
0000
0001
1000
0010
1000
0001
0000
,
1000
0000
0001
0100
0010
0100
0001
0000
1000
0000
0001
1000
0100
1000
0001
0000
,
0010
0000
0100
0010
0001
0010
0100
0000
1000
0000
0001
1000
0010
1000
0001
0000
,
0010
0000
0100
1000
0001
1000
0100
0000
0010
0000
0001
1000
0100
1000
0001
0000
,
0100
0000
0010
1000
0001
1000
0010
0000
0100
0000
0001
0100
0010
1000
0001
0000
,
0010
0000
0001
0010
0100
0010
0001
0000
1000
0000
0001
1000
0010
1000
0001
0000
,
0100
0000
0010
0100
0001
0100
0010
0000
1000
0000
0001
1000
0100
1000
0001
0000
,
0100
0001
1000
0001
1000
0100
0010
0100
1000
0001
0100
0010
1000
0001
1000
0100
,
0010
0001
1000
0001
0010
0100
1000
0010
0100
0001
0010
0001
0100
0010
1000
0001
,
0010
0000
0001
1000
0000
0001
1000
0000
0100
0000
0010
0001
0000
0010
0001
0000
,
0100
0000
0010
1000
0000
0010
1000
0000
0001
0000
1000
0100
0000
1000
0100
0000
,
0010
0000
0001
1000
0000
0001
1000
0000
0010
0000
0100
0001
0000
0100
0001
0000
,
0010
0000
0100
1000
0000
0100
1000
0000
0010
0000
1000
0010
0000
0010
0100
0000
,
0001
0000
1000
0100
0000
1000
0100
0000
0010
0000
0001
1000
0000
0001
1000
0000
,
0010
0000
0100
0001
0000
0100
0001
0000
1000
0000
0100
0010
0000
0100
0010
0000
,
0001
0000
1000
0001
0000
1000
0001
0000
0100
0000
0010
1000
0000
0010
1000
0000
,
0100
0000
0010
0001
0000
0010
0001
0000
0100
0000
0001
0100
0000
0100
0010
0000
,
1000
0000
0010
1000
0000
0010
1000
0000
0001
0000
1000
0001
0000
1000
0001
0000
,
0100
0000
0010
1000
0000
0010
1000
0000
0001
0000
1000
0100
0000
1000
0100
0000
,
0010
0000
0001
1000
0000
0001
1000
0000
0010
0000
0100
0001
0000
0100
0001
0000
,
0010
0000
0100
1000
0000
0100
1000
0000
0010
0000
1000
0010
0000
0010
0100
0000
,
0001
0000
1000
0100
0000
1000
0100
0000
0010
0000
0001
1000
0000
0001
1000
0000
,
0010
0000
0100
0001
0000
0100
0001
0000
1000
0000
0100
0010
0000
0100
0010
0000
,
0001
0010
0001
1000
0100
1000
0001
1000
0001
0100
0010
1000
0001
1000
0010
0100
,
0001
0010
0100
1000
0010
1000
0100
0010
0001
0100
0010
0100
0001
0010
0100
1000
,
0001
0100
0010
1000
0001
1000
0100
0010
0001
0100
0010
1000
0001
1000
0100
0010
,
0001
0100
0010
1000
0001
0010
0100
0010
0001
1000
0100
1000
0001
0010
0100
1000
,
0001
0100
0010
1000
0001
1000
0100
0010
0001
0100
0010
1000
0001
1000
0100
1000
,
0010
0100
0010
1000
0100
0010
0001
0010
0100
1000
0001
1000
0100
0010
0001
0100
,
0001
0010
0100
1000
0001
1000
0010
0100
0001
0010
0100
1000
0001
1000
0010
0100
,
0001
0010
0100
1000
0001
0100
0010
0100
0001
1000
0010
1000
0001
0100
0010
1000
,
0001
0010
0100
1000
0001
1000
0010
0100
0001
0010
0100
1000
0001
1000
0010
1000
,
0100
0010
0100
1000
0010
0100
0001
0100
0010
1000
0001
1000
0010
0100
0001
1000
,
0001
0100
0010
1000
0001
1000
0100
0010
0001
0100
0010
1000
0001
1000
0100
0010
,
0001
0100
0010
1000
0001
0010
0100
0010
0001
1000
0100
1000
0001
0010
0100
1000
,
0001
0100
0010
1000
0001
1000
0100
0010
0001
0100
0010
1000
0001
1000
0100
1000
,
0010
0100
0010
1000
0100
0010
0001
0010
0100
1000
0001
1000
0100
0010
0001
0100
,
0001
0010
0100
1000
0001
1000
0010
0100
0001
0010
0100
1000
0001
1000
0010
0100
,
0001
0010
0100
1000
0001
0100
0010
0100
0001
1000
0010
1000
0001
0100
0010
1000
,
0001
0010
0100
1000
0001
1000
0010
0100
0001
0010
0100
1000
0001
1000
0010
1000
,
0100
0010
0100
1000
0010
0100
0001
0100
0010
1000
0100
1000
0010
0100
0001
0010
,
0100
0000
0000
0000
0000
0000
0000
0000
0000
0000
0000
0000
1000
0000
0000
0000
0000
0000
0010
0000
0000
0000
0000
0000
1000
0010
0000
0000
0000
0000
0000
0000
0000
0000
0000
0000
0000
0000
0000
0000
0000
0000
0000
0000
0000
0000
0000
0000
,
0010
0100
0000
0000
0000
0000
0000
0000
0000
0000
0000
0000
0001
0000
0000
0000
0000
0000
1000
0000
0000
0000
0000
0000
1000
0100
0000
0000
0000
0000
0000
0000
0000
0000
0000
0000
0000
0000
0000
0000
0000
0000
1000
0000
0000
0000
0000
0000
,
0001
0100
0010
0100
0001
1000
0100
0010
,
0001
0000
0000
0000
0000
0000
0100
0000
0000
0000
0000
0000
0010
0000
0000
0000
0000
0000
1000
0000
0000
0000
0000
0000
0001
1000
0000
0000
0000
0000
0000
0000
0000
0000
0000
0000
0000
0000
0000
0000
0000
0000
0000
0000
0000
0000
0000
0000
;
