#TITLE:Monkey KB's Fingers;
#SUBTITLE:;
#ARTIST:Banya;
#TITLETRANSLIT:;
#SUBTITLETRANSLIT:;
#ARTISTTRANSLIT:;
#CREDIT:;
#BANNER:MKBF - ban.png;
#BACKGROUND:Mkb'sfinger-BG.png;
#LYRICSPATH:;
#CDTITLE:KOMBO.png;
#MUSIC:Monkey fingers.mp3;
#OFFSET:0.880;
#SAMPLESTART:26.211;
#SAMPLELENGTH:16.100;
#SELECTABLE:YES;
#BPMS:0.000=186.002;
#STOPS:;
#BGCHANGES:;
// cache tags:
#FIRSTBEAT:12.000;
#LASTBEAT:307.042;
#SONGFILENAME:Songs/Definitive Keyboard Megapack/Monkey KB's Fingers [KOMBO]/Monkey Fingers.sm;
#HASMUSIC:1;
#HASBANNER:1;
#MUSICLENGTH:102.687;
// end cache tags

//---------------dance-single - Kombo Hard Steps----------------
#NOTES:
     dance-single:
     Kombo Hard Steps:
     Hard:
     15:
     1.000,1.000,1.000,1.000,1.000,781.000,307.000,110.000,0.000,91.000:

0000
0000
0000
0000
,
0000
0000
0000
0000
,
0000
0000
0000
0000
,
1000
0100
0001
0100
1000
0100
0001
0100
,
1011
0000
0000
0000
1000
0001
0100
0010
1001
0000
0000
0000
0000
1000
0001
0100
0010
1001
0000
0000
0000
0000
0000
0000
,
1110
0000
1010
0100
1001
0000
0101
0000
1001
0000
0101
0000
0101
0000
0000
0000
,
0011
0000
0101
0010
1001
0000
1010
0000
1001
0000
1010
0000
0011
0000
0000
0000
,
1011
0000
0011
1000
0110
0000
1100
0000
0110
0000
1100
0000
1100
0000
0000
0000
,
0101
0000
1100
0001
0110
0000
0011
0000
0110
0000
0011
0000
0101
0000
0000
0000
,
0111
0000
0101
0010
1001
0000
1010
0000
1001
0000
1010
0000
1010
0000
0000
0000
,
1100
0000
1010
0100
1001
0000
0101
0000
1001
0000
0101
0000
1100
0000
0000
0000
,
0111
0000
0110
0001
1010
0000
1001
0000
1010
0000
1001
0000
1001
0000
0000
0000
,
1100
0000
1001
0100
1010
0000
0110
0000
1010
0000
0110
0000
1100
0000
0100
0000
,
1011
0100
0010
0100
1010
0001
0010
0100
0011
0100
1000
0001
1010
0100
0010
0100
,
0011
1000
0010
0001
0110
1000
0010
0001
1100
0001
0100
1000
0101
0000
0000
0000
,
0110
0001
1000
0001
1100
0010
1000
0001
1010
0001
0100
0010
1100
0001
1000
0001
,
1010
0100
1000
0010
1001
0100
1000
0010
0101
0010
0001
0100
0011
0000
0000
0000
,
0101
1000
0001
1000
0011
0100
0001
1000
0101
1000
0010
0100
0011
1000
0001
1000
,
0101
0010
0001
0100
1001
0010
0001
0100
1010
0100
1000
0010
1100
0000
0000
0000
,
1100
0010
0100
0010
0101
1000
0100
0010
1100
0010
0001
1000
0101
0010
0100
0010
,
1100
0001
0100
1000
0110
0001
0100
1000
0011
1000
0010
0001
1010
0000
0000
0000
,
0111
0000
0000
0000
0000
0000
0010
0000
0000
0000
0000
0000
1110
0000
0000
0000
0000
0000
0100
0000
0000
0000
0000
0000
0121
0030
0000
0000
0000
0000
0020
0030
0000
0000
0000
0000
2110
3000
0000
0000
0000
0000
2000
3000
0000
0000
0000
0000
,
1201
0300
0000
0000
0000
0000
0200
0300
0000
0000
0000
0000
0121
0030
0000
0000
0000
0000
0020
0030
0000
0000
0000
0000
1021
0030
0000
0100
0000
0000
1010
0000
0000
0100
0000
0000
0011
0000
0000
0100
0000
0000
1010
0000
0000
0100
0000
0000
,
1011
0000
0000
0000
0000
0000
1000
0000
0000
0000
0000
0000
1101
0000
0000
0000
0000
0000
0001
0000
0000
0000
0000
0000
2011
3000
0000
0000
0000
0000
2000
3000
0000
0000
0000
0000
1201
0300
0000
0000
0000
0000
0200
0300
0000
0000
0000
0000
,
0112
0003
0000
0000
0000
0000
0002
0003
0000
0000
0000
0000
2011
3000
0000
0000
0000
0000
2000
3000
0000
0000
0000
0000
1120
0030
0000
0001
0000
0000
1100
0000
0000
0001
0000
0000
1010
0000
0000
0001
0000
0000
1100
0000
0000
0001
0000
0000
,
1110
0000
0000
0000
0000
0000
0001
0000
0000
0000
0000
0000
1011
0000
0000
0000
0000
0000
1000
0000
0000
0000
0000
0000
1102
0003
0000
0000
0000
0000
0002
0003
0000
0000
0000
0000
1021
0030
0000
0000
0000
0000
0020
0030
0000
0000
0000
0000
,
2110
3000
0000
0000
0000
0000
2000
3000
0000
0000
0000
0000
1102
0003
0000
0000
0000
0000
0002
0003
0000
0000
0000
0000
0211
0300
0000
1000
0000
0000
0011
0000
0000
1000
0000
0000
0101
0000
0000
1000
0000
0000
0011
0000
0000
0100
0000
0000
,
1011
0000
0000
0000
0000
0000
0100
0000
0000
0000
0000
0000
0111
0000
0000
0000
0000
0000
0010
0000
0000
0000
0000
0000
1210
0300
0000
0000
0000
0000
0200
0300
0000
0000
0000
0000
0112
0003
0000
0000
0000
0000
0002
0003
0000
0000
0000
0000
,
1021
0030
0000
0000
0000
0000
0020
0030
0000
0000
0000
0000
1210
0300
0000
0000
0000
0000
0200
0300
0000
0000
0000
0000
2101
3000
0000
0010
0000
0000
0101
0000
0000
0010
0000
0000
1100
0000
0000
0010
0000
0000
0101
0000
0000
0010
0000
0000
,
1101
0000
0000
0000
0000
0000
0100
0000
0000
0000
0000
0000
0111
0000
0000
0000
0000
0000
0001
0000
0000
0000
0000
0000
1201
0300
0000
0000
0000
0000
0200
0300
0000
0000
0000
0000
0121
0030
0000
0000
0000
0000
0020
0030
0000
0000
0000
0000
,
1012
0003
0000
0000
0000
0000
0002
0003
0000
0000
0000
0000
1201
0300
0000
0000
0000
0000
0200
0300
0000
0000
0000
0000
1120
0030
0000
0001
0000
0000
0110
0000
0000
0001
0000
0000
1100
0000
0000
0001
0000
0000
0110
0000
0000
0001
0000
0000
,
1110
0000
0000
0000
0000
0000
0000
0100
,
0010
0100
0010
0100
0020
0000
0000
0000
,
0030
0000
0000
0002
0003
0000
2000
3000
0000
0002
0003
0000
,
2000
0000
0000
0000
3101
0010
0001
0100
1010
0000
0000
0000
0001
0000
0000
0000
0200
0000
0000
0000
0000
0000
0000
0000
0000
0000
0000
0000
0000
0000
0000
0000
,
0301
0000
0000
0000
1000
0000
0000
0000
0001
0000
1000
0100
0010
0000
0000
0000
0001
0000
0000
0000
1000
0000
0000
0000
0100
0000
0001
0010
0100
0000
0000
0000
,
0010
0001
0100
1000
0020
0000
0030
0000
,
1000
0000
0000
0000
0000
0000
0000
0000
0100
0000
0000
0001
0010
0000
0000
0000
0001
0000
0000
0000
0000
0000
0000
0000
0100
0000
0000
0000
0000
0000
0000
0000
,
1000
0000
0000
0000
0110
1000
0001
0100
1010
0000
0000
0000
0001
0000
0000
0000
0020
0000
0000
0000
0000
0000
0000
0000
0000
0000
0000
0000
0000
0000
0000
0000
,
1030
0000
0000
0010
0000
0000
0010
0000
0000
0000
0001
0000
0100
0000
0000
0010
0000
0000
1000
0000
0000
0100
0000
0000
,
0010
0000
0000
0100
1000
0000
0000
0000
0010
0000
0000
0000
0100
0000
0000
0000
0020
0000
0000
0000
0000
0000
0000
0000
0000
0000
0000
0000
0030
0000
0000
0000
,
1100
0110
0011
0110
1100
0000
1110
0000
,
0011
0110
1100
0110
0011
0000
0111
0000
,
1010
1001
0101
1001
1010
0000
1011
0000
,
1100
0000
0000
0000
0000
0000
1001
0000
0000
0000
0000
0000
0011
0000
0000
0000
0000
0000
1002
0003
0000
0000
0000
0000
1200
0300
0000
0000
0000
0000
1021
0030
0000
0000
0000
0000
2101
3000
0000
0000
0000
0000
1210
0300
0000
0000
0000
0000
,
1101
0010
0001
1000
0011
0100
0001
1000
0101
1000
0010
0100
0011
1000
0001
1000
,
0101
0010
0001
0100
1001
0010
0001
0100
1010
0100
1000
0010
1100
0000
0000
0000
,
1001
0100
0010
0100
1010
0001
0010
0100
0011
0100
1000
0001
1010
0100
0010
0100
,
0011
1000
0010
0001
0110
1000
0010
0001
1100
0001
0100
1000
0101
0000
0000
0000
,
1100
0010
0100
0010
0101
1000
0100
0010
1100
0010
0001
1000
0101
0010
0100
0010
,
1100
0001
0100
1000
0110
0001
0100
1000
0011
1000
0010
0001
1010
0000
0000
0000
,
1010
0001
1000
0001
1100
0010
1000
0001
1010
0001
0100
0010
1100
0001
1000
0001
,
1010
0100
1000
0010
1001
0100
1000
0010
0101
0010
0001
0100
0011
0000
0000
0000
,
1011
0000
0000
0000
0000
0000
1000
0000
0000
0000
0000
0000
1101
0000
0000
0000
0000
0000
0001
0000
0000
0000
0000
0000
2011
3000
0000
0000
0000
0000
2000
3000
0000
0000
0000
0000
1210
0300
0000
0000
0000
0000
0200
0300
0000
0000
0000
0000
,
0112
0003
0000
0000
0000
0000
0002
0003
0000
0000
0000
0000
2011
3000
0000
0000
0000
0000
2000
3000
0000
0000
0000
0000
2110
3000
0000
0001
0000
0000
1100
0000
0000
0001
0000
0000
1010
0000
0000
0001
0000
0000
1100
0000
0000
0001
0000
0000
,
1110
0000
0000
0000
0000
0000
0100
0000
0000
0000
0000
0000
0111
0000
0000
0000
0000
0000
0010
0000
0000
0000
0000
0000
1210
0300
0000
0000
0000
0000
0200
0300
0000
0000
0000
0000
0112
0003
0000
0000
0000
0000
0002
0003
0000
0000
0000
0000
,
1021
0030
0000
0000
0000
0000
0020
0030
0000
0000
0000
0000
1210
0300
0000
0000
0000
0000
0200
0300
0000
0000
0000
0000
2101
3000
0000
0010
0000
0000
0101
0000
0000
0010
0000
0000
1100
0000
0000
0010
0000
0000
0101
0000
0000
0010
0000
0000
,
1101
0000
0000
0000
0000
0000
0010
0000
0000
0000
0000
0000
1110
0000
0000
0000
0000
0000
0100
0000
0000
0000
0000
0000
0121
0030
0000
0000
0000
0000
0020
0030
0000
0000
0000
0000
2110
3000
0000
0000
0000
0000
2000
3000
0000
0000
0000
0000
,
1201
0300
0000
0000
0000
0000
0200
0300
0000
0000
0000
0000
0121
0030
0000
0000
0000
0000
0020
0030
0000
0000
0000
0000
1012
0003
0000
0100
0000
0000
1010
0000
0000
0100
0000
0000
0011
0000
0000
0100
0000
0000
1010
0000
0000
0001
0000
0000
,
1110
0000
0000
0000
0000
0000
0001
0000
0000
0000
0000
0000
1011
0000
0000
0000
0000
0000
1000
0000
0000
0000
0000
0000
1102
0003
0000
0000
0000
0000
0002
0003
0000
0000
0000
0000
1021
0030
0000
0000
0000
0000
0020
0030
0000
0000
0000
0000
,
2110
3000
0000
0000
0000
0000
2000
3000
0000
0000
0000
0000
1102
0003
0000
0000
0000
0000
0002
0003
0000
0000
0000
0000
0211
0300
0000
1000
0000
0000
0011
0000
0000
1000
0000
0000
0101
0000
0000
1000
0000
0000
0011
0000
0000
1000
0000
0000
,
0111
0000
0000
0000
0000
0000
0001
0000
0000
0000
0000
0000
1011
0000
0000
0000
0000
0000
0010
0000
0000
0000
0000
0000
0112
0003
0000
0000
0000
0000
0002
0003
0000
0000
0000
0000
2011
3000
0000
0000
0000
0000
2000
3000
0000
0000
0000
0000
,
1120
0030
0000
0000
0000
0000
0020
0030
0000
0000
0000
0000
0112
0003
0000
0000
0000
0000
0002
0003
0000
0000
0000
0000
2101
3000
0000
0010
0000
0000
1001
0000
0000
0010
0000
0000
0101
0000
0000
0010
0000
0000
1001
0000
0000
0010
0000
0000
,
1101
0000
0000
0000
0000
0000
0000
0100
,
0010
0100
0010
0100
0000
0000
0000
0000
,
0111
1000
0100
0001
0110
0001
1000
0100
1001
0010
1000
0001
0110
1000
0100
0010
,
1100
0001
0010
0100
1010
0001
0100
0001
1010
0001
1000
0100
0011
0000
0000
0000
,
0101
1000
0001
0100
0011
1000
0100
0010
0101
0010
1000
0100
0011
0100
0010
0000
,
1001
0100
1001
0100
1001
0100
1001
0100
1001
0100
1001
0000
1001
0000
0000
0000
,
1011
0100
0001
0010
1001
0010
0100
0001
0110
1000
0100
0010
1001
0100
0001
1000
,
0101
0010
1000
0001
1100
0010
0001
0010
1100
0010
0100
0001
1010
0000
0000
0000
,
0110
1000
0100
0001
0110
0001
1000
0100
1001
0010
1000
0001
0110
1000
0100
0010
,
1100
0001
0010
0100
1010
0001
0100
0001
1010
0001
1000
0100
0011
0000
0000
0000
,
0111
1000
0001
0100
0011
1000
0100
0010
0101
0010
1000
0100
0011
0100
0010
0100
,
0011
1000
0100
0001
0110
0001
1000
0100
1001
0010
1000
0001
0110
0000
0000
0000
,
1100
0001
0010
0100
1010
0001
0100
0001
1010
0001
1000
0100
0011
1000
0001
0100
,
0011
0000
0000
0000
0000
0000
0000
0000
0000
0000
0000
0000
1000
0000
0000
0000
0000
0000
0000
0000
0000
0000
0000
0000
0001
0000
0000
0000
0000
0000
0000
0000
0000
0000
0000
0000
0100
0000
0000
0000
0000
0000
0000
0000
0000
0000
0000
0000
0011
0000
0000
0000
0000
0000
0000
0000
0000
0000
0000
0000
1000
0000
0000
0000
0000
0000
0000
0000
0000
0000
0000
0000
0100
0000
0000
0000
0000
0000
0000
0000
0000
0000
0000
0000
0010
0000
0000
0000
0000
0000
0000
0000
0000
0000
0000
0000
2201
0000
3300
0000
0000
0000
0000
0000
0000
0000
0000
0000
0000
0000
0000
0000
0000
0000
0000
0000
0000
0000
0000
0000
0220
0000
0330
0000
0000
0000
0000
0000
0000
0000
0000
0000
0000
0000
0000
0000
0000
0000
0000
0000
0000
0000
0000
0000
1022
0000
0033
0000
0000
0000
0000
0000
0000
0000
0000
0000
0000
0000
0000
0000
0000
0000
0000
0000
0000
0000
0000
0000
0000
0000
0000
0000
0000
0000
0000
0000
0000
0000
0000
0000
0000
0000
0000
0000
0000
0000
0000
0000
0000
0000
0000
0000
;
