#TITLE:Thought of the Holy - SV;
#SUBTITLE:Warsong/Langrisser;
#ARTIST:岩垂徳行;
#TITLETRANSLIT:Thought of the Holy;
#SUBTITLETRANSLIT:Warsong/Langrisser;
#ARTISTTRANSLIT:Noriyuki Iwadare;
#CREDIT:Chris Halvorson;
#BANNER:TotH Lang.jpg;
#BACKGROUND:Lang1PC.jpg;
#LYRICSPATH:;
#CDTITLE:niahak.png;
#MUSIC:Lang 1 - Thought of the Holy.mp3;
#OFFSET:0.100;
#SAMPLESTART:34.900;
#SAMPLELENGTH:16.620;
#SELECTABLE:YES;
#BPMS:0.000=154.080;
#STOPS:;
#BGCHANGES:;
// cache tags:
#FIRSTBEAT:8.000;
#LASTBEAT:263.000;
#SONGFILENAME:Songs/new/Thought of the Holy - sv/langsoh.sm;
#HASMUSIC:1;
#HASBANNER:1;
#MUSICLENGTH:105.116;
// end cache tags

//---------------dance-single - Standard----------------
#NOTES:
     dance-single:
     Standard:
     Medium:
     9:
     0.659,0.719,0.400,0.514,0.371,389.000,42.000,54.000,0.000,1.000:










0000
0000
0000
0000
,
0000
0000
0000
0000
,
1000
0100
0010
0002
0000
0000
0000
0003
1000
0000
0100
0000
0000
0000
0010
0000
,
0002
0010
0000
0013
0100
0000
1000
0001
,
0010
0000
0100
0000
0020
0000
0100
0030
0001
0000
0010
0000
1000
0000
0100
0000
,
0020
1000
0030
1001
0100
0000
0010
0001
,
0010
0000
1000
0100
0020
0000
0000
0000
0000
0000
0000
0030
0000
0000
0000
0000
,
1000
0000
0100
0000
0010
0000
0001
0000
0100
0000
0010
0000
0002
0000
0000
0000
0000
0000
0000
0000
0000
0000
0000
0003
,
1000
0000
0100
0010
0000
0010
0000
0010
,
0001
0100
1010
0000
0000
0011
0000
0000
,
0010
1000
0102
0000
0010
0100
0000
0010
,
0200
0000
0000
0000
0000
0000
0313
0000
1000
0100
0010
0001
1000
0000
0010
0000
,
0100
0001
0020
0000
0031
0100
0000
0010
,
2000
0000
0000
0000
0000
3000
0001
0000
0001
0010
0100
1000
0001
0010
0100
1000
,
0000
0000
0100
0001
0020
0000
0000
0000
0000
0000
0030
0000
0000
0000
0010
0000
,
1000
0100
0010
0001
0010
0001
0010
0001
0020
0000
0000
0000
0000
0000
0000
0000
,
1030
0000
0100
0010
0000
0010
0000
0010
,
0001
0100
1010
0000
0000
0011
0000
0000
,
1001
0000
0000
0000
2200
0000
0000
0000
0000
3300
0001
0000
0010
0000
0100
0000
,
1000
0010
0200
0000
0010
0000
0010
0300
,
1001
0000
0000
0000
0022
0000
0000
0000
0000
0033
1000
0000
0100
0000
0010
0000
,
0001
0010
0002
0000
0100
0000
0100
0000
,
0103
0000
0000
0000
1000
0100
0020
0000
0000
0000
0000
0000
0030
0000
0001
0000
,
0010
0100
0001
0010
0100
2000
0000
3000
,
0110
0000
0000
0000
2002
0000
0000
0000
0000
3003
0000
0000
0000
0000
1000
0100
,
0010
0001
0010
0100
0000
0010
0000
0100
,
0000
0000
0010
0000
0011
0000
0000
0100
0000
0000
1000
0000
0000
0100
0000
0000
,
0010
0000
0100
0000
1001
0000
0000
0100
0000
0000
0010
0000
0000
0100
0000
0000
,
0010
0000
0100
0000
1010
0000
0000
0001
0000
0000
0010
0000
0000
0100
0000
0000
,
0010
0000
1000
0000
0101
0000
1000
0100
0010
0001
1000
0100
0010
0001
1000
0100
,
0010
0001
0100
0010
2000
0000
0000
0000
3000
0000
0000
0000
0000
0000
0000
0000
,
1000
0010
0001
0010
2000
0000
0000
0000
0000
0000
0000
0000
0000
0000
0000
0000
,
3000
0000
1001
0000
0100
0000
0010
0001
,
0000
0000
0110
0000
0000
0000
2000
0000
0000
0000
3000
0000
0100
0010
0000
0000
,
1000
0100
0010
0001
0010
0100
0000
0000
1000
0000
0100
0000
0010
0000
0001
0000
,
1000
0000
0000
0000
0000
0000
0001
0010
0100
1000
0001
0010
0100
0000
1000
0000
,
0100
0001
0010
0100
0000
0100
1001
0100
,
0010
0001
0010
0100
1000
0100
0010
0100
,
0010
0000
0000
0000
1000
0100
0010
0001
0100
0010
1000
0100
0010
0000
0001
0000
,
0110
0000
2000
0000
0000
0000
0100
0000
0010
0000
3001
0000
0010
0100
1000
0100
,
0010
0002
0000
0023
0000
0230
0000
2300
,
3200
0320
0000
0032
0000
2003
0000
3020
,
0000
0230
0000
0310
0200
0300
0010
0100
,
0000
0010
0000
1000
0200
0300
0010
0001
,
0000
0001
0000
0010
0100
0000
1000
0200
,
0300
0010
0000
1000
0100
0000
0010
0002
,
0000
0003
0000
0000
0110
0000
0000
0000
0000
0000
1000
0100
0020
0000
0000
0000
,
0030
0000
0001
0010
0100
0000
1000
0000
0100
0000
0020
0000
0000
0000
0030
0000
,
1100
0011
0000
1100
0011
1000
0100
0010
,
0001
0000
1000
0000
0100
0000
0010
0000
0001
0000
0220
0000
0000
0000
0000
0330
,
1001
0000
0000
0000
1001
0000
0000
0000
0100
0000
0000
0000
0010
0100
0010
0000
,
0001
2000
0000
3200
0000
0320
0000
0030
,
0000
0000
1000
0100
0010
0001
1000
0100
0010
0001
0001
0010
0100
1000
1000
0100
,
0010
0001
0010
0100
1000
0100
0020
0000
0000
0000
0000
0000
0000
0030
0000
0000
,
0000
1001
0100
0010
,
0100
0010
0000
0100
0000
0010
0000
0001
,
0000
1000
0000
0100
0000
0020
0000
0030
,
1000
0100
0010
0002
0000
0000
0000
0000
0003
0000
0010
0000
0000
0000
0100
0000
,
0000
0000
0010
0000
1100
0000
0000
0001
0000
0000
0010
0000
0000
0100
0000
0000
,
0010
0000
0100
0000
1010
0000
0000
0100
0000
0000
1000
0000
0000
0100
0000
0000
,
0010
0000
1000
0000
0101
0000
0000
1100
0000
0000
0011
0000
0000
0000
1100
0000
,
0011
0000
1010
0000
0000
0000
0100
1000
0100
0000
0000
0000
0010
0000
0000
0200
,
0300
0010
0000
0000
0000
0000
0010
0001
0010
0000
0000
0000
0010
0000
0000
0002
,
0003
0010
0000
0000
2000
0000
0010
0001
0010
0000
0000
0000
0001
0000
0000
0002
,
0003
3001
0000
0000
1001
0000
0000
0000
1100
0000
0000
0000
0011
0000
0011
0000
,
0000
0000
1001
0000
0000
0000
0000
0000
0000
0000
1000
0100
0010
0000
0000
0000
;

//---------------dance-single - Light----------------
#NOTES:
     dance-single:
     Light:
     Easy:
     7:
     0.500,0.563,0.152,0.447,0.190,305.000,16.000,47.000,0.000,0.000:






0000
0000
0000
0000
,
0000
0000
0000
0000
,
1000
0100
0010
0002
0000
0000
0000
0003
1000
0000
0100
0000
0000
0000
0010
0000
,
0002
0000
0000
1003
0000
0000
0000
0001
,
0010
0000
0100
0000
0020
0000
0000
0030
1000
0000
0100
0000
0000
0000
0010
0000
,
0001
0000
0000
1000
0000
0000
0000
0000
,
0000
0000
1000
0100
0020
0000
0000
0000
0000
0000
0000
0030
0000
0000
0000
0000
,
1000
0000
0000
0000
0000
0000
0001
0000
0000
0000
0000
0000
0002
0000
0000
0000
0000
0000
0000
0000
0000
0000
0000
0003
,
1000
0000
0100
0010
0000
0010
0000
0010
,
0001
0100
1000
0000
0000
0001
0000
0000
,
0010
1000
0001
0000
0010
0100
0000
0010
,
0100
0000
0000
0010
0000
0000
1000
0010
,
0100
0001
0020
0000
0031
0100
0000
0010
,
2000
0000
0000
0000
0000
3000
0001
0000
0000
0000
0000
0000
0000
0000
0000
0000
,
0000
0000
0100
0001
0020
0000
0000
0000
0000
0000
0030
0000
0000
0000
0010
0000
,
1000
0010
0001
0100
0020
0000
0000
0000
,
1030
0000
0100
0010
0000
0010
0000
0010
,
0001
0100
1000
0000
0000
0001
0000
0000
,
1001
0000
0000
0000
2200
0000
0000
0000
0000
3300
0001
0000
0010
0000
0100
0000
,
1000
0010
0200
0000
0000
0000
0000
0300
,
0011
0000
0000
0000
0022
0000
0000
0000
0000
0033
1000
0000
0100
0000
0010
0000
,
0001
0010
0002
0000
0000
0000
0000
0000
,
0003
0000
0000
0000
1000
0100
0020
0000
0000
0000
0000
0000
0030
0000
0001
0000
,
0010
0100
0001
0010
0100
2000
0000
3000
,
0110
0000
0000
0000
2002
0000
0000
0000
0000
3003
0000
0000
0000
0000
1000
0100
,
0010
0001
0010
0100
0000
0010
0000
0100
,
0000
0000
0010
0000
0001
0000
0000
1000
0000
0000
0010
0000
0000
0001
0000
0000
,
0010
0000
0100
0000
1000
0000
0000
0001
0000
0000
0010
0000
0000
0100
0000
0000
,
1000
0000
0001
0000
0100
0000
0000
1000
0000
0000
0100
0000
0000
0010
0000
0000
,
0001
0000
1000
0000
0001
0000
1000
0100
1000
0000
0000
0000
0010
0000
0000
0010
,
0000
0001
0000
0000
2000
0000
0000
0000
3000
0000
0000
0000
0000
0000
0000
0000
,
1000
0100
0010
0001
2000
0000
0000
0000
0000
0000
0000
0000
0000
0000
0000
0000
,
3000
0000
1000
0000
0100
0000
0010
0001
,
0000
0000
0110
0000
0000
0000
2000
0000
0000
0000
3000
0000
0100
0010
0000
0000
,
0000
0000
0000
0110
0000
0000
0000
0000
1001
0000
0000
0000
0000
0000
0000
0000
,
1001
0000
1010
0000
,
0101
0000
0000
0000
1000
0000
0010
0100
,
0010
0001
0010
0100
1000
0100
0010
0100
,
0010
0000
0000
0000
0000
0000
0100
0001
,
0010
0000
2000
0000
0000
0000
0100
0000
0010
0000
3001
0000
0010
0100
1000
0100
,
0010
0002
0000
0023
0000
0230
0000
2300
,
3200
0320
0000
0032
0000
2003
0000
3020
,
0000
0230
0000
0310
0200
0300
0010
0100
,
0000
0010
0000
1000
0200
0300
0010
0001
,
0000
0001
0000
0010
0100
0000
1000
0200
,
0300
0010
0000
1000
0100
0000
0010
0002
,
0000
0003
0000
0000
0110
0000
0000
0000
0000
0000
1000
0100
0020
0000
0000
0000
,
0030
0000
0000
1000
0100
0020
0000
0030
,
1000
0001
0000
0100
0010
1000
0100
0010
,
0001
0000
1000
0000
0100
0000
0010
0000
0001
0000
0220
0000
0000
0000
0000
0330
,
0000
0000
0000
0000
1000
0000
0000
0000
0100
0000
0000
0000
0010
0100
0010
0000
,
0001
2000
0000
3200
0000
0320
0000
0030
,
0000
1000
0010
1000
0010
0001
0100
1000
,
0010
0000
0010
0000
1000
0000
0020
0000
0000
0000
0000
0000
0000
0030
0000
0000
,
0000
1001
0100
0010
,
0100
0010
0000
0100
0000
0010
0000
0001
,
0000
1000
0000
0100
0000
0020
0000
0030
,
1000
0100
0010
0002
0000
0000
0000
0000
0003
0000
0010
0000
0000
0000
0100
0000
,
0000
0000
0010
0000
0001
0000
0000
0100
0000
0000
0010
0000
0000
0100
0000
0000
,
0010
0000
0100
0000
1000
0000
0000
0100
0000
0000
0010
0000
0000
0100
0000
0000
,
0010
0000
0100
0000
0001
0000
0000
1000
0000
0000
0001
0000
0000
0000
1000
0000
,
0001
0000
1000
0000
0000
0000
0100
1000
0100
0000
0000
0000
0010
0000
0000
0100
,
0000
0010
0000
0000
0000
0000
0010
0001
0010
0000
0000
0000
0010
0000
0000
0001
,
0000
0010
0000
0000
0000
0000
0010
0001
0010
0000
0000
0000
0001
0000
0000
0001
,
0000
0010
0000
0000
1001
0000
0000
0000
1000
0000
0000
0000
0001
0000
0010
0000
,
0000
0000
1000
0000
0000
0000
0000
0000
0000
0000
1000
0100
0010
0000
0000
0000
;

//---------------dance-single - BEGINNER----------------
#NOTES:
     dance-single:
     BEGINNER:
     Hard:
     11:
     0.878,1.000,0.495,0.590,0.742,532.000,52.000,62.000,0.000,4.000:

0000
0000
0000
0000
,
0000
0000
0000
0000
,
1000
0100
0010
0002
0000
0000
0000
0003
1000
0000
0100
0000
0000
0000
0010
0000
,
0002
0010
0000
0013
0010
0000
1000
0001
,
0010
0000
0100
0000
0020
0000
0100
0030
0001
0000
0010
0000
1000
0000
0100
0000
,
0020
1000
0030
1001
0100
0000
0010
0001
,
0010
0000
1000
0100
0010
0000
0100
1000
0200
0300
0010
0000
0000
0000
0000
0000
,
0101
0000
0000
0000
0010
0000
0100
0000
0001
0000
0000
0000
0010
0000
0000
1000
0001
0000
0100
0000
0010
1000
0000
0000
0102
0000
0000
0000
0000
0000
0000
0000
0000
0000
0000
0000
0000
0000
0000
0000
0000
0000
0000
0000
0000
0000
0003
0000
,
1000
0000
0100
0010
0000
0010
0000
0010
,
0001
0000
0100
0000
1010
0110
1000
0100
0010
0001
0011
0000
0000
0000
0000
0000
,
0010
1000
0102
0000
0010
0100
0000
0010
,
0200
0000
0000
0000
0000
0000
0313
0000
1000
0100
0010
0001
1000
0000
0010
0000
,
0100
0001
0020
0000
0031
0100
0000
0010
,
2000
0000
0000
0000
0000
3000
0001
0000
0001
0010
0100
1000
0001
0010
0100
1000
,
0010
0100
0001
0100
0020
0000
0000
0000
0000
0000
0030
0000
0000
0000
0010
0000
,
1000
0100
0010
0001
0010
0001
0010
0001
0020
0000
0000
0000
0000
0000
0000
0000
,
1030
0000
0100
0010
0000
0010
0000
0010
,
0001
0000
0100
0000
1010
0110
1000
0100
0010
0001
0011
0000
0000
0000
0000
0000
,
1001
0000
0000
0000
2200
0000
0000
0000
0000
3300
0001
0000
0010
0000
0100
0000
,
1000
0010
0200
0000
0010
0000
0010
0300
,
1001
0000
0000
0000
0022
0000
0000
0000
0000
0033
1000
0000
0100
0000
0010
0000
,
0001
0010
0002
0000
0100
0000
0100
0000
,
0103
0000
0000
0000
1000
0100
0020
0000
0000
0000
0000
0000
0030
0000
0001
0000
,
0010
0100
0001
0010
0100
2000
0000
3000
,
0110
0000
0000
0000
2002
0000
0000
0000
0000
3003
0000
0000
0000
0000
1000
0100
,
0010
0001
0010
0100
0000
0010
0000
0100
,
0000
0000
0010
0000
1001
0010
0100
0010
0100
1000
0001
1000
0110
0001
0100
0010
,
0002
0000
0023
0000
1031
0100
0010
0001
0010
0100
1000
0010
1001
1000
0100
0010
,
0002
0000
0203
0000
1310
0100
0001
0010
0001
1000
0100
1000
0011
1000
0100
0010
,
0001
0010
0100
1000
0000
0000
1000
0100
0010
0001
1000
0100
0010
0001
1000
0100
,
0010
0001
0100
0010
2000
0000
0100
0010
3001
0000
0000
0000
0100
0000
0000
0200
,
1000
0010
0301
0010
2000
0000
0100
0010
0001
0000
0000
0000
0100
0000
0000
0200
,
3300
0200
0300
0000
1001
0010
0000
0010
0110
0000
0000
0000
0010
0000
0001
0000
,
0000
0000
0110
0000
0000
0000
0001
0000
0000
0000
0110
0000
0100
0010
0000
0100
,
1000
0100
0010
0001
0010
0000
0000
0000
1000
0000
0100
0000
0010
0000
0001
0000
,
1000
0000
0000
0000
0000
0000
0001
0010
0100
1000
0001
0010
0100
0000
1000
0000
,
0100
0001
0010
0100
0000
0100
1001
0100
,
0010
0001
0010
0100
1000
0100
0010
0100
,
0010
0000
0000
0000
1000
0100
0010
0001
0100
0010
1000
0100
0010
0000
0001
0000
,
0110
0000
2000
0000
0100
0000
0100
0000
0010
0000
3001
0000
0010
0100
1000
0100
,
0010
0002
0000
0023
0000
0230
0000
2300
,
3200
0320
0000
0032
0000
2003
0000
3020
,
0000
0000
0230
0000
0000
0000
0310
0000
0010
0100
1000
0100
0010
0100
0010
0100
,
0010
0100
1000
0100
0010
0001
0010
0100
0010
0100
1000
0100
0010
0001
0100
1000
,
0010
0001
0200
0000
0000
0000
0310
0000
0010
0000
2000
0000
0000
0000
3001
0000
,
0001
1000
0100
0010
0001
0010
0100
1000
,
0100
0000
0020
0000
0000
0000
0030
0000
0000
0000
1000
0100
0020
0000
0000
0000
,
0030
0000
0001
0010
0100
0000
1000
0000
0100
0000
0020
0000
0000
0000
0030
0000
,
1100
0011
0000
1100
0011
1000
0100
0010
,
0001
0000
1000
0000
0110
0110
0010
0000
0001
0000
0220
0000
0000
0000
0000
0330
,
1001
0000
0000
0000
1001
0000
0000
0000
0100
0000
0000
0000
0010
0100
0010
0000
,
0001
2000
0000
3200
0000
0320
0000
0030
,
0000
0000
1000
0100
0010
0001
1000
0100
0010
0001
0001
0010
0100
1000
1000
0100
,
0010
0001
0010
0100
1000
0100
0020
0000
0000
0000
0000
0000
0000
0030
1000
0100
,
0010
0001
1000
0000
0010
0001
0010
0000
0000
0000
0000
0000
0000
0000
1000
0000
,
0100
0010
0001
1000
0100
0010
0000
0010
,
0001
0100
2000
0100
0000
0200
0000
3300
,
0100
0000
0000
0010
0000
0000
0001
0000
0000
0020
0000
0000
0000
0000
0000
0000
0000
0000
0000
0000
0000
0000
0000
0000
1030
0000
0000
0100
0000
0000
0010
0000
0000
0001
0000
0000
0010
0000
0100
0000
1000
0000
0100
0000
0010
0000
0001
0000
,
0010
0000
0100
0000
1000
0000
0000
0000
0000
0000
0000
0000
1001
0000
0000
0100
0000
0000
0010
0000
0000
0100
0000
0000
0001
0000
0000
0010
0000
0000
0100
0000
0000
1000
0000
0000
0010
0000
0000
0100
0000
0000
1000
0000
0000
0010
0000
0000
,
0002
0000
0103
1000
0110
0010
0001
0010
1000
0100
0010
0001
0100
0010
1000
0010
,
0002
0000
0103
1000
0110
0010
0001
1100
0100
0010
0011
1000
0100
1010
0000
0000
,
0011
0000
1010
0000
0001
0010
0100
1000
0100
0010
1000
0010
0001
0100
0001
0100
,
1000
0010
0001
1000
0200
0000
0010
0001
0010
0000
0000
0000
0010
0000
0000
0002
,
1303
0001
0100
0100
2000
0000
0010
0001
0010
0000
0000
0000
0001
0000
0000
0002
,
0003
3001
0000
0000
1001
1001
0000
1100
1100
0000
0000
0000
0011
0000
0011
0000
,
0000
0000
1001
0000
0000
0000
0000
0000
0000
0000
1000
0100
0010
0000
0000
0000
;
