#TITLE:Requiem for a Dream;
#SUBTITLE:;
#ARTIST:Lord of the Rings;
#TITLETRANSLIT:;
#SUBTITLETRANSLIT:;
#ARTISTTRANSLIT:;
#CREDIT:Dark Bahamut;
#BANNER:;
#BACKGROUND:;
#LYRICSPATH:;
#CDTITLE:dark.gif;
#MUSIC:Requiem for a Dream.mp3;
#OFFSET:-14.640;
#SAMPLESTART:185.705;
#SAMPLELENGTH:12.400;
#SELECTABLE:YES;
#BPMS:0.000=33.500,24.000=34.000,28.000=33.500,68.000=33.000,68.500=39.000,92.000=78.000,112.000=77.500,116.000=77.000,156.000=36.000,158.000=38.000,160.000=33.000,164.000=68.000,180.000=33.000,182.000=35.000,187.000=40.000,188.000=39.000,208.000=78.000,228.000=77.500,232.000=77.000,271.500=154.000,336.000=308.000,399.000=77.000;
#STOPS:;
#BGCHANGES:;
// cache tags:
#FIRSTBEAT:0.000;
#LASTBEAT:400.000;
#SONGFILENAME:Songs/toune/Requiem for a Dream/Requiem for a Dream.sm;
#HASMUSIC:1;
#HASBANNER:0;
#MUSICLENGTH:394.848;
// end cache tags

//---------------dance-single - ----------------
#NOTES:
     dance-single:
     :
     Hard:
     9:
     0.392,0.823,0.033,0.433,0.355,900.000,13.000,171.000,0.000,0.000:

2000
0000
3002
0203
,
0320
0000
2030
3002
,
0203
1000
0001
0010
2300
0010
3002
0100
,
2003
0010
0100
0001
3020
0001
0230
1000
,
0302
0010
1000
0100
2003
0001
3200
1000
,
0320
0001
1000
0100
2030
0010
3002
0100
,
1003
0100
0001
0000
0200
0000
0310
0001
0100
1000
0000
0000
0002
0000
0013
1000
0100
0010
0000
0000
2000
0000
3100
0010
0001
1000
0100
1000
0001
0100
0010
1000
,
0100
0010
0000
0000
0002
0000
0103
1000
0010
0100
0000
0000
2000
0000
3001
0100
1000
0010
0000
0000
0020
0000
1030
0001
0100
0010
1000
0100
0001
1000
0100
0001
,
0010
0000
1000
0000
0002
0000
1003
0100
0001
0010
0000
0000
2000
0000
3001
0010
1000
0100
0000
0000
0002
0000
0103
0010
1000
0001
0100
1000
0001
0100
0010
0001
,
1000
0010
0000
0000
0200
0000
0301
0100
1000
0010
0000
0000
0020
0000
0130
1000
0010
0001
0000
0000
2000
0000
3100
0001
0010
1000
0001
0100
0010
1000
0001
0100
,
0010
1000
0001
0010
2000
0000
3100
0010
0001
0100
0010
1000
0200
0000
0310
0001
1000
0001
0100
1000
0020
0000
0031
1000
0010
0001
1000
0010
0100
0001
1000
0100
,
0001
0010
1000
0100
0002
0000
0103
0010
1000
0100
0010
0001
2000
0000
3100
0001
1000
0010
0001
0100
0020
0000
1030
0001
0100
0001
0010
1000
0100
0001
0100
0010
,
0002
0000
2003
0000
3200
0000
0320
0030
2100
0000
0100
3000
0012
0000
0010
0003
,
2000
0000
3002
0000
0203
0000
0320
0030
2010
0000
0100
3000
0102
0000
0010
0003
,
0010
1000
0100
0000
2000
0000
3001
0100
1000
0010
0000
0000
0200
0000
0301
0010
1000
0001
0000
0000
0020
0000
1030
0001
0100
0010
1000
0010
0100
1000
0001
0010
,
1000
0001
0000
0000
0200
0000
1300
0010
0001
1000
0000
0000
0020
0000
0130
1000
0010
0001
0000
0000
0002
0000
0013
0100
1000
0001
0010
1000
0100
0010
1000
0100
,
0001
0000
0010
0000
0200
0000
0310
1000
0100
0001
0000
0000
0020
0000
0130
0001
0010
1000
0000
0000
0200
0000
1300
0001
0010
0100
1000
0010
0100
1000
0001
0100
,
2000
3002
0203
0320
,
2030
3002
0023
0032
,
2003
0010
0001
0010
3200
1000
0320
0001
,
0032
0100
1000
0100
0023
1000
0230
0001
,
0320
1000
0001
1000
0230
0010
0302
0100
,
2003
0000
0100
0000
0010
0000
0001
0000
3200
0000
1000
0000
0302
0000
0010
0003
,
2001
0000
0000
0000
0100
0000
0000
0000
0001
0000
0000
0000
0010
0000
0000
3000
,
1002
0000
0000
0000
1000
0000
0000
0003
0201
0000
0000
0000
0001
0000
1000
0300
,
0120
0000
0000
0000
0001
0000
0000
0000
1000
0000
0000
0000
0100
0000
0000
0030
,
2010
0000
0000
0000
0100
0000
0000
3000
1002
0000
0000
0000
0010
0000
0000
0000
,
0103
0000
0001
0000
2000
0000
3001
0100
0010
1000
0000
0000
0200
0000
0301
0010
,
1000
0100
0000
0000
0020
0000
0130
0001
1000
0100
0010
0100
0001
1000
0010
0001
,
1000
0100
0000
0000
0002
0000
0103
1000
0010
0100
0000
0000
0020
0000
1030
0001
,
0100
0010
0000
0000
0002
0000
0103
1000
0100
0010
0001
1000
0100
0010
0001
0100
,
1000
0000
0010
0000
2000
0000
3001
0010
0100
0001
1000
0000
0020
0000
0130
0001
,
0010
1000
0100
0000
0002
0000
1003
0010
0100
0001
0010
1000
0100
0001
1000
0010
,
0100
0001
1000
0000
0020
0000
0130
1000
0100
0001
0010
0000
2000
0000
3010
0100
,
1000
0001
0100
0000
0020
0000
1030
0100
1000
0001
0100
0010
0001
0100
1000
0100
,
0001
0010
0100
1000
0002
0000
0013
0001
0100
1000
0010
1000
0020
0000
1030
0001
,
1000
0100
0001
1000
0020
0000
0130
0010
0001
1000
0010
0100
1000
0010
0001
1000
,
0100
0001
0010
0100
2000
0000
3010
1000
0001
0100
1000
0100
0002
0000
0103
1000
,
0001
1000
0010
1000
0200
0000
0301
0100
0010
1000
0001
0100
1000
0001
0010
1000
,
0002
0000
2003
3020
,
0230
0000
0000
0000
0000
0000
0000
0000
2300
0000
0000
0000
3002
0000
0000
0003
,
2100
0000
0001
0000
,
3020
0000
0000
0000
0000
0000
0000
0000
0230
0000
0000
0000
0320
0000
0000
0030
,
0012
0000
1000
0000
,
0203
0000
0320
0032
,
2003
0000
3002
0203
,
0320
0000
0000
0000
2030
0000
3002
0010
,
1003
0000
0100
0000
1000
0000
0100
0000
0001
0000
0010
0000
0001
0000
0010
0100
,
1000
0000
0010
0000
1000
0000
0010
0000
0001
0000
0100
0000
0001
0000
0100
0010
,
1000
0000
0001
0000
1000
0000
0001
0000
0100
0000
0010
0000
0100
0000
0010
1000
,
0002
1000
0100
1000
0023
0100
0032
0100
,
2003
0010
0100
0010
3002
0100
0023
0100
,
2030
0100
0001
0010
0100
0001
0100
0010
,
3002
0100
1000
0010
0203
0010
1000
0001
,
0320
1000
0001
0100
1000
0100
1000
0001
,
2030
0100
0010
0100
3002
1000
0010
0100
,
1003
0100
0010
0000
2000
0000
3001
0010
1000
0100
0000
0000
0002
0000
0103
1000
,
0010
0001
0000
0000
2000
0000
3001
0100
1000
0010
0001
0100
1000
0001
0010
1000
,
0100
1000
0000
0000
2000
0000
3001
1000
0010
0001
0000
0000
0020
0000
0130
1000
,
0010
0001
0000
0000
2000
0000
3010
0100
0001
1000
0001
0100
0010
0100
1000
0010
,
0001
0000
1000
0000
0020
0000
1030
0100
0001
0010
1000
0000
0200
0000
0301
0010
,
1000
0001
0100
0000
0020
0000
0130
0010
0001
1000
0010
0001
0100
1000
0100
0010
,
0001
1000
0010
0000
0002
0000
0103
0010
1000
0001
0100
0000
2000
0000
3010
0100
,
0001
0010
1000
0000
0200
0000
1300
0010
0001
0010
1000
0100
0001
1000
0010
0001
,
1000
0010
1000
0100
0002
0000
0103
0010
1000
0010
0100
0001
2000
0000
3001
0010
,
0100
1000
0001
0100
0020
0000
0031
0010
0100
0001
1000
0010
0100
1000
0001
0100
,
0010
0100
0001
1000
0200
0000
0310
0001
0100
0001
1000
0010
0002
0000
0013
1000
,
0100
0001
1000
0010
0002
0000
1003
0100
0010
1000
0010
0100
1000
0001
0010
0000
,
0100
0001
0010
0000
2000
0000
3001
0100
,
0010
1000
0000
0000
2000
0000
3001
0100
,
0010
1000
0000
0000
0020
0000
0031
0100
,
0010
1000
0100
0010
0100
0001
1000
0001
,
1000
0100
0001
0000
0020
0000
1030
0001
,
0100
1000
0100
0000
0020
0000
0031
1000
,
0010
0100
0001
0000
2000
0000
3100
0001
,
0100
0010
0001
1000
0100
0010
0001
1000
,
0100
0010
1000
0000
0002
0000
1003
0010
,
0100
0001
1000
0000
0020
0000
1030
0010
,
0001
1000
0100
0000
0020
0000
1030
0100
,
0001
0010
0100
0001
0100
1000
0001
0100
,
1000
0001
0100
0000
0002
0000
0103
1000
,
0010
0100
0001
0000
2000
0000
3010
0100
,
0001
0100
1000
0000
0020
0000
1030
0001
,
0010
1000
0010
0100
0001
1000
0100
0010
,
1000
0010
0100
1000
,
0002
0000
0013
1000
,
0100
1000
0001
0100
,
2000
0000
3001
0010
,
1000
0100
0010
1000
,
0002
0000
0103
1000
,
0001
0010
0100
1000
,
0001
0100
1000
0010
,
0001
1000
0100
1000
,
0002
0000
0103
0001
,
1000
0010
0100
0001
,
2000
0000
3100
0001
,
1000
0010
0100
1000
,
0020
0000
0031
1000
,
0100
0001
1000
0010
,
0100
1000
0001
0220
,
0330
0000
0000
0000
;
