#TITLE:Pixie Dust;
#SUBTITLE:;
#ARTIST:nanobii;
#TITLETRANSLIT:;
#SUBTITLETRANSLIT:;
#ARTISTTRANSLIT:;
#CREDIT:;
#BANNER:;
#BACKGROUND:;
#LYRICSPATH:;
#CDTITLE:;
#MUSIC:Pixie Dust.ogg;
#OFFSET:0.178;
#SAMPLESTART:28.486;
#SAMPLELENGTH:12.000;
#SELECTABLE:YES;
#DISPLAYBPM:180.000;
#BPMS:0.000=180.000;
#STOPS:;
#BGCHANGES:;
// cache tags:
#FIRSTBEAT:1.000;
#LASTBEAT:576.000;
#SONGFILENAME:Songs/Owem's Simfiles 08 - 1.2/Pixie Dust - [Braeden] v1.0.1/Pixie Dust.sm;
#HASMUSIC:1;
#HASBANNER:0;
#MUSICLENGTH:194.861;
// end cache tags

//---------------dance-single - 14+ (Braeden)----------------
#NOTES:
     dance-single:
     14+ (Braeden):
     Challenge:
     14:
     1.000,1.000,0.251,0.472,1.000,1587.000,49.000,92.000,0.000,0.000:
0000
0000
0000
0000
1001
0000
0000
0001
0000
0000
0100
0000
0000
0010
0000
1000
,
0010
0000
0100
0010
0100
0000
0010
1000
0000
0100
1000
0000
0010
1000
0000
0100
,
1000
0000
0001
0000
2000
0000
0000
0100
0000
0000
3200
0000
0000
0010
0000
0000
,
0310
0000
0001
0000
1000
0000
0010
0100
0000
0010
1000
0000
0010
0100
0000
0010
,
1000
0000
0001
0000
1000
0000
0010
0100
0000
0001
0010
0000
0100
0010
0000
0001
,
0100
0000
0010
0000
0100
0000
0001
0010
0000
0100
1000
0000
0001
0010
0000
0100
,
1000
0000
0001
0000
2000
0000
0000
0010
0000
3000
2000
0000
0000
0001
3000
0000
,
1000
0000
0010
0000
0100
0000
0001
0100
0000
0010
1000
0000
0100
0010
0001
0100
,
0010
0100
0001
0100
0010
0000
0100
0000
0001
0000
0010
0000
0100
0000
0010
0000
,
0001
0000
0100
0000
0010
0000
1000
0100
1000
0000
0010
0100
0002
0103
0010
1000
,
0100
0000
0010
0000
0001
0100
0001
0100
0010
0000
1000
0000
0100
0010
0100
0010
,
0100
0000
1000
0000
0001
0000
0100
0010
0100
0000
0001
1000
0010
0100
0010
0000
,
0100
0000
0001
0000
1001
0000
1000
0010
0100
0001
0010
0000
0100
0000
0010
0001
,
0100
0010
0100
0000
0001
0000
1000
0100
1000
0001
0100
0010
0000
1000
0100
0010
,
0001
0000
0010
0000
0100
1000
0010
0100
0001
0000
1000
0000
0100
0010
0001
0100
,
0010
0000
1000
0000
0001
0000
0100
0000
0010
0000
1000
0100
1000
0001
0100
0000
,
0010
0000
0100
0000
0001
0000
1000
0010
1000
0000
0100
0010
0001
0100
0010
1000
,
0100
1000
0001
0100
0010
0000
1000
0100
1000
0000
0010
0100
0001
0010
0001
1000
,
0100
0010
0001
0100
0010
0000
1000
0001
0100
0000
0010
1000
0010
0100
0001
0100
,
0010
0100
0001
0010
0001
0000
1000
0001
1000
0000
0010
0100
0001
0010
0001
1000
,
0100
0010
0001
0100
0010
1000
0100
0010
0100
1000
0001
0100
0010
0100
0001
0010
,
0001
1000
0010
0100
0001
0010
0001
0100
0010
1000
0100
0010
0001
0100
0010
1000
,
0001
0010
0100
1000
0001
0100
0010
0100
0001
0010
0001
1000
0100
0010
0001
0100
,
0010
1000
0001
0010
0001
0100
0010
0100
0001
0010
0001
0100
0001
1000
0100
1000
,
0010
0000
0010
0000
1001
0000
0000
0000
1001
0000
0000
0000
1000
0010
0100
0001
,
1000
0100
0010
0001
1000
0001
1000
0100
1000
0001
0100
0010
0100
0001
1000
0100
,
0010
0001
0100
0010
0100
0001
1000
0100
1000
0001
0100
0010
1000
0100
0010
0100
,
1000
0001
0100
0010
0100
0001
0010
0001
1000
0100
0010
0100
1000
0010
0100
0001
,
1000
0100
0010
0001
1000
0010
1000
0010
0100
0001
0010
0001
1000
0100
1000
0010
,
0100
0001
0010
0001
1000
0100
0010
0100
1000
0001
0100
0010
1000
0100
0010
0100
,
1000
0001
0100
0010
1000
0010
0100
0001
0010
0001
1000
0010
0100
0001
0010
0100
,
0010
0001
1000
0010
1000
0001
0100
0010
1000
0100
0010
0001
0100
0010
1000
0001
,
0010
0100
1000
0010
0100
0000
0000
0000
0010
0000
0000
0000
0100
0000
0000
0000
,
0010
0000
0100
0000
0010
0000
0100
0010
,
0100
0010
0220
0300
2000
3030
1010
1000
,
0001
0100
0220
0030
0002
0303
1001
0010
,
0100
0001
0022
0030
2000
3003
1010
1000
,
0001
1000
2002
0003
0020
3030
0101
0100
,
0010
1000
2020
0030
0002
3003
0101
0100
,
0001
0100
0202
0300
0020
0033
1010
1000
,
0100
1000
2020
0030
0002
3003
0101
0001
,
2000
3100
2200
0300
3100
0010
0110
0100
,
1000
0001
0200
0300
0200
0300
0110
0010
,
1000
0100
2200
3300
1000
0000
1100
1000
,
0001
0100
0220
0330
0010
0000
0110
0100
,
0001
0010
0022
0033
0100
0000
0011
0100
,
0010
1000
2002
3003
0100
0000
0110
0010
,
1000
0001
2002
3003
0010
0000
1001
1000
,
0001
0100
0101
0010
1000
1010
1000
0001
,
1001
0000
0010
0100
0010
0000
0100
0000
0010
0000
0100
0000
0010
0000
0100
0000
,
0010
0000
0100
0000
0010
0000
0000
0000
0100
0000
0000
0000
1000
0100
0010
0001
,
1000
0100
0010
0001
1000
0010
1000
0100
0010
0001
0100
0010
1000
0001
0010
0001
,
1000
0100
0010
0100
1000
0010
0100
0001
1000
0100
0010
0001
1000
0100
1000
0010
,
0100
0001
0010
0001
1000
0100
0010
0001
1000
0100
1000
0001
0010
0001
0100
0010
,
1000
0100
0010
0001
1000
0010
0100
0010
1000
0001
0010
0001
1000
0100
0010
0001
,
0010
0100
1000
0001
1000
0010
0100
0010
1000
0001
0010
0001
1000
0010
0100
0001
,
0100
0010
1000
0001
1000
0100
0010
0001
1000
0010
0100
0001
1000
0100
1000
0010
,
1000
0001
0010
0001
0100
0010
1000
0001
1000
0100
0010
0100
1000
0010
0100
0001
,
0100
0010
1000
0001
1000
0100
0010
0100
1000
0010
0100
0001
1000
0100
0010
0001
,
0010
0100
1000
0001
1000
0010
0100
0001
1000
0100
0010
0001
1000
0001
0010
0100
,
1000
0010
0100
0001
1000
0100
0010
0001
1000
0010
0100
0001
1000
0100
1000
0010
,
1000
0001
0010
0001
0100
0010
1000
0001
0010
0000
0000
0000
0200
0000
0000
0000
,
2000
3300
0011
0011
,
0001
0100
0110
0000
0010
0000
1010
1000
,
2001
0000
0010
0000
3010
0000
0100
0010
,
0100
0001
0020
0030
0002
0003
0100
0010
,
0100
0001
2000
0000
3020
0000
0130
0010
,
0100
0000
0001
0000
0020
0000
0000
0000
0032
0000
0000
0000
0103
0000
0001
1000
,
0010
0100
0001
0000
1000
0000
0000
0010
0000
0000
1000
0100
0010
0001
0100
0010
,
0100
0001
1000
0010
0100
0000
0001
0100
0010
1000
0100
0010
0001
0100
0010
1000
,
0001
1000
0100
0010
0001
0100
0010
1000
0001
0010
0100
1000
0001
0100
0010
0100
,
0001
0010
0001
1000
0010
0100
0001
0010
0100
1000
0010
0100
0001
1000
0100
0010
,
0001
1000
0010
0100
0001
0010
0100
0010
0001
1000
0010
0100
0001
0010
0001
1000
,
0100
0010
0001
1000
0010
0100
0001
0010
0001
1000
0010
0100
0001
0010
0100
0010
,
0001
1000
0010
0100
0001
0010
0100
1000
0004
0000
0000
0000
0403
0000
0340
0000
,
0000
4030
0000
3400
0000
0340
0000
0032
,
1000
0000
1003
0000
1001
0000
1000
0010
0100
0001
0010
0001
1000
0100
0010
0001
,
0400
0000
0000
0000
0000
0000
0000
0000
0000
0000
0000
0000
0000
0000
0000
0000
0000
0000
0000
0000
0000
0000
0000
0000
0000
0000
0000
0000
0000
0000
0000
0000
0000
0000
0000
0000
0320
0000
0000
0000
0000
0000
0000
0000
0000
0000
0000
0000
0000
0000
0000
0000
0000
0000
0000
0000
0000
0000
0000
0000
0000
0000
0000
0000
0000
0000
0000
0000
0000
0000
0000
0000
2030
0000
0000
0000
0000
0000
0000
0000
0000
0000
0000
0000
3000
0000
0000
0000
0000
0000
0000
0000
0000
0000
0000
0001
,
1000
0000
0020
0000
1030
0020
0000
2030
,
3000
0000
0000
0000
0000
0000
0000
0000
0000
0000
0000
1000
0002
0000
0000
0000
0000
0000
0000
0000
0000
0000
0000
0000
0000
0000
0000
0000
0000
0000
0000
0000
0000
0000
0000
0000
0203
0000
0000
0000
0000
0000
0000
0000
0000
0000
0000
0000
0000
0000
0000
0000
0000
0000
0000
0000
0000
0000
0000
0000
0320
0000
0000
0000
0000
0000
0000
0000
0000
0000
0000
0000
0000
0000
0000
0000
0000
0000
0000
0000
0000
0000
0000
0000
0030
0000
0000
0000
0000
0000
0000
0000
0000
0000
0000
1000
,
0001
0200
0010
0300
0001
0200
0320
0030
,
2000
0000
3000
0000
0001
0000
1000
0010
0100
0001
1000
0100
0010
0001
0100
0010
,
1000
0100
0010
0100
2000
0000
0000
0000
0000
0000
3200
0000
0000
0000
0000
0000
,
1300
0000
0010
0100
0001
0010
0001
1000
0100
0010
0001
0100
0010
1000
0001
0010
,
0100
1000
0010
0100
0020
0000
0000
0000
0000
0000
1030
0100
0010
0001
0100
0010
,
2000
0000
0000
0000
0000
0000
3010
0100
0001
0010
0100
1000
0010
0100
0001
0010
,
0001
0100
0010
0100
0002
0000
0000
0000
0013
0000
0100
1000
0100
0010
0001
1000
,
0100
0000
0000
0010
0001
0000
0000
0000
0000
0000
0000
0000
0010
0000
0100
0000
1000
0000
0010
0000
0100
0000
0001
0000
1000
0000
0100
0000
0010
0000
0001
0000
,
0100
0010
1000
0001
0010
0000
0100
0000
1000
0000
0001
0100
0010
1000
0100
1000
,
0001
0000
0200
0000
0300
0000
0010
1000
0001
0100
0010
1000
0100
0010
0100
1000
,
0001
0100
0010
0100
0002
0000
0000
0000
0003
0000
1000
0010
0100
0001
1000
0100
,
2000
0000
0010
0000
3000
0000
0100
0001
0100
0010
0100
0001
1000
0100
1000
0001
,
0100
0010
1000
0001
0010
0000
0100
1000
0100
0000
0010
0001
0100
0010
1000
0001
,
1000
0100
0010
0001
0010
0000
0100
1000
0100
0000
0010
0001
0100
0010
1000
0001
,
0010
0100
1000
0001
0100
0000
0010
1000
0001
0000
0100
0010
1000
0100
1000
0001
,
0010
0100
1000
0001
0010
0000
0100
0010
0001
0100
0010
1000
0001
0010
0100
1000
,
0001
0100
0010
1000
0010
0000
0100
0001
1000
0000
0001
0010
0001
1000
0010
1000
,
0001
0100
0010
1000
0001
0010
0100
1000
0001
0100
0010
1000
0100
1000
0001
0010
,
0001
1000
0010
1000
0001
0010
0001
1000
0100
1000
0001
0010
0001
1000
0010
1000
,
0001
0100
0001
1000
0100
1000
0001
0010
0001
1000
0100
0010
0001
0100
0010
1000
,
0001
0010
0100
1000
0001
0100
0010
0100
0001
1000
0100
1000
0001
0100
0010
0100
,
0001
1000
0100
1000
0001
0010
0100
1000
0001
0100
0010
1000
0001
0010
0100
1000
,
0001
0100
0010
1000
0001
0010
0100
0010
0001
1000
0100
1000
0001
0010
0100
0010
,
0001
1000
0100
1000
0001
0010
0100
1000
0010
0100
0001
0010
0100
1000
0010
1000
,
0001
0100
0010
0100
0001
1000
0100
1000
0001
0010
0100
1000
0010
0100
0010
1000
,
0001
0010
0100
1000
0010
0100
0001
1000
0100
0010
0001
0100
0001
1000
0010
0100
,
0010
1000
0010
0100
0001
1000
0100
1000
0001
0100
0010
1000
0100
0010
0001
1000
,
0010
0100
0001
1000
0100
0000
0010
0000
0001
0100
0000
0010
1000
0000
0001
0100
,
0010
1000
0100
0000
2200
0000
3300
0000
1000
0000
0000
0000
0001
0010
0100
1000
,
0001
0100
0010
1000
0002
0000
0000
0000
1003
0000
0000
0000
0010
0100
0001
0010
,
0001
1000
0100
0010
0002
0000
0000
0000
1003
0000
0000
0000
0001
0100
0010
0100
,
0001
1000
0010
0100
0002
0000
0000
0000
0013
0000
0000
0000
0100
1000
0010
0100
,
0001
1000
0100
0010
0001
0000
0000
0000
2000
0000
0000
0000
3010
0100
0001
0010
,
0001
1000
0100
0010
0002
0000
0000
0000
2003
0000
0000
0000
3001
0100
0010
1000
,
0100
0010
0001
0100
0020
0000
0000
0000
2030
0000
0000
0000
3001
0010
0001
1000
,
0010
1000
0100
1000
0020
0000
0000
0000
0130
0001
0010
0100
1000
0010
0100
0001
,
1000
0100
0010
0001
0100
0000
0000
0000
0010
0000
0000
0000
1000
0100
0010
0001
,
1000
0100
0010
0001
1000
0100
1000
0010
0100
0001
0100
0010
1000
0100
0010
0001
,
1000
0100
0010
0001
1000
0010
0100
0001
0010
0100
1000
0010
0100
0001
0010
0100
,
1000
0100
0010
0001
1000
0010
0100
0001
0100
0010
1000
0001
1000
0100
1000
0010
,
0100
0010
1000
0100
1000
0001
0010
0100
1000
0100
0010
0001
1000
0010
0100
0010
,
1000
0001
0010
0001
1000
0100
0010
0001
0010
0100
0010
0001
1000
0010
0100
0010
,
1000
0001
0010
0001
0100
0000
0010
0000
1000
0000
0001
0000
1001
0000
1000
0000
,
0010
0000
0100
0000
0001
1000
0010
0100
0001
0000
1000
0010
0100
0001
0010
0001
,
0100
0000
0010
0000
1000
0100
0010
0001
1000
0100
0010
0001
1000
0100
1000
0010
,
1000
0001
0010
0001
0100
0010
1000
0100
1000
0001
0010
0100
1000
0010
0100
0010
,
1000
0001
0010
0001
1000
0100
0010
0001
1000
0010
0100
0001
1000
0100
1000
0010
,
1000
0001
0010
0001
0100
0010
1000
0100
0010
0001
1000
0010
1000
0100
0010
0001
,
1000
0010
0100
0001
1000
0010
0100
0001
1000
0100
1000
0001
0100
0010
0100
0001
,
0010
0001
1000
0100
0010
0001
0100
0010
1000
0100
0010
0001
0100
0010
1000
0001
,
0010
0001
1000
0100
1000
0010
0100
0001
0100
0010
1000
0001
0010
0001
1000
0010
,
0100
0001
0010
0100
1000
0001
0100
0010
1000
0100
0010
0001
1000
0100
1000
0001
,
0010
0001
1000
0100
2000
0000
0000
0000
3010
0000
0000
0000
1020
0000
0000
0000
,
2030
0000
3010
2010
,
3200
0000
0310
0210
,
0302
0000
0103
0110
,
0020
0000
1030
1010
,
2000
0000
3010
0100
,
0020
0000
0130
0100
,
0100
0000
0010
0010
,
0010
0000
1000
1000
,
0001
0000
1000
0010
,
0100
0000
0001
1000
,
0100
0000
0010
0100
,
1000
0000
0000
0000
;
