#TITLE:Summer;
#SUBTITLE:(Speedy Mix);
#ARTIST:Smiley;
#TITLETRANSLIT:;
#SUBTITLETRANSLIT:;
#ARTISTTRANSLIT:;
#CREDIT:;
#BANNER:summer-bn.png;
#BACKGROUND:summer-bg.png;
#LYRICSPATH:;
#CDTITLE:!cdtitle.png;
#MUSIC:Summer -Speedy Mix-.mp3;
#OFFSET:1.280;
#SAMPLESTART:32.560;
#SAMPLELENGTH:14.000;
#SELECTABLE:YES;
#BPMS:0.000=185.000;
#STOPS:;
#BGCHANGES:;
// cache tags:
#FIRSTBEAT:8.000;
#LASTBEAT:332.000;
#SONGFILENAME:Songs/Fabulously Fresh Flock of Fantastic Files F5/(Gamepro) Summer -Speedy Mix-/Summer -Speedy Mix-.sm;
#HASMUSIC:1;
#HASBANNER:1;
#MUSICLENGTH:108.512;
// end cache tags

//---------------dance-single - ----------------
#NOTES:
     dance-single:
     :
     Hard:
     11:
     1.000,1.000,0.958,0.083,0.954,712.000,104.000,9.000,0.000,0.000:  // measure 1
0000
0000
0000
0000
,  // measure 2
0000
0000
0000
0000
,  // measure 3
1001
0000
0000
0000
0100
0000
0001
0100
0010
0000
1100
0000
0000
0000
0110
0000
,  // measure 4
0000
1001
0110
0000
0001
0100
0010
0000
,  // measure 5
0110
0000
0000
0000
0101
0000
0000
1000
0100
0000
0110
0000
0000
0000
1100
0000
,  // measure 6
0000
0011
0011
0000
0010
0100
1000
0000
,  // measure 7
1010
0000
0000
0000
0110
0000
0000
0001
1000
0000
0110
0000
0000
0000
1100
0000
,  // measure 8
0000
0000
0011
0000
0011
0000
0000
0010
0100
0000
1000
0000
0010
0000
0000
0100
,  // measure 9
0001
0000
0000
0000
1100
0000
0000
0010
0100
0000
1010
0000
0000
0010
0100
0000
,  // measure 10
0002
0000
0000
0000
0000
0000
0000
0003
,  // measure 11
1100
0000
1000
0000
0010
0000
0100
0001
0000
1000
0000
0100
1000
0000
0010
0000
,  // measure 12
0100
0000
0001
0000
0010
0000
0100
1000
0000
0010
0000
0100
0010
0000
1000
0000
,  // measure 13
0100
0000
1000
0000
0001
0000
0100
0010
0000
1000
0000
0001
0010
0000
0100
0000
,  // measure 14
1000
0000
0010
0000
0100
0000
0001
0100
0010
1000
0100
0000
1000
0000
0010
0000
,  // measure 15
0100
0000
0001
0000
0010
0000
0100
1000
0000
0010
0000
0100
0010
0000
1000
0000
,  // measure 16
0100
0000
0010
0000
0001
0000
1000
0010
0000
0100
0000
0001
1000
0000
0100
0000
,  // measure 17
0010
0000
0100
0000
1000
0000
0010
0100
0000
0001
0000
0100
0010
0000
0100
0000
,  // measure 18
0001
0000
1000
0000
0100
0000
0010
0100
1000
0001
0100
0000
0001
0000
1000
0000
,  // measure 19
0101
0000
0001
0100
0010
0000
0010
1000
0100
0000
0100
0010
0001
0000
0001
0000
,  // measure 20
0000
1000
0100
0000
1010
0000
0101
0000
,  // measure 21
1100
0000
0010
0100
0001
0000
0001
1000
0100
0000
0100
1000
0010
0000
0100
0000
,  // measure 22
0000
0000
0000
0001
0100
0000
0000
0000
0101
0000
0000
0000
0100
0000
0100
0000
,  // measure 23
1010
0000
0100
1000
0010
0000
0100
0001
0010
0000
0100
1000
0001
0000
0100
0000
,  // measure 24
0000
0001
0100
0000
1100
0000
1100
0000
,  // measure 25
0101
0000
0010
1000
0100
0000
0010
0001
0100
0000
0010
1000
0001
0000
0010
0000
,  // measure 26
0000
0000
0100
1000
0010
0000
0000
0000
0100
0001
0100
0000
0010
0000
1000
0000
,  // measure 27
0101
1000
0000
0010
0100
0001
0000
1000
,  // measure 28
0100
0010
0100
1000
0010
0000
0100
0000
0001
0000
1000
0000
0000
0000
0001
0000
,  // measure 29
0100
0010
1000
0100
0010
0000
0001
0000
0010
0100
1000
0010
0100
0000
0001
0000
,  // measure 30
1000
0000
0202
0303
,  // measure 31
0010
1000
0100
1000
0010
0100
0010
1000
0010
0100
0001
1000
0100
1000
0010
0100
,  // measure 32
0001
0010
0100
1000
0010
0100
0001
1000
0100
0010
0100
1000
0010
0100
0001
0010
,  // measure 33
0001
0100
0010
1000
0010
0100
0001
0010
0100
1000
0001
0100
0010
0100
0001
1000
,  // measure 34
0100
0000
0000
0000
2200
0000
0000
3300
,  // measure 35
0101
0000
0010
0000
1000
0000
0100
0010
0000
0100
0000
1000
0010
0000
0100
0000
,  // measure 36
0001
0000
1000
0000
0100
0000
0010
0001
0000
1000
0000
0010
0100
0000
0001
0000
,  // measure 37
1000
0000
0100
0000
1000
0000
0010
0100
0000
0001
0000
1000
0100
0000
0010
0000
,  // measure 38
0001
0000
1000
0000
0010
0000
0100
0001
0000
1000
0000
0100
0010
0000
0100
1000
,  // measure 39
0010
0000
0100
0000
0001
0000
1000
0100
0000
1000
0000
0001
0100
0000
0010
0000
,  // measure 40
1000
0000
0100
0000
0010
0000
0100
1000
0000
0010
0000
0100
0001
0000
1000
0000
,  // measure 41
0100
0000
1000
0000
0010
0000
0100
0001
0000
1000
0000
0100
0010
0000
0100
0000
,  // measure 42
1000
0000
0010
0000
0100
0000
0010
0000
1000
0001
0100
0000
0010
1000
0100
0010
,  // measure 43
0100
1000
0000
0010
0000
0001
1000
0100
,  // measure 44
1000
0000
0010
0100
0001
0000
1000
0100
0010
0100
0000
0000
1000
0000
0000
0000
,  // measure 45
0010
0000
0100
0000
0001
0000
1000
0100
0000
1000
0010
0000
0100
0000
0001
0000
,  // measure 46
1000
0000
0100
1000
0010
0000
0100
0001
1000
0100
0000
0000
0000
0000
0000
0000
,  // measure 47
1000
0000
0010
0000
0000
0000
0100
0001
1000
0100
0000
0010
0001
0000
1000
0000
,  // measure 48
0010
0000
0100
0001
0010
0000
0100
1000
0001
0100
0001
0000
1000
0100
1000
0000
,  // measure 49
0010
0000
0100
0000
0001
0000
1000
0100
0000
0010
0100
0010
0001
0000
1000
0000
,  // measure 50
0010
0000
0100
0001
1000
0000
0010
0100
0001
1000
0100
1000
0001
1000
0100
0000
,  // measure 51
1001
0000
0100
1000
0010
0000
0010
0100
0001
0000
0001
0010
0100
0000
1000
0000
,  // measure 52
0000
0010
0100
0000
0101
0000
1100
0000
,  // measure 53
0110
0000
0001
1000
0100
0000
0100
0010
0001
0000
0001
1000
0010
0000
0100
0000
,  // measure 54
0000
0000
0000
0010
1000
0000
0100
1000
0010
0100
0001
1000
0100
0010
0100
1000
,  // measure 55
0001
0000
0100
0010
1000
0000
0100
0010
0001
0000
1000
0010
0100
0000
0001
0000
,  // measure 56
0000
1000
0100
0000
1010
0000
0101
0000
,  // measure 57
1100
0000
0010
0001
1000
0000
0010
0100
0001
0000
1000
0100
0010
0000
0100
0000
,  // measure 58
0000
0000
1000
0010
0100
0000
0000
0000
0001
1000
0100
1000
0001
1000
0100
1000
,  // measure 59
0011
0000
0010
0100
1000
0000
0010
0000
0000
0000
0101
0000
0000
0000
0000
0000
,  // measure 60
1001
0000
0010
0100
0001
0000
1000
0000
0000
0000
1100
0000
0000
0110
0000
0000
,  // measure 61
1001
0000
0010
0100
0001
0000
1000
0000
0110
0000
0100
0000
1000
0000
0010
0000
,  // measure 62
0100
0000
0001
0010
0100
0000
1000
0010
0100
0001
1000
0100
1000
0010
0100
0001
,  // measure 63
1100
0000
0010
0100
0001
0000
1100
0000
0000
0000
0110
0000
0000
0000
0000
0000
,  // measure 64
1010
0000
0010
0100
0001
0000
1000
0000
0000
0000
1100
0000
0000
0110
0000
0000
,  // measure 65
0101
0000
0010
1000
0001
0000
0100
0000
0011
0000
1000
0000
0010
0000
0100
0000
,  // measure 66
1001
0000
0000
0000
0100
0000
0000
0000
0001
0000
0000
0000
0100
0000
0000
0000
0000
0000
0010
0000
0100
0000
0000
0010
1000
0000
0000
0000
0100
0000
0000
0000
,  // measure 67
1100
0110
0100
1001
0101
1010
0100
0011
,  // measure 68
0001
0010
0100
1000
0010
0000
0101
0000
1010
0000
0110
0000
0100
0000
1001
0000
,  // measure 69
0100
0010
0001
1000
0100
0000
1100
0000
0010
0100
0001
1000
0100
0000
1100
0000
,  // measure 70
0010
0100
0010
0100
0010
1000
0010
1000
0001
1000
0001
1000
0001
0100
0001
0100
,  // measure 71
1001
0100
0010
0001
0100
0010
1000
0010
0100
0001
1000
0100
0010
0100
1000
0001
,  // measure 72
0010
0001
0100
0010
1000
0010
0100
0001
1000
0010
0100
0010
1000
0001
0010
0001
,  // measure 73
0100
0010
1000
0100
0010
0001
0010
0100
1000
0010
1000
0001
0100
0010
1000
0100
,  // measure 74
0022
0000
0033
1100
0220
0000
0330
0000
,  // measure 75
1001
0110
1001
0011
1100
0110
1001
0000
,  // measure 76
1001
0000
0000
0000
0101
0000
0010
1000
0100
0000
1100
0000
0000
0000
0011
0000
,  // measure 77
0000
1010
1010
0000
0100
0001
1100
0000
,  // measure 78
0110
0000
0000
0000
1001
0000
0001
0100
0010
0000
1100
0000
0000
0000
0110
0000
,  // measure 79
0000
1001
0110
0000
1000
0100
0101
0000
,  // measure 80
1010
0000
0000
0000
0110
0000
0001
1000
0100
0000
0011
0000
0000
0000
1100
0000
,  // measure 81
0000
0000
0110
0000
0110
0000
0000
0000
0100
0000
1000
0000
0110
0000
0000
0001
,  // measure 82
0100
0000
0000
0000
1010
0000
0000
1000
0100
0000
0011
0000
0000
0000
1010
0000
,  // measure 83
0000
0000
0100
0000
0001
0000
0000
0000
1000
0100
0010
0100
1000
0000
0010
0100
,  // measure 84
1001
0000
0000
0000
;
