#TITLE:PARANOiA APOCALYPSE 590;
#SUBTITLE:;
#ARTIST:MR.M;
#TITLETRANSLIT:;
#SUBTITLETRANSLIT:;
#ARTISTTRANSLIT:;
#CREDIT:;
#BANNER:banner.bmp;
#BACKGROUND:PARANOiA APOCALYPSE 590-bg.PNG;
#LYRICSPATH:;
#CDTITLE:./CDTITLES/DANCE DANCE REVOLUTION MAX.PNG;
#MUSIC:PARANOiA APOCALYPSE 590.wav;
#OFFSET:-0.792;
#SAMPLESTART:34.870;
#SAMPLELENGTH:12.000;
#SELECTABLE:YES;
#BPMS:0.000=590.000,199.667=570.000,200.000=550.000,200.333=530.000,200.667=510.000,201.000=500.000,201.333=400.001,201.667=300.002,201.750=198.523,202.000=91.482,202.250=41.622,202.438=42.242,202.500=303.062,202.563=589.998,203.000=589.998,291.250=240.000,291.500=230.000,291.750=220.000,292.000=210.000,292.250=200.000,292.500=190.000,292.750=180.000,293.000=170.000,293.250=160.000,293.500=150.000,293.750=140.000,294.000=130.000,294.250=120.000,294.500=263.000,294.750=263.001,295.000=589.996,320.000=549.996,320.500=499.996,321.000=449.997,321.500=399.997,321.750=349.998,322.000=299.998,322.250=249.999,322.500=199.999,322.750=149.999,323.000=99.999,323.250=590.013,580.750=550.014,581.000=500.014,581.250=450.015,581.500=399.995,581.750=349.996,582.000=299.997,582.250=199.997,582.500=145.497;
#STOPS:202.500=0.100
,457.000=0.200
;
#BGCHANGES:;
// cache tags:
#FIRSTBEAT:0.000;
#LASTBEAT:631.271;
#SONGFILENAME:Songs/toune 2/paranoia apo/PARANOiA APOCALYPSE 590.sm;
#HASMUSIC:1;
#HASBANNER:1;
#MUSICLENGTH:82.476;
// end cache tags

//---------------dance-double - ----------------
#NOTES:
     dance-double:
     :
     Easy:
     6:
     0.488,0.527,0.109,0.121,0.000,263.000,9.000,10.000,0.000,0.000:
00000000
00000000
00000000
00000000
,
00000000
00000000
00000000
00000000
,
00000000
00000000
00000000
00000000
,
00000000
00000000
00000000
00000000
,
00100000
00000000
10000000
00000000
,
00100000
00000000
01000000
00000000
,
00001000
00000000
00010000
00000000
,
00001000
00010000
00010000
00000000
,
00000010
00000000
00001000
00000000
,
00000010
00000000
00000100
00000000
,
00000001
00000000
00000100
00000000
,
00000010
00000100
00000100
00000000
,
00001000
00010000
00001000
00000000
,
00100000
01000000
01000000
00000000
,
10000000
01000000
00010000
00001000
,
00000010
00000001
00000100
00000000
,
00001000
00000000
00010000
00000000
,
00100000
00000000
10000000
00000000
,
01000000
10000000
01000000
00000000
,
10000000
01000000
00010000
00001000
,
00010000
00000000
00000010
00000000
,
00010000
00000000
00000100
00000000
,
00001000
00000010
00000100
00000000
,
00001000
00010000
00100000
10000000
,
00010000
00000000
01000000
00000000
,
00001000
00000000
00010000
00000000
,
00000010
00001000
00000001
00000000
,
00000100
00001000
00010000
00100000
,
10000000
00000000
10000000
00000000
,
00010000
01000000
00010000
00000000
,
00100000
00000000
00000000
00001000
00000000
00000000
00010000
00000000
,
00000010
00001000
00000010
00000000
,
00001000
00000100
00001000
00000000
,
00000001
00000000
00000001
00000000
,
00000001
00000100
00000001
00000000
,
00001000
00000000
00001000
00000000
,
00000010
00001000
00000001
00000000
,
00000001
00000000
00000001
00000000
,
00000001
00000100
00000000
00000000
,
00001000
00010000
00100000
00000000
,
10000000
00000000
01000000
00000000
,
00010000
00001000
00000010
00000000
,
00000001
00000000
00000100
00000000
,
00001000
00010000
00100000
00000000
,
10000000
01000000
10000000
00000000
,
10000000
01000000
00010000
00000000
,
00010000
01000000
00010000
00000000
,
00010000
00001000
00010000
00000000
,
00001000
00000010
00001000
00000000
,
00001000
00000010
00000001
00000000
,
00000010
00000001
00000100
00000000
,
00000001
00000100
00001000
00000000
,
00000100
00001000
00010000
00000000
,
00001000
00000000
00010000
00000000
,
00001000
00010000
00100000
00000000
,
10000000
00000000
01000000
00000000
,
00100000
00010000
00100000
00000000
,
00001000
00010000
00001000
00000000
,
00010000
00001000
00000010
00000001
,
00000100
00001000
00010000
00000000
,
00000010
00001000
00000010
00000000
,
00010000
00001000
00010000
00000000
,
00001000
00010000
00100000
10000000
,
01000000
00010000
00001000
00000000
,
00100000
00010000
00100000
00000000
,
00001000
00010000
00001000
00000000
,
00010000
00001000
00000010
00000001
,
00000100
00001000
00010000
00000000
,
00001000
00010000
00100000
00000000
,
00010000
00000100
00001000
00000000
,
00001100
00000000
00011000
00000000
,
00110000
00000000
00022000
00000000
,
00000000
00000000
00000000
00000000
,
00000000
00000000
00000000
00000000
00000000
00033000
00000000
00000000
,
00100000
00000000
00001000
00000000
,
00000000
00010000
00000010
00000000
,
00001000
00000000
00000010
00000100
,
00000000
00001000
00010000
00000000
,
00100000
10000000
01000000
00010000
,
00000000
00001000
00000010
00000000
,
00000100
00001000
00010000
00100000
,
00000000
10000000
01000000
00010000
,
00001000
00000000
00010000
00000000
,
00000000
00100000
10000000
00000000
,
01000000
00000000
00010000
00000000
,
00000000
00001000
00000010
00000000
,
00000001
00000100
00001000
00010000
,
00000000
00100000
10000000
00000000
,
10000000
01000000
00010000
00001000
,
00000000
00000010
00000001
00000000
,
00000001
00000000
00000000
00001000
00000000
00000000
00000100
00000000
,
00020000
00000000
00000000
00030000
,
00001000
00000000
00000000
00100000
00000000
00000000
01000000
00000000
,
20000000
00000000
00000000
30000000
,
00010000
00000000
00000000
01000000
00000000
00000000
00001000
00000000
,
00020000
00000000
00000000
00030000
,
00000010
00000000
00000000
00001000
00000000
00000000
00000001
00000000
,
00000200
00000000
00000000
00000300
,
00001000
00000000
00000000
00010000
00000000
00000000
00001000
00000000
,
00000020
00000000
00000000
00000030
,
00000001
00000000
00000000
00000100
00000000
00000000
00001000
00000000
,
00020000
00000000
00000000
00030000
,
00001000
00000000
00000000
00000010
00000000
00000000
00000001
00000000
,
00000100
00000000
00000000
00000000
,
00001010
00000000
00000000
00000000
,
00011000
00000000
00000000
00000000
,
00110000
00000000
11000000
00000000
,
02002000
00000000
00000000
00000000
,
00000000
00000000
00000000
03003000
;

//---------------dance-double - ----------------
#NOTES:
     dance-double:
     :
     Medium:
     7:
     0.648,0.725,0.242,0.097,0.000,346.000,20.000,8.000,0.000,0.000:
00000000
00000000
00000000
00000000
,
00000000
00000000
00000000
00000000
,
00000000
00000000
00000000
00000000
,
00000000
00000000
00000000
00000000
,
00100000
01000000
00010000
00000000
,
00100000
00001000
00010000
00000000
,
00000010
00000100
00000001
00000000
,
00001000
00000010
00010000
00000000
,
01010000
00000000
00001100
00000000
,
00000010
00000001
00000100
00000001
,
00001000
00000000
00001000
00000000
,
00000001
00000100
00000001
00000000
,
00000001
00000100
00001000
00000100
,
00000001
00000100
00001000
00010000
,
00100000
10000000
00100000
00010000
,
00100000
10000000
00100000
00010000
,
00100000
00000000
00100000
00000000
00000000
10000000
00000000
10000000
,
01000000
00000000
01000000
00000000
00000000
00010000
00000000
00010000
,
00001000
00000000
00001000
00000000
00000000
00000010
00000000
00000010
,
00000001
00000100
00001000
00010000
,
00100000
00000000
00100000
00000000
00000000
10000000
00000000
10000000
,
01000000
00000000
01000000
00000000
00000000
00010000
00000000
00010000
,
00001000
00000000
00001000
00000000
00000000
00000010
00000000
00000010
,
00000001
00000100
00001000
00010000
,
00000010
00000000
00000010
00000000
00000000
00001000
00000000
00001000
,
00000001
00000000
00000001
00000000
00000000
00000100
00000000
00000100
,
00001000
00000000
00001000
00000000
00000000
00010000
00000000
00010000
,
00001000
00010000
00100000
10000000
,
01000000
00000000
01000000
00000000
00000000
00010000
00000000
00010000
,
00001000
00000000
00001000
00000000
00000000
00000010
00000000
00000000
,
00001100
00000000
00000000
00011000
00000000
00000000
01010000
00000000
,
10000000
00010000
10000000
00010000
,
01000000
00010000
01000000
00010000
,
00100000
00001000
00100000
00001000
,
00010000
00001000
00010000
00001000
,
00010000
00000100
00010000
00000100
,
00000010
00000001
00000010
00000001
,
00001000
00000001
00001000
00000001
,
00001010
00000000
00000101
00000000
,
00000001
00000100
00001000
00010000
,
10100000
00000000
01010000
00000000
,
00001000
00010000
00001000
00010000
,
00001010
00000000
00001001
00000000
,
00000001
00000100
00001000
00010000
,
00000010
00010000
00000010
00010000
,
00000010
00000001
00000010
00000000
,
00001000
00000100
00000010
00000001
,
00001000
00000001
00001000
00000000
,
00000001
00000100
00001000
00010000
,
00100000
10000000
01000000
00000000
,
10000000
01000000
00100000
00010000
,
10000000
00010000
01000000
00100000
,
10000000
01000000
00100000
00010000
,
01010000
00000000
10100000
00000000
,
10000000
01000000
00010000
00001000
,
00000011
00000000
00000101
00000000
,
00000001
00000000
00000001
00000000
00001000
00000001
00000000
00000000
,
00001000
00000000
00001000
00000000
00000100
00001000
00000000
00000000
,
00010000
00000000
00010000
00000000
00001000
00010000
00000000
00001000
,
00010000
01000000
10000000
00000000
,
10000000
00000000
10000000
00000000
00010000
10000000
00000000
00000000
,
00010000
00000000
00010000
00000000
01000000
00010000
00000000
00000000
,
00001000
00000000
00001000
00000000
00010000
00001000
00000000
00010000
,
00001000
00000010
00000001
00000000
,
00000001
00000000
00000001
00000000
00001000
00000001
00000000
00000000
,
00001000
00000000
00001000
00000000
00000100
00001000
00000000
00000000
,
00010000
00000000
00010000
00000000
00001000
00010000
00000000
00001000
,
00010000
01000000
10000000
00000000
,
10000000
00000000
10000000
00000000
00010000
10000000
00000000
00000000
,
00010000
00000000
00010000
00000000
01000000
00010000
00000000
00000000
,
00100000
00000000
00000000
00001000
00100000
00000000
00000000
00000100
,
00010000
00000000
00022000
00000000
,
00000000
00000000
00000000
00000000
,
00000000
00000000
00000000
00000000
00000000
00033000
00000000
00000000
,
00000001
00001000
00000100
00001000
,
00000000
00000001
00000100
00000000
,
00000001
00000100
00001000
00010000
,
00000000
01000000
10000000
00000000
,
00010000
10000000
01000000
10000000
,
00000000
00001000
01000000
00000000
,
00001000
00010000
00000100
00001000
,
00000000
00000001
00000100
00000001
,
00001000
00000010
00001000
00000010
00001000
00000000
00000100
00000000
,
00000000
00001000
00010000
00000000
,
00100000
00010000
00100000
00010000
00100000
00000000
00001000
00000000
,
00000000
00000100
00000001
00000000
,
00001000
00000010
00001000
00000010
00001000
00000000
00000100
00000000
,
00000000
00001000
00010000
00000000
,
00100000
00010000
00100000
00010000
00100000
00000000
00001000
00000000
,
00000000
00010000
00001000
00010000
,
00000010
00000000
00000000
00000001
00000000
00000000
00000100
00000000
,
00001000
00000000
00100000
00000000
,
01000000
00000000
00000000
00100000
00000000
00000000
00001000
00000000
,
00010000
00000000
00000100
00000000
,
00000010
00000000
00000000
00000001
00000000
00000000
00000100
00000000
,
00001000
00000000
00100000
00000000
,
01000000
00000000
00000000
00100000
00000000
00000000
00001000
00000000
,
00020200
00000000
00000000
00030300
,
00000010
00000000
00000000
00000001
00000000
00000000
00000100
00000000
,
00000010
00000000
00000000
00010000
00000000
00000000
00000100
00000000
,
00010000
00000000
00000000
00000010
00000000
00000000
00000100
00000000
,
00001000
00000000
00000000
00010000
00000000
00000000
00100000
00000000
,
10000000
00000000
00000000
01000000
00000000
00000000
00010000
00000000
,
00001000
00000000
00000000
00000010
00000000
00000000
00000001
00000000
,
00000200
00000000
00000000
00000300
,
00000002
00000000
00000000
00000003
,
00001010
00000000
00011000
00000000
,
02020000
00000000
00000000
00000000
,
00000000
00000000
00000000
03030000
;

//---------------dance-double - ----------------
#NOTES:
     dance-double:
     :
     Hard:
     9:
     0.866,1.000,0.145,0.048,0.048,484.000,12.000,4.000,0.000,0.000:
00000000
00000000
00000000
00000000
,
00000000
00000000
00000000
00000000
,
00000000
00000000
00000000
00000000
,
00000000
00000000
00000000
00000000
,
00100000
00000000
00100000
00000000
10000000
01000000
10000000
00000000
,
00010000
00000000
00010000
00000000
01000000
00010000
01000000
00000000
,
00010000
00000000
00010000
00000000
00100000
00001000
00100000
00000000
,
00001000
00010000
00000100
00000000
,
00001000
00000000
00001000
00000000
00000001
00000100
00000001
00000000
,
00000100
00000000
00000100
00000000
00000010
00010000
00000010
00000000
,
00010000
00000000
00010000
00000000
00001000
00010000
01000000
00000000
,
10000000
00100000
01000000
00000000
,
00010000
00000000
01000000
00010000
01000000
00010000
00000000
01000000
,
00001000
00000000
00010000
00001000
00010000
00001000
00000000
00010000
,
00000100
00001000
00000100
00000000
00001000
00000001
00001000
00000000
,
00000001
00000100
00000010
00001000
00000100
00000010
00000001
00001000
,
00000001
00000100
00001000
00010000
,
00100000
10000000
01000000
00010000
,
00001000
00000010
00000001
00000100
,
00001000
00010000
00100000
10000000
,
01000000
00000000
10000000
00000000
01000000
10000000
00000000
01000000
,
00100000
00000000
00010000
00000000
00100000
00010000
00000000
00100000
,
00001000
00000000
00010000
00000000
00001000
00010000
00000000
00001000
,
00010000
00000100
00001000
00000001
,
00000100
00001000
00000100
00000001
,
00000100
00001000
00000100
00000001
,
00000100
00001000
00010000
00100000
,
10000000
00100000
00010000
00100000
,
10000000
00100000
00010000
00100000
,
00010000
00100000
10000000
00100000
,
01100000
00000000
00000000
00011000
00000000
00000000
00010010
00000000
,
00001000
00000100
00010000
00000100
00001000
00000010
00010000
00000010
,
00001000
00000100
00001000
00000010
,
00001000
00000100
00000000
00000010
,
00001000
00000100
00000010
00000001
,
00000100
00001000
00010000
00100000
,
10000000
01000000
00010000
00001000
,
00000100
00000001
00000010
00000100
,
00011000
00000000
00010000
00000100
,
00001000
00000001
00000100
00000000
,
00001010
00000000
00011000
00000000
,
01000000
10000000
01000000
00000000
,
00100000
00000000
00001000
00010000
00001000
00010000
00001000
00000000
,
00010000
00000100
00000010
00000000
,
00000001
00000100
00000001
00000100
,
00000010
00000100
00000010
00000100
,
00000010
00001000
00000010
00001000
,
00000100
00010000
00000100
00010000
,
00001000
00010000
00001000
00010000
,
00001000
01000000
00001000
01000000
,
00010000
10000000
00010000
10000000
,
01000000
10000000
01000000
10000000
,
00010000
00100000
00010000
00100000
,
00001000
00010000
00001000
00010000
,
00000010
00010000
00001000
00000000
,
00101000
00000000
00010100
00000000
,
00001000
00000000
00010000
00000000
00001000
00010000
00000000
00010000
,
00000100
00000000
00010000
00000000
00000100
00010000
00000000
00010000
,
00001000
00000000
01000000
00000000
00001000
01000000
00000000
01000000
,
00010000
00010000
00010000
00000000
,
00100000
00000000
00001000
00000000
00100000
00001000
00000000
00001000
,
00010000
00000000
00000010
00000000
00010000
00000010
00000000
00001000
,
00000100
00010000
00001000
00010000
00000100
00010000
00001000
00010000
,
00001000
00001000
00001000
00000000
,
00000010
00000000
00010000
00000000
00000010
00010000
00000000
00010000
,
00001000
00000000
00100000
00000000
00001000
00100000
00000000
00100000
,
00001000
00000000
00010000
00000000
00001000
00010000
00001000
00010000
,
00001000
00001000
00001000
00000000
,
00100000
00000000
10000000
00000000
01000000
00010000
00000000
00001000
,
00000010
00000000
00000001
00000000
00000100
00001000
00000000
00010000
,
00001000
00010000
00100000
00000000
00010000
00001000
00010000
00000000
,
00000100
00000000
00022000
00000000
,
00000000
00000000
00000000
00000000
,
00000000
00000000
00000000
00000000
00000000
00033000
00000000
00000000
,
10000000
01000000
10000000
01000000
10000000
00000000
00010000
01000000
,
00000000
00010000
01000000
00000000
00001000
00000000
00010000
00000000
,
00001000
00000000
00001000
00000100
00001000
00000000
00000010
00001000
,
00000000
00000001
00000010
00000000
00000100
00000000
00010000
00000000
,
00001000
00010000
00001000
00010000
00001000
00010000
00001000
00010000
,
00000000
00000010
00001000
00000000
00000001
00000000
00000100
00000000
,
00000010
00001000
00000010
00001000
00000010
00001000
00000010
00001000
,
00000010
00010000
00001000
00100000
,
00100000
00010000
00100000
00010000
00100000
00000000
00001000
00010000
,
00001000
00010000
00001000
00000000
00010000
00000000
00000100
00010000
,
00000100
00000000
00000010
00000001
00000010
00000001
00000010
00000000
,
00000001
00000100
00000001
00000100
00000001
00000000
00000100
00000010
,
00000100
00000010
00000100
00000000
00001000
00010000
00001000
00010000
,
00001000
00000000
00100000
00010000
00100000
00010000
00100000
00000000
,
00010000
10000000
00010000
10000000
00010000
00000000
10000000
01000000
,
00100000
00010000
10000000
00010000
01000000
00100000
10000000
00010000
,
01000000
00000000
00000000
00001000
00000000
00010000
00001000
00000000
,
00010000
00000000
00001000
00000000
00000000
00010000
00000000
00000000
,
00000100
00000000
00000000
00010000
00000000
00001000
00010000
00000000
,
00001000
00000000
00010000
00000000
00000000
00001000
00000000
00000000
,
00100000
00000000
00000000
00010000
00000000
10000000
01000000
00000000
,
00010000
00000000
00000000
00001000
00000000
00000010
00000001
00000000
,
00000100
00000000
00000000
00001000
00000000
00010000
00100000
00000000
,
10000000
00000000
11000000
00000000
00000000
00110000
00000000
00000000
,
00100000
00010000
00100000
00001000
00010000
00000100
00001000
00000100
,
00000010
00000001
00000010
00000001
00000100
00000010
00001000
00000010
,
00010000
00001000
00010000
00001000
01000000
00010000
10000000
00100000
,
10000000
00100000
01000000
00010000
01000000
00010000
01000000
00001000
,
00010000
00001000
00010000
00000010
00001000
00000001
00000100
00001000
,
00000100
00000001
00001000
00000010
00000100
00000001
00001000
00000000
,
00000001
00000000
00000000
00000000
00000000
00000000
00000000
00000000
00000100
00000000
00000000
00000000
00000000
00000000
00000000
00000010
00000000
00000000
00000000
00000000
00000000
00000000
00000000
00000000
00000000
00000000
00000000
00000000
00000000
00000000
00000000
00000000
00000000
00000000
00000000
00000000
00000000
00000000
00000000
00000000
00000000
00000000
00000000
00000000
00000000
00000000
00000000
00000000
,
00010000
00000000
00000000
00000000
00000000
00000000
00000000
00000000
00001000
00000000
00000000
00000000
00000000
00000000
00000000
01000000
00000000
00000000
00000000
00000000
00000000
00000000
00000000
00000000
00000000
00000000
00000000
00000000
00000000
00000000
00000000
00000000
00000000
00000000
00000000
00000000
00000000
00000000
00000000
00000000
00000000
00000000
00000000
00000000
00000000
00000000
00000000
00000000
,
00010000
00000000
00000000
00000000
00000000
00000000
00000000
00000000
00100000
00000000
00000000
00000000
00000000
00000000
00000000
00001000
00000000
00000000
00000000
00000000
00000000
00000000
00000000
00000000
00010000
00000000
00000000
00000000
00000000
00000000
00000000
00000000
00000010
00000000
00000000
00000000
00000000
00000000
00000000
00000100
00000000
00000000
00000000
00000000
00000000
00000000
00000000
00000000
,
00002020
00000000
00000000
00000000
,
00000000
00000000
00000000
00003030
;

//---------------dance-single - ----------------
#NOTES:
     dance-single:
     :
     Challenge:
     15:
     1.000,1.000,0.764,0.279,1.000,552.000,63.000,23.000,99.000,0.000:
MM00
0000
0000
0000
M0M0
0000
0000
0000
M00M
0000
0000
0000
M00M
0000
0000
0220
M00M
0000
0000
0000
M00M
0000
0000
0000
M00M
0000
0000
0330
M00M
0000
0000
0000
M00M
0000
0000
0000
M00M
0000
0000
0000
M0M0
0000
0000
0000
MM00
0000
0000
0000
,
0000
0000
0000
0000
M000
M000
M000
M000
M000
M000
M000
M000
,
M000
M000
M000
M000
M000
0000
0000
0000
0000
0000
MMMM
M000
,
M000
M000
M000
M000
MMMM
M000
M000
M000
M000
MMMM
0000
0000
,
0000
0000
0000
0000
,
0000
0000
2200
0000
,
0000
0000
0000
0000
,
0000
0000
0000
0000
0000
0000
0000
0000
0000
0000
0000
0000
0000
3300
0000
0000
,
0000
0000
0002
0000
0000
0000
0000
0000
0000
0000
0000
0000
0000
0003
0000
0000
,
0000
0000
0000
0000
,
0000
0000
0000
0000
1000
0000
0000
0100
0000
1000
0000
0100
,
0000
0000
0000
0000
0100
0000
0000
0010
0000
0001
0000
0000
,
0000
0010
0001
0000
0000
0000
0010
0001
0000
0000
0001
0000
,
2000
0000
0000
0100
0000
0000
0000
0000
0100
3000
0000
2000
,
0100
0000
0000
0000
0000
0010
0000
0000
0000
0000
0010
3000
,
0000
0000
1000
0000
0000
0001
0000
0000
0000
1000
0000
0000
,
0000
0000
0100
0000
0000
0000
0000
1000
0000
0000
0000
0000
,
0000
0001
0000
0000
0000
1000
0000
0000
0000
0100
0000
0000
,
1000
0001
1000
0001
,
1000
0000
0000
0000
0000
0000
0000
2000
0100
0000
0000
0100
,
0000
0000
0000
0000
0100
0000
3000
0000
1000
0100
0000
0000
,
0000
0000
1100
0000
0000
0000
0000
0100
1000
0000
0000
0000
,
0000
0000
0011
0000
0000
0000
0000
1100
0000
0000
0000
0000
,
0000
0011
0000
0000
0000
0000
0000
0000
0000
0000
1000
0000
,
0000
0000
0000
0100
0000
0000
1000
0100
0000
0000
0000
1000
,
0000
0000
0100
0000
0000
1000
0000
0000
0000
0000
0000
0100
,
1000
0000
0000
0000
0000
0100
1000
0000
0000
0000
0000
0100
,
1000
0000
0000
0000
,
0000
0010
0000
0001
0000
0000
0010
0000
0001
0000
0010
0000
,
0001
0000
0000
0000
1000
0000
0100
0000
0000
0000
0000
1000
,
0100
0000
0000
0000
0000
0011
0000
0000
0000
0000
1100
0000
,
0000
0000
0000
0000
0000
0110
0000
0000
0000
0000
0000
0000
,
1000
0000
0100
0000
0000
0000
1000
0100
0000
0000
1000
0100
,
0000
0000
0000
0000
1000
0000
0000
0000
0000
0000
0100
0000
,
0000
0000
1000
0000
0000
0000
0000
0000
0002
0000
0000
0000
,
0000
0000
0000
0000
0000
0000
0000
0000
0000
0000
0003
0000
,
1000
0000
0000
0100
0000
1000
0000
0000
0100
0000
1000
0000
,
0000
0100
0000
0000
0000
0010
0000
0000
0000
0000
0001
0000
,
0000
1010
0000
1100
,
0000
0000
0011
0000
0000
0000
0000
0000
0000
0000
1000
0100
,
0000
0000
0000
0100
0000
0000
0000
0000
1000
0100
0000
0000
,
0000
0000
0010
0000
1000
0000
0000
0000
0000
0001
0000
0000
,
0000
0000
1000
0000
0000
0000
0000
0000
2000
0000
0000
0000
,
0000
0000
0000
0000
0000
0000
0000
0000
0000
0000
0000
3000
,
0000
2100
0000
0000
0000
0100
0000
0000
0000
0100
0000
0000
,
0000
0000
3001
0000
0010
0000
0000
0000
0001
0000
0010
0000
,
0000
0000
0000
0000
1100
0000
0000
0000
0000
0110
0000
0000
,
0000
0000
0000
0101
0000
0000
0000
0000
0001
0000
0010
0000
,
0000
0000
0000
0100
0000
0000
0001
0000
0000
0000
0000
2000
,
0000
0000
0010
0000
0000
0000
0000
0000
0000
0000
0000
0000
0000
0000
0000
0000
3000
0000
0000
0000
0000
2020
0000
0000
,
0M0M
0000
0000
000M
0000
0000
0M0M
0000
0000
000M
0000
0000
3M3M
0000
0000
0000
1000
0000
0000
0000
0000
0000
0000
0000
,
0000
0000
0100
1000
0000
0000
0000
0100
1000
0000
0000
0000
,
0000
1000
0000
0000
0000
0000
0100
1000
0000
0000
0000
0100
,
0000
1000
0000
0000
0000
0100
1000
0000
0000
0000
0100
0000
,
1000
0000
0000
0100
0000
1000
0000
0000
0000
0100
0000
0000
,
0000
0100
0000
1000
0000
0000
0100
0000
1000
0000
0000
0000
,
0100
0000
0000
1000
0100
0000
0000
1000
0000
0100
0000
0000
,
0000
1000
0100
0000
0000
1000
0000
0100
0000
0000
1000
0100
,
0000
0000
0000
1000
0000
0100
0000
0000
0000
0000
0010
1000
,
0000
0000
0010
0100
0000
0000
0000
0010
1000
0000
0000
0000
,
0010
0001
0000
0000
0010
0000
0001
0000
0000
0010
0000
0100
,
0000
0000
0010
0000
1000
0000
0000
0100
0000
0001
0000
0000
,
1000
0000
0001
0000
0000
0001
0010
0000
0000
0000
0010
0000
,
0000
0000
0001
0000
0010
0000
0000
0000
0001
0010
0000
0000
,
0000
0001
0000
0010
0000
0000
0001
0000
0010
0000
0000
0000
,
0001
0010
0000
0000
0000
0001
0000
0010
0000
0000
0000
0010
,
0000
0100
0000
0000
0100
1000
0000
0000
0000
0000
0100
0010
,
0000
0000
0000
0000
0000
0100
0001
0000
0010
0000
0100
0000
,
0000
0010
0000
0100
0000
0000
0000
0010
0100
0000
0000
0000
,
0100
0001
0000
0001
0000
1000
0000
0000
0000
0000
0001
1000
,
0000
0000
0000
0001
0000
0000
0010
0000
0001
0000
0000
0000
,
0011
0000
0000
0000
0000
0001
1000
0000
0000
0000
0010
1000
,
0000
0000
0000
0000
0000
0000
0000
0000
0000
0000
0000
0000
0000
0000
0000
0000
0000
0000
0000
0000
0000
0000
0000
0000
0000
0000
0000
0000
0000
0000
0000
0000
0000
0000
0000
0000
0000
0000
0000
0000
0000
0000
0000
0000
0000
0000
0000
0000
0000
0000
0000
0000
0000
0000
0000
0000
0000
0000
0000
0000
0000
0000
0000
0000
0010
0000
0000
0000
0000
0000
0000
0000
0000
0000
0000
0000
0000
0000
0000
0000
0000
0000
0000
0000
0000
0000
0000
0000
0000
0000
0000
0000
0000
0000
0000
0000
0000
0000
0000
0000
0000
0000
0000
0000
0000
0000
0000
0000
0000
0000
0000
0000
0000
0000
0000
0000
0000
0000
0000
0000
0000
0000
0000
0000
0000
0000
0000
0000
0000
0000
0000
0000
0000
0000
0000
0000
0000
0000
0000
0000
0000
0000
0000
0000
1000
0000
0000
0000
0000
0000
0000
0000
0000
0000
0000
0000
00MM
0000
0000
0000
0000
0000
0M00
0000
0000
0000
0000
0000
0000
0000
0000
0000
0000
0000
0000
0000
0000
0000
0000
0000
0000
0000
0000
0000
0000
0000
0010
0000
0000
0000
0000
0000
,
MM0M
0000
0000
0100
00M0
M000
0001
0000
1000
0MM0
0000
0000
0000
0000
000M
M100
0010
0000
0000
0M00
0000
1000
0MM0
0000
0000
0000
0000
0000
0000
0000
0000
0000
,
0000
0000
0000
0000
0000
1000
0000
0100
0000
0000
1000
0100
,
0000
0000
0000
0000
0010
0100
0000
0000
0000
0001
0010
0000
,
0000
0000
0000
0001
0000
1000
0000
0000
0010
0000
0000
0000
,
1000
0000
0001
0000
0000
1000
0000
0000
0010
0000
0000
0000
,
0000
1001
0000
0000
0010
1000
0000
0000
0001
0000
0000
0010
,
0000
0000
0001
0000
0000
0000
0000
0000
0000
0000
0000
0000
,
M202
0000
0000
0000
0000
0000
0000
0000
0000
00M0
0000
0000
M0M0
0000
0000
00M0
0000
0000
00M0
0000
0000
M0M0
0000
0000
00M0
0000
0000
M0M0
0000
0000
M000
0000
0000
M000
0000
0000
M000
0000
0000
0303
0000
0000
0000
0000
1000
0000
0000
0000
,
0000
0100
0000
0000
0000
1000
0100
0000
0000
1000
0100
0000
,
0000
0000
1000
0100
0000
0000
1000
0000
0100
0000
0000
0000
,
0001
0100
0010
0000
0000
0000
0001
0010
0000
0000
0001
0000
,
0010
0000
0000
0001
0000
0010
0000
0001
0000
0010
0000
0000
,
0000
0010
1000
0000
0000
0000
0000
0100
0000
0010
0000
0000
,
0001
0000
1000
0000
0000
0000
0010
0000
1000
0000
0000
0100
,
0000
1000
0000
0100
0000
0000
1000
0000
0100
0000
0000
0000
,
0010
0001
0000
0000
0000
0000
0100
1000
0000
0000
0000
0000
,
0010
0000
1000
0000
0000
0010
0000
0000
0000
1000
0000
0010
,
0000
0000
0000
0001
0010
0000
0000
0100
0000
2000
0000
0000
,
0000
0000
0010
0000
0000
0000
3001
0000
1000
0000
0000
0000
,
0000
0000
0000
0000
0000
0100
0000
0010
0000
0000
0001
0000
,
0000
0000
1000
0000
0001
0000
0000
1000
0100
0000
0000
1000
,
0100
0000
0000
0000
0000
0010
1000
0000
0000
0000
0001
0000
,
1000
0000
0000
0010
0000
1000
0000
0000
0000
0000
0000
1000
,
0010
0000
0000
0000
1000
0100
0000
0000
0000
0100
0000
0000
,
0000
0000
0001
0010
0000
0000
0000
0001
0000
1000
0000
0000
,
0010
0000
1000
0000
0000
0001
0000
0000
1000
0000
0010
0000
,
0000
0000
0001
1000
0000
0000
0000
0000
0000
0000
0000
0000
,
0000
0100
1000
0000
0000
0000
0001
0010
0000
1000
0000
0000
,
0000
1000
0100
0000
0000
0000
0000
1000
0001
0000
0000
0000
,
2000
0001
0000
0000
0000
0001
0000
0000
0000
3000
0000
0000
,
1100
0000
0000
0000
0000
0000
0010
0100
0000
0000
0000
0000
,
0000
1000
0100
0000
0000
0000
0000
1000
0100
0000
0000
0000
,
0001
1000
0000
0000
0000
0001
1000
0000
0000
0000
0010
0000
,
1000
0000
0000
0001
0000
1000
0000
0000
0000
0000
0000
0010
,
0000
1000
0000
0100
0000
0000
0000
0010
0001
0000
0000
0000
,
0000
0000
1000
0100
0000
0000
0000
0000
1000
0100
0000
0000
,
0000
0010
0000
0000
0000
0000
0000
0001
0000
0000
0000
1000
,
0100
0000
0000
0000
0000
1000
0100
0000
0000
0000
0000
1000
,
0010
0000
0000
0000
0001
1000
0000
0000
0000
0000
1100
0000
,
0000
0000
0000
0000
1000
0100
0000
0000
0000
0000
0100
1000
,
0000
0000
0001
0000
0000
1000
0000
0000
0100
0000
0001
1000
,
0000
0100
MMMM
0000
0000
0000
0000
0000
,
0000
1000
0100
0000
0000
0000
1000
0000
0100
0000
0000
0000
,
0100
0000
0000
0000
1000
0100
0000
0000
0000
1000
0100
0000
,
0000
0000
1000
0000
0100
0000
0000
1000
0100
1000
0000
0000
,
0000
1100
0000
0000
0000
0000
0000
0010
0001
0000
0000
0000
,
0000
0011
0000
0000
0000
0000
0011
0000
0000
0000
0000
0010
,
0001
0000
0000
0000
0010
0001
0000
0000
0000
0001
0010
0000
,
0000
0000
0000
0011
0000
0000
0000
0000
0001
0010
0000
0000
,
0000
0001
0010
0000
0000
0000
0000
1000
0000
0010
0000
0000
,
0000
1000
0000
0010
0000
0000
0100
0010
0000
0000
0000
0000
,
0010
0100
0000
0000
0000
0010
0100
0000
0000
0001
0000
0000
,
0000
0000
0010
0001
0000
0000
0000
0000
0010
0001
0000
0000
,
0010
0000
0001
0000
0000
0000
1000
0000
0100
0000
0000
0000
,
1100
0000
0110
0000
,
0100
0010
0000
0000
0001
0000
0000
0000
0000
0010
0000
0000
,
0000
0000
0000
0000
0110
0000
0000
0000
0000
0010
0100
0000
,
0000
0000
0010
0000
0000
0000
0000
0000
0001
0000
1000
0000
,
0000
0100
0000
0010
0000
0000
0000
0000
0100
0000
0010
0000
,
0000
0100
0000
0000
2000
0000
0001
0000
0000
0000
0000
0001
,
0000
3000
0000
1000
0000
0001
0000
0000
1000
0001
0000
0000
,
0000
0000
0100
0000
0010
0000
0000
0100
0000
0000
0010
0000
,
0000
0100
0001
0000
0000
0000
0000
0100
0010
0000
0000
0001
,
0000
1000
0000
0000
0010
0000
0000
0000
0001
0000
0000
1010
,
0000
0000
0001
0000
0010
0000
0100
0000
0001
0000
0000
0010
,
1000
0000
0000
0000
0000
0100
1000
0000
0000
0000
0100
0000
,
1000
0000
0000
0100
0000
1000
0000
0000
0001
0000
0000
0100
,
0000
0000
0010
0000
0000
0100
0000
0000
0010
0000
0000
0000
,
0101
0000
0000
0000
0000
0000
0000
1010
0000
0000
0000
0000
,
0001
1000
0000
0000
0000
0010
0000
0000
0000
0100
0001
0000
,
0000
0100
0010
0000
0000
0001
0000
0100
0000
0010
0000
0000
,
0001
0000
0100
0000
0000
0000
0000
0001
0110
0000
0000
0000
,
0000
0000
2200
0000
0000
0000
0000
3300
0000
0000
1000
0000
,
0100
0000
0010
0000
0000
0001
0000
1000
0001
0000
1100
0000
,
0000
1100
0000
0000
0101
0000
0110
0000
0000
1000
0100
0000
,
0000
0100
0000
0000
1000
0000
0000
1100
0000
0000
0001
0000
,
0000
0101
0000
0000
1000
0000
0000
1100
0000
1001
0000
0000
,
0000
1100
0000
0010
0000
0000
0110
0000
0000
0000
0001
0000
,
0000
1010
0000
0000
1001
0000
0000
1000
0000
0000
0001
0000
,
0110
0000
0000
0000
1000
0000
1100
0000
0000
0000
0001
0000
,
0000
0000
1100
0000
0000
0000
0000
0110
0000
1100
0000
1001
,
1010
0110
0000
0000
1010
0101
0000
0000
1001
0000
1100
0011
,
1100
1100
0000
0000
1100
0000
0000
0000
0000
0000
2002
0000
,
0000
0000
0000
0000
,
0000
0000
0000
0000
0000
0000
0000
0000
0000
0000
0000
0000
0000
0000
0000
0000
0000
0000
0000
0000
0000
0000
0000
0000
0000
0000
0000
0000
0000
0000
0000
0000
0000
0000
0000
0000
0000
0000
0000
0000
0000
0000
0000
0000
0000
0000
0000
0000
0000
0000
0000
0000
0000
0000
0000
0000
0000
0000
0000
0000
0000
0000
0000
0000
0000
0000
0000
0000
0000
0000
0000
0000
0000
0000
0000
0000
0000
0000
0000
0000
0000
0000
0000
0000
0000
0000
0000
0000
0000
0000
0000
0000
0000
0000
0000
0000
0000
0000
0000
0000
0000
0000
0000
0000
0000
0000
0000
0000
0000
0000
0000
0000
0000
0000
0000
0000
0000
0000
0000
0000
0000
0000
0000
0000
0000
0000
0000
0000
0000
0000
0000
0000
0000
0000
0000
0000
0000
0000
0000
0000
0000
0000
0000
0000
0000
0000
0000
0000
0000
0000
0000
0000
0000
0000
0000
0000
0000
3003
0000
0000
0000
0000
0000
0000
0000
0000
0000
0000
0000
0000
0000
0000
0000
0000
0000
0000
0000
0000
0000
0000
0000
0000
0000
0000
0000
0000
0000
0000
0000
0000
0000
0000
;
