#TITLE:Running in the 90's;
#SUBTITLE:EXoduz Violation;
#ARTIST:Max Coveri;
#TITLETRANSLIT:;
#SUBTITLETRANSLIT:;
#ARTISTTRANSLIT:;
#CREDIT:;
#BANNER:../Banner.png;
#BACKGROUND:../background.png;
#LYRICSPATH:;
#CDTITLE:;
#MUSIC:Running in the 90's.OGG;
#OFFSET:0.021;
#SAMPLESTART:24.620;
#SAMPLELENGTH:15.000;
#SELECTABLE:YES;
#DISPLAYBPM:159.000;
#BPMS:0.000=158.500,477.000=317.000,481.000=158.500,511.000=317.000,513.000=158.500,543.000=317.000,545.000=158.500;
#STOPS:477.000=0.189
,478.000=0.189
,479.000=0.189
,480.000=0.189
,511.000=0.047
,511.250=0.047
,511.500=0.047
,511.750=0.047
,512.000=0.047
,512.250=0.047
,512.500=0.047
,512.750=0.047
,543.000=0.189
,544.000=0.189
;
#BGCHANGES:;
// cache tags:
#FIRSTBEAT:1.000;
#LASTBEAT:590.000;
#SONGFILENAME:Songs/EXoduz Violation/Running in the 90's/Running in the 90's.SM;
#HASMUSIC:1;
#HASBANNER:1;
#MUSICLENGTH:105.000;
// end cache tags

//---------------dance-single - ----------------
#NOTES:
     dance-single:
     :
     Challenge:
     14:
     1.000,1.000,0.771,0.705,1.000,1762.000,81.000,74.000,8.000,4.000:

0000
0000
MMMM
0000
MMMM
0000
0100
0001
,
0100
0000
1000
0100
0010
0001
0100
0010
,
1000
0100
0010
0001
0100
0000
0001
0010
,
0100
0000
0001
1000
0001
0100
0001
1000
,
0100
0010
0001
1000
0010
0000
0100
0001
,
0010
0000
0100
1000
0001
0100
0010
1000
,
0100
0010
0001
1000
0100
0000
0001
1000
,
0001
0000
1000
0100
0010
0001
0010
0100
,
0010
0000
1000
0000
0100
1000
0100
0010
0001
1000
0100
0010
0001
1000
0100
0010
,
0001
0000
1000
0000
0001
0000
1000
0000
0000
0010
0000
0000
0100
0000
0001
0000
1000
0000
0100
0000
0000
0010
0000
0000
0001
0000
0000
1000
0000
0000
0010
0000
0000
1000
0000
0000
0001
0000
0000
0010
0000
0000
0001
0000
0000
1000
0000
0000
,
0100
1000
0001
0100
0001
1000
0010
0100
0001
0010
0100
1000
0001
0100
0001
0010
,
0100
1000
0100
0010
0100
1000
0200
0000
0000
0000
0000
0000
0000
0000
0000
0000
0000
0000
0000
0000
0000
0000
0000
0000
,
0000
0000
0000
0000
0301
1000
0001
0100
0001
0010
0100
1000
0010
0100
0001
1000
,
0001
0010
0100
1000
0100
0010
0001
1000
0010
0100
0010
0100
0001
0010
0100
1000
,
0001
1000
0010
1000
0010
1000
0100
0010
0001
0100
0001
0100
0001
1000
0001
1000
,
0100
0010
0001
1000
0100
0000
1001
0000
0110
0000
0011
0000
1010
0000
0101
0000
,
1001
0000
0000
0000
0000
0000
1100
0000
0000
0000
0000
0000
1000
0000
0001
0000
1000
0000
0001
0000
1000
0000
0001
0000
1000
0000
0000
0001
0000
0000
0100
0000
0000
0010
0000
0000
0100
0000
0010
0000
0100
0000
0010
0000
0100
0000
0010
0000
,
0100
0000
0000
0001
0000
0000
0010
0000
0000
0100
0000
0000
1000
0000
0010
0000
1000
0000
0010
0000
1000
0000
0010
0000
1000
0000
0000
0001
0000
0000
0100
0000
0000
0010
0000
0000
1000
0000
0001
0000
0100
0000
0001
0000
0100
0000
0001
0000
,
0100
0000
0000
0001
0000
0000
0100
0000
0000
0010
0000
0000
1000
0000
0100
0000
1000
0000
0100
0000
1000
0000
0100
0000
1000
0000
0000
0010
0000
0000
1000
0000
0000
0100
0000
0000
0010
0000
0001
0000
0010
0000
0001
0000
0010
0000
0001
0000
,
0010
0100
1000
0100
0010
0001
1000
0001
0100
0010
1000
0001
0100
0010
1000
0100
,
0010
0000
0000
0001
0000
0000
1000
0000
0000
0100
0000
0000
1000
0000
0100
0000
1000
0000
0010
0000
1000
0000
0100
0000
1000
0000
0000
0100
0000
0000
0010
0000
0000
0001
0000
0000
1000
0000
0100
0000
0010
0000
0001
0000
0010
0000
0001
0000
,
0010
0000
0000
0100
0000
0000
1000
0000
0000
0001
0000
0000
0010
0000
0100
0000
1000
0000
0100
0000
1000
0000
0100
0000
1000
0000
0000
0001
0000
0000
1000
0000
0000
0010
0000
0000
1000
0000
0001
0000
0100
0000
0010
0000
0100
0000
0010
0000
,
0100
0000
0000
0001
0000
0000
1000
0000
0000
0001
0000
0000
1000
0000
0001
0000
0100
0000
0010
0000
1000
0000
0001
0000
0100
0000
0000
0001
0000
0000
0100
0000
0000
0001
0000
0000
0010
0000
0100
0000
1000
0000
0100
0000
1000
0000
0100
0000
,
1000
0001
0100
0010
1000
0000
1100
0000
0011
0000
1100
0000
0011
0000
0110
0000
,
1001
0110
1001
0000
2000
0000
3100
0020
,
0000
0031
0100
0010
2000
0000
3100
0020
,
0000
0032
0000
2003
0000
3020
0000
0000
,
0000
0030
1100
0000
0110
0000
0011
1100
,
0000
0110
2001
3000
0010
0100
0001
0010
,
0100
1000
0002
0000
0103
0001
0010
0200
,
0000
2300
0000
3020
0000
0130
0001
0010
,
0100
1000
0002
0000
2003
0000
3002
1003
,
0100
0010
0002
0000
2003
0000
3100
0010
,
0002
0000
1003
0001
1000
0001
0100
0010
,
1000
0100
0010
0001
0010
0100
1000
0010
,
0100
0001
0020
0000
0032
2003
0000
3200
,
0320
0000
0031
0000
0100
0000
1001
1000
,
1001
0000
1000
0100
0010
0001
1000
0100
,
0020
0000
0032
0003
2000
0000
3001
0010
,
0001
0000
0022
0033
0022
0033
0022
0033
,
0022
0000
0033
0000
1000
0001
0100
0010
1000
0100
0010
0001
0100
0001
0010
0100
,
0010
0001
1000
0010
0100
0001
1000
0001
1000
0010
0100
0001
0010
0100
1000
0001
,
1000
0100
1000
0001
1000
0010
0100
0010
1000
0001
1000
0001
0010
0100
1000
0001
,
0010
0100
1000
0001
0100
0010
1000
0001
1000
0010
1000
0001
1000
0010
1000
0001
,
0010
0100
1000
0001
1000
0001
0010
0100
1000
0001
1000
0001
0100
0010
1000
0001
,
0100
0010
1000
0100
0010
0001
1000
0001
1000
0001
0010
0100
0010
0001
1000
0001
,
0100
0001
1000
0010
1000
0100
0010
0001
1000
0010
1000
0100
0010
0001
0100
0010
,
1000
0000
0000
0100
0000
0000
0010
0000
0000
0001
0000
0000
0100
0000
0000
0001
0000
0000
0100
0000
0000
0001
0000
0000
0100
0000
0000
0010
0000
0000
0100
0000
0000
0010
0000
0000
0100
0000
0010
0000
1000
0000
0001
0000
0100
0000
0010
0000
,
1000
0000
0001
0000
0010
0000
0100
0000
1000
0000
0010
0000
1000
0000
0000
0001
0000
0000
1000
0000
0000
0010
0000
0000
0100
0000
0000
0001
0000
0000
0100
0000
0000
0001
0000
0000
0010
0000
0000
0100
0000
0000
1000
0000
0000
0001
0000
0000
,
0100
0010
1000
0100
0010
0001
1000
0001
1000
0010
0100
0010
0100
0001
0010
0100
,
1000
0001
0010
0100
1000
0010
0100
0010
0100
0001
0100
0010
1000
0001
1000
0001
,
0010
0100
1000
0100
1000
0100
0010
0001
0010
0001
0010
0100
1000
0100
1000
0001
,
0100
0010
1000
0100
0010
0001
0010
0001
0010
0100
1000
0001
1000
0010
0100
0001
,
0010
0100
1000
0001
1000
0001
1000
0010
1000
0100
0010
0001
0100
0001
0100
0001
,
0010
0001
1000
0001
0100
0001
0010
0100
0010
0100
1000
0100
2000
0000
0000
0000
,
3010
0200
0000
0301
0010
0100
1000
0000
,
0110
0000
0000
0000
0000
0000
0000
0000
0000
0000
0000
0000
1000
0000
0001
0000
1000
0000
0001
0000
1000
0000
0001
0000
1000
0000
0000
0100
0000
0000
0010
0000
0000
0001
0000
0000
0100
0000
0010
0000
0100
0000
0010
0000
0100
0000
0010
0000
,
0100
0000
0000
0010
0000
0000
1000
0000
0000
0100
0000
0000
0010
0000
0001
0000
0010
0000
0001
0000
0010
0000
0001
0000
0010
0000
0000
0001
0000
0000
0010
0000
0000
0100
0000
0000
1000
0000
0001
0000
1000
0000
0001
0000
1000
0000
0001
0000
,
1000
0000
0000
0001
0000
0000
0100
0000
0000
0010
0000
0000
1000
0000
0100
0000
1000
0000
0010
0000
1000
0000
0100
0000
1000
0000
0000
0010
0000
0000
0100
0000
0000
0010
0000
0000
0100
0000
0001
0000
1000
0000
0010
0000
0100
0000
0001
0000
,
1000
0100
0010
0001
0100
0010
1000
0010
1000
0001
1000
0100
0010
0001
0100
0010
,
0100
0000
0000
0001
0000
0000
0100
0000
0000
0001
0000
0000
0100
0000
0001
0000
0100
0000
0001
0000
0100
0000
0001
0000
0100
0000
0000
0010
0000
0000
1000
0000
0000
0100
0000
0000
0010
0000
0100
0000
0010
0000
0100
0000
0010
0000
0001
0000
,
1000
0000
0000
0100
0000
0000
0010
0000
0000
0001
0000
0000
1000
0000
0001
0000
0100
0000
0001
0000
0100
0000
0001
0000
0100
0000
0000
0001
0000
0000
0010
0000
0000
0001
0000
0000
0100
0000
0001
0000
0010
0000
0100
0000
1000
0000
0100
0000
,
1000
0000
0000
0001
0000
0000
1000
0000
0000
0100
0000
0000
1000
0000
0100
0000
0010
0000
0001
0000
1000
0000
0100
0000
0010
0000
0000
0001
0000
0000
0100
0000
0000
0010
0000
0000
0100
0000
0001
0000
1000
0000
0001
0000
1000
0000
0001
0000
,
1000
0100
0010
0001
1000
0000
0011
0000
1100
0000
0011
0000
0110
0000
0110
0000
,
0110
1001
1100
0000
0200
0000
0320
0032
,
0000
0103
0010
1000
0200
0000
0310
0002
,
0000
2003
0000
3020
0000
0230
0000
0301
,
0010
0100
1001
0000
1001
0000
1001
0001
,
0010
0100
2000
0000
3001
1000
0001
0100
,
0010
1000
0200
0000
0310
0001
0010
0100
,
1000
0010
0100
0001
0010
0100
1000
0001
,
0100
0010
1100
0000
1100
0000
1100
0001
,
0000
1000
0001
0000
0101
0000
0100
0010
,
2000
0000
3100
0010
0001
1000
0001
1000
,
0001
0000
1100
0000
0110
0000
0010
0001
,
0100
0000
1001
0000
1000
0200
0000
0310
,
0001
0000
1001
0000
1100
0000
0100
0010
,
0200
0000
0310
0001
0100
0001
1000
0001
,
1001
0000
2000
0000
3100
0000
0011
0110
,
1001
1100
0110
0011
,
0110
0000
0000
0000
1000
0001
0010
0100
1000
0001
0100
0010
1000
0010
1000
0100
,
0010
0100
0010
0001
0100
0010
1000
0100
0010
0001
1000
0100
1000
0001
0010
0100
,
1000
0001
1000
0100
0010
0001
0100
0001
0100
0010
1000
0010
1000
0100
1000
0001
,
0100
0001
1000
0100
1000
0010
0100
0010
0100
0001
0010
0100
1000
0001
0010
0100
,
1000
0010
1000
0100
1000
0010
0100
0001
0010
0001
0100
0001
0010
0100
0010
0100
,
0010
0001
1000
0001
1000
0100
0010
0001
0100
0010
1000
0001
0100
0010
1000
0010
,
1000
0001
1000
0100
0010
0100
0010
0001
0010
0100
1000
0100
1000
0010
1000
0100
,
0010
0000
0000
0001
0000
0000
1000
0000
0000
0100
0000
0000
0010
0000
0000
0001
0000
0000
0100
0000
0000
0010
0000
0000
0100
0000
0000
0010
0000
0000
0100
0000
0000
0010
0000
0000
0100
0000
0001
0000
1000
0000
0001
0000
1000
0000
0001
0000
,
1000
0000
0001
0000
1000
0000
0001
0000
1000
0000
0001
0000
1000
0000
0000
0010
0000
0000
0100
0000
0000
0001
0000
0000
0100
0000
0000
0010
0000
0000
0100
0000
0000
0001
0000
0000
1000
0000
0000
0001
0000
0000
0100
0000
0000
0010
0000
0000
,
0100
0001
0100
0010
0100
0001
0010
1000
0010
1000
0010
0100
0001
1000
0100
1000
,
0001
0010
0001
1000
0010
1000
0001
0010
0100
1000
0100
1000
0001
1000
0010
1000
,
0100
1000
0001
1000
0010
1000
0100
0010
0001
1000
0001
1000
0010
0100
0001
0010
,
0100
1000
0001
1000
0001
1000
0001
1000
0100
0010
0001
1000
0100
0010
0001
1000
,
0100
0010
0001
0100
0010
1000
0010
1000
0010
1000
0100
0010
0001
0010
0001
0010
,
0100
1000
0001
0010
0100
1000
0001
0010
0100
1000
0001
0010
0100
0000
0000
0000
,
2001
0100
0000
0100
3001
0010
0021
0000
,
0130
0000
0000
0000
0000
0000
0000
0000
0000
0000
0000
0000
0100
0000
0010
0000
0100
0000
0010
0000
0100
0000
0010
0000
0100
0000
0000
1000
0000
0000
0001
0000
0000
0010
0000
0000
0100
0000
1000
0000
0100
0000
1000
0000
0100
0000
1000
0000
,
0100
0000
0000
0010
0000
0000
0100
0000
0000
0010
0000
0000
0001
0000
0010
0000
0100
0000
1000
0000
0100
0000
1000
0000
0001
0000
0000
0010
0000
0000
0100
0000
0000
1000
0000
0000
0001
0000
1000
0000
0010
0000
1000
0000
0010
0000
1000
0000
,
0001
0000
0000
1000
0000
0000
0001
0000
0000
1000
0000
0000
0010
0000
0100
0000
0010
0000
0100
0000
0001
0000
0100
0000
0010
0000
0000
0100
0000
0000
0001
0000
0000
0010
0000
0000
0100
0000
1000
0000
0001
0000
0010
0000
0100
0000
1000
0000
,
0001
1000
0001
0100
0010
1000
0010
1000
0001
1000
0100
0010
0001
1000
0100
1000
,
0100
0000
0000
0010
0000
0000
0001
0000
0000
0010
0000
0000
0100
0000
1000
0000
0001
0000
1000
0000
0001
0000
1000
0000
0001
0000
0000
0010
0000
0000
0100
0000
0000
1000
0000
0000
0001
0000
1000
0000
0001
0000
1000
0000
0001
0000
1000
0000
,
0001
0000
0000
0010
0000
0000
0100
0000
0000
0010
0000
0000
0001
0000
1000
0000
0001
0000
0100
0000
0010
0000
1000
0000
0010
0000
0000
0100
0000
0000
0001
0000
0000
1000
0000
0000
0001
0000
0010
0000
0100
0000
1000
0000
0100
0000
1000
0000
,
0100
0000
0000
1000
0000
0000
0001
0000
0000
0100
0000
0000
0010
0000
0100
0000
0010
0000
0100
0000
0010
0000
0100
0000
0001
0000
0000
0010
0000
0000
0100
0000
0000
1000
0000
0000
0001
0000
0010
0000
0001
0000
0010
0000
0001
0000
0010
0000
,
0001
0010
0100
1000
1100
0000
0100
0000
0110
0000
0010
0000
0011
0000
0001
0000
,
1001
1000
1100
0000
0100
1000
0010
0100
,
0001
0010
0100
0000
1000
0001
0000
0100
,
0000
0001
0010
0000
2100
3000
2200
3300
,
0001
0000
1010
0000
0120
0030
1001
1200
,
0300
0100
0110
0000
0010
0001
0100
0001
,
0010
0100
1000
0001
0100
0001
0010
0100
,
1000
0010
0100
0001
0010
0001
0010
0100
,
1000
0010
0100
0001
0010
0100
1000
0001
,
1000
0001
0100
0010
1000
0000
0200
0010
,
0302
0000
1003
0100
0010
0001
0010
0100
,
1000
0001
0100
0010
1000
0010
0100
0010
,
0100
0010
1001
0000
0110
0000
0110
0000
,
2001
0000
3001
0100
0010
1000
1100
0010
,
0001
1000
0001
1000
0001
1000
0100
0010
,
1001
0100
0010
1000
0001
0010
0200
1000
,
0301
0000
1221
0330
1221
0330
1221
0330
,
1221
0000
0330
0000
1000
0100
0010
0001
1000
0001
1000
0001
0010
0100
1000
0100
,
0010
0100
0010
0001
0010
0100
1000
0001
1000
0001
1000
0100
0010
0001
0100
0010
,
1000
0001
0100
0010
0100
0001
0010
0001
0010
0100
1000
0001
1000
0001
1000
0100
,
0010
0001
0100
0010
0100
0001
0010
0100
1000
0001
1000
0010
0100
0001
0010
0100
,
1000
0001
1000
0001
1000
0100
1000
0001
1000
0010
1000
0100
0010
0001
1000
0100
,
0010
0001
0100
0001
0010
0001
0010
0001
1000
0001
0100
0010
1000
0001
0100
0010
,
0100
0010
0001
0010
0001
1000
0001
1000
0100
0010
0001
1000
0100
0010
0001
0010
,
0100
0010
0100
1000
0001
1000
0100
0010
0001
1000
0001
1000
0001
1000
0001
0100
,
0010
1000
0001
0100
0001
1000
0001
1000
0001
0010
0100
1000
0100
0010
0100
0010
,
0001
0100
0001
0010
0001
0100
0001
0010
0100
0010
0100
1000
0001
1000
0010
0100
,
0010
1000
0001
1000
0100
0010
0100
0010
0001
1000
0100
0010
0001
0010
0100
1000
,
0001
0010
0100
1000
0001
1000
0001
0100
0010
0100
0010
0001
1000
0001
1000
0100
,
0010
0001
0100
0001
0010
0100
1000
0001
1000
0001
1000
0010
0100
0001
0010
0001
,
0010
0100
1000
0001
1000
0001
1000
0001
1000
0001
0100
0010
1000
0001
0100
0010
,
1000
0010
1000
0100
0010
0001
0010
0001
0100
0010
0100
0010
0100
0010
0100
1000
,
0001
0010
0100
1000
0001
1000
0001
1000
0010
0100
0001
1000
0020
0000
0000
0000
,
0230
0000
0000
0000
0000
0000
0000
0000
0000
0000
0000
0000
0301
0000
0100
0000
0001
0000
0100
0000
0001
0000
0100
0000
0001
0000
0000
0010
0000
0000
0100
0000
0000
1000
0000
0000
0001
0000
0010
0000
0001
0000
0010
0000
0001
0000
0010
0000
,
0001
0000
0000
0100
0000
0000
0010
0000
0000
1000
0000
0000
0001
0000
1000
0000
0010
0000
1000
0000
0010
0000
1000
0000
0010
0000
0000
0100
0000
0000
0010
0000
0000
0100
0000
0000
0010
0000
0100
0000
1000
0000
0001
0000
0010
0000
0100
0000
,
1000
0000
0000
0001
0000
0000
1000
0000
0000
0001
0000
0000
1000
0000
0100
0000
0010
0000
0100
0000
0010
0000
0001
0000
0010
0000
0000
0100
0000
0000
1000
0000
0000
0001
0000
0000
1000
0000
0001
0000
0100
0000
0001
0000
0100
0000
0001
0000
,
0100
0010
0100
0010
0100
0001
0010
0100
1000
0001
0010
0100
1000
0100
1000
0100
,
1000
0000
0000
0010
0000
0000
1000
0000
0000
0100
0000
0000
0010
0000
0001
0000
1000
0000
0100
0000
0010
0000
0001
0000
1000
0000
0000
0001
0000
0000
1000
0000
0000
0001
0000
0000
1000
0000
0010
0000
0100
0000
0010
0000
0100
0000
0010
0000
,
1000
0000
0000
0001
0000
0000
0100
0000
0000
0010
0000
0000
0100
0000
0010
0000
0100
0000
0010
0000
0100
0000
0010
0000
0100
0000
0000
0001
0000
0000
1000
0000
0000
0001
0000
0000
1000
0000
0001
0000
1000
0000
0001
0000
0010
0000
0100
0000
,
1000
0000
0000
0100
0000
0000
0010
0000
0000
0001
0000
0000
1000
0000
0001
0000
1000
0000
0001
0000
1000
0000
0001
0000
1000
0000
0000
0100
0000
0000
0010
0000
0000
0100
0000
0000
1000
0000
0100
0000
0010
0000
0001
0000
0010
0000
0001
0000
,
1000
0100
1000
0010
0001
0100
0010
0100
,
0001
1000
0220
0000
0000
0000
0000
0000
,
0000
0000
0000
0000
,
0000
0000
0000
0000
,
0000
0000
0330
0000
;
