#TITLE:Bunny Hop Jumper;
#SUBTITLE:;
#ARTIST:DJKurara;
#TITLETRANSLIT:;
#SUBTITLETRANSLIT:;
#ARTISTTRANSLIT:;
#CREDIT:lolipo;
#BANNER:bunny-bn.png;
#BACKGROUND:bunny-bg.png;
#LYRICSPATH:;
#CDTITLE:;
#MUSIC:Bunny Hop Jumper.ogg;
#OFFSET:-0.016;
#SAMPLESTART:28.469;
#SAMPLELENGTH:12.000;
#SELECTABLE:YES;
#BPMS:0.000=270.000;
#STOPS:;
#BGCHANGES:;
// cache tags:
#FIRSTBEAT:64.000;
#LASTBEAT:544.500;
#SONGFILENAME:Songs/Index Tournament 1/Bunny Hop Jumper - [Lolipo]/Bunny Hop Jumper.sm;
#HASMUSIC:1;
#HASBANNER:1;
#MUSICLENGTH:124.416;
// end cache tags

//---------------dance-single - lolipo----------------
#NOTES:
     dance-single:
     lolipo:
     Challenge:
     13:
     1.000,1.000,0.346,0.812,1.000,839.000,43.000,101.000,0.000,12.000:
0000
0000
0000
0000
,
0000
0000
0000
0000
,
0000
0000
0000
0000
,
0000
0000
0000
0000
,
0000
0000
0000
0000
,
0000
0000
0000
0000
,
0000
0000
0000
0000
,
0000
0000
0000
0000
,
0000
0000
0000
0000
,
0000
0000
0000
0000
,
0000
0000
0000
0000
,
0000
0000
0000
0000
,
0000
0000
0000
0000
,
0000
0000
0000
0000
,
0000
0000
0000
0000
,
0000
0000
0000
0000
,
1000
0000
0001
0000
0000
0001
1000
0000
0010
0100
0000
0001
,
0010
0000
0100
1000
0000
0010
0100
0001
0010
0100
1000
0001
,
0100
0000
0010
0000
0000
1000
0100
0000
0010
0001
0000
1000
,
0010
0000
1000
0100
0000
0010
0001
1000
0010
0100
0001
1000
,
0100
0000
1000
0000
0000
0100
0010
0000
0001
1000
0000
0100
,
0010
0000
0001
1000
0000
0010
0100
0001
1000
0100
0000
1000
,
0001
0000
1000
0000
0001
0000
1000
0100
0010
0001
1000
0010
,
0100
0000
0001
1000
0000
0100
0010
0001
1000
0001
0100
0010
,
1000
0000
0001
0000
0000
0001
1000
0000
0010
0100
0000
0001
,
0010
0000
0100
1000
0000
0001
0100
0010
1000
0001
1000
0100
,
0010
0000
0001
0000
0000
0010
0100
0000
1000
0001
0000
0010
,
0100
0000
1000
0001
0000
1000
0010
0100
0001
1000
0100
0010
,
0001
0000
0100
0000
0000
0001
1000
0000
0100
0010
0000
0001
,
1000
0000
0010
0100
0000
0001
0010
0001
0100
0010
1000
0001
,
0010
0000
0100
0000
0000
1000
0001
0100
0001
0010
0100
1000
,
0001
0000
0100
0010
0000
0010
1000
0001
1000
0100
0010
0001
,
1000
0000
0001
0010
0000
0001
1000
0000
0010
0100
0000
0001
,
0010
0000
0100
1000
0000
0010
0100
0001
0010
0100
1000
0001
,
0100
0000
0010
1000
0000
0001
0010
0000
0100
1000
0000
0001
,
0100
0000
0000
0000
0000
0000
0000
0000
0001
0000
0000
0000
0010
0000
0000
0000
0100
0000
0000
0000
1000
0000
0000
0000
0001
0000
0000
0000
0000
0000
0000
0000
0100
0000
0000
0000
0010
0000
0000
1000
0000
0000
0001
0000
0000
1000
0000
0000
,
0100
0000
1000
0001
0000
0100
0010
0000
1000
0001
0000
0010
,
0100
0000
1000
0001
0000
0100
0010
1000
0001
0010
0000
0001
,
1000
0010
0100
0001
0000
1000
0001
0010
0100
1000
0001
0100
,
0010
0000
1000
0001
0000
0010
0100
1000
0001
1000
0010
0100
,
0001
0000
1000
0100
0000
1000
0001
0000
0100
0010
0000
1000
,
0100
0000
0010
0001
0000
1000
0010
0100
0001
1000
0001
0010
,
0100
0000
1000
0001
0000
0100
0010
0000
1000
0001
0000
0010
,
0100
0000
1000
0001
0000
1000
0010
0100
0001
1000
0100
0010
,
0001
0000
0100
0010
0000
1000
0001
0000
0010
0100
0000
0000
,
1000
0000
0010
0100
0000
0001
0010
0001
0100
0010
1000
0001
,
0010
0100
1000
0001
1000
0100
1000
0010
0100
0001
1000
0100
,
0010
0000
0000
0000
0000
0001
1000
0010
0100
0001
0010
0100
,
1000
0000
0000
0000
,
0000
0000
0000
0000
,
0000
0000
0000
0000
,
0000
0000
0000
0000
,
1001
0000
0000
0000
,
0000
0000
0000
0000
,
0000
0000
0000
0000
,
0000
0000
0000
0000
0000
0000
0001
0000
1000
0010
0000
0100
,
0001
1000
0010
0100
,
0001
0000
0000
1000
0000
0000
0001
0000
1000
0001
1000
0100
,
0010
0001
0100
0001
,
1000
0000
0000
0010
0100
0001
1000
0100
0010
0001
0000
1000
,
0010
0000
0000
0000
0000
0000
0000
0000
0000
1000
0100
1000
,
0001
0000
0000
0100
,
0101
0000
1010
0000
,
0010
1000
1001
0000
,
1000
0000
0001
0100
0000
0010
0000
0000
1000
0100
0000
0000
,
1000
0000
0001
1000
0000
0100
0000
0000
1000
0010
0000
0000
,
0100
0000
0001
1000
0000
0100
0000
0000
1000
0001
0000
0100
,
0010
0000
0100
0001
0000
0010
0000
0000
0100
1000
0000
0000
,
0001
0000
1000
0010
0000
0100
0000
0000
0001
0010
0000
0000
,
0001
0000
1000
0001
0000
0010
0000
0000
0001
0100
0000
0000
,
0010
0000
1000
0001
0000
0010
0000
0000
0001
1000
0000
0010
,
0100
0000
0001
0000
1000
0000
0100
1000
0001
0100
0000
0000
,
0001
0000
1000
0010
0000
0100
0000
0000
0001
0010
0000
0000
,
0001
0000
1000
0001
0000
0010
0000
0000
0001
0100
0000
0000
,
0010
0000
1000
0001
0000
0010
0000
0000
0001
1000
0000
0000
,
0010
0000
0100
0001
0000
0010
0100
1000
0001
1000
0000
0000
,
0001
0000
1000
0010
0000
0100
0000
0000
0001
0010
0001
0100
,
0010
0000
1000
0001
0000
0010
0000
0000
0001
0100
0000
0010
,
1000
0100
0010
0001
1000
0001
0010
0001
1000
0010
0100
0001
,
0010
0100
1000
0010
0100
0010
1000
0001
1000
0100
0010
0001
,
2000
3000
0000
0000
0000
2020
3030
0000
0220
0330
0000
0000
,
0222
0333
0000
0000
0000
2002
3003
0000
2200
3300
0000
0000
,
2220
3330
0000
0000
0000
0022
0033
0000
2002
3003
0000
0000
,
2220
3330
0000
0000
0000
0220
0330
0000
0202
0303
0000
0000
,
2202
3303
0000
0000
0000
2020
3030
0000
0220
0330
0000
0000
,
0222
0333
0000
0000
0000
2002
3003
0000
2200
3300
0000
0000
,
2220
3330
0000
0000
0000
0022
0033
0000
2002
3003
0000
0000
,
1000
0000
0010
0100
0000
0010
0100
0000
,
2202
3303
0000
0000
0000
2002
3003
0000
2200
3300
0000
0000
,
2220
3330
0000
0000
0000
0220
0330
0000
0022
0033
0000
0000
,
2202
3303
0000
0000
0000
2002
3003
0000
2020
3030
0000
0000
,
0222
0333
0000
0000
0000
0220
0330
0000
2020
3030
0000
0000
,
2022
3033
0000
0000
0000
0202
0303
0000
2002
3003
0000
0000
,
2202
3303
0000
0000
0000
2200
3300
0000
0220
0330
0000
0000
,
0020
0000
0030
0001
0000
0000
1000
0000
0000
0001
0000
0000
0100
0000
0000
0001
0000
0000
0010
0000
0000
0100
0000
0000
,
1000
0001
1000
0100
0010
0001
0100
0010
0100
0001
1000
0010
,
1000
0000
0001
0000
0100
0000
0001
1000
0001
0010
0100
0000
1000
0000
0001
0000
,
1000
0000
0010
0000
0100
0000
0001
1000
0001
0100
0010
0000
1000
0000
0001
0000
,
1000
0000
0001
0000
0010
0000
0100
1000
0001
0100
0001
0000
1000
0000
0100
0000
,
1000
0000
0001
0000
0100
0000
0010
1000
0010
0100
0001
0000
1000
0000
0100
0000
,
0010
0000
0001
0000
1000
0000
0001
0100
0001
1000
0100
0000
0010
0000
0001
0000
,
1000
0000
0001
0000
0100
0000
0010
1000
0001
1000
0100
0000
0010
0000
0001
0000
,
1000
0000
0001
0000
0100
0000
0010
1000
0010
0100
0001
0000
1000
0000
0100
0000
,
0010
0001
1000
0002
0003
1000
0200
0300
,
1000
0000
0001
0000
1000
0000
0001
0100
0001
1000
0100
0000
0010
0000
0001
0000
,
0100
0000
0010
0000
1000
0000
0001
0100
0001
1000
0100
0000
0010
0000
0001
0000
,
1000
0000
0001
0000
0100
0000
0010
1000
0001
1000
0100
0000
0010
0000
0001
0000
,
0100
0000
0001
0000
1000
0000
0001
1000
0001
0010
0100
0000
2000
0000
3000
0000
,
0001
1000
0010
0100
0001
1000
0001
0100
,
0010
1000
0100
0010
0001
1000
0001
0100
,
0010
1000
0100
1000
0010
0100
0001
0010
,
0001
0100
0001
0010
0100
1000
0010
0100
0001
1000
0100
0010
,
0001
0000
1000
0010
0000
1000
0100
0000
0010
0001
0000
0100
,
0010
0000
1000
0001
0010
0100
1000
0001
0100
0010
0000
1000
,
0100
0000
1000
0010
0000
0100
0001
0000
0010
0100
0000
1000
,
0010
0000
0100
0001
0000
1000
0100
1000
0001
0100
0010
1000
,
0001
0010
0100
1000
0010
0100
0010
1000
0001
0010
0100
0010
,
0001
1000
0010
1000
0001
0100
0010
1000
0001
0010
0001
1000
,
0400
0000
0000
0000
0000
0000
0000
0300
,
1001
0000
0000
0000
,
1000
0000
0001
1000
0000
0010
0100
0000
0001
0010
0000
0001
,
1000
0000
0100
1000
0000
0100
0010
0000
0001
1000
0000
0001
,
0010
0000
0001
1000
0000
0010
0100
0000
0001
1000
0000
0001
,
0010
0000
0001
1000
0000
0100
0010
0000
0001
0100
0000
0010
,
0100
0000
0001
1000
0000
0010
0100
0000
0001
1000
0000
0001
,
0010
0000
0001
1000
0000
0100
0010
0000
0001
1000
0000
0001
,
0100
0000
0010
1000
0000
0100
0010
0000
0001
1000
0000
0010
,
0100
0000
0010
0100
0000
0010
0100
0000
0010
0100
0000
0001
,
1000
0000
0020
0030
0100
0000
0020
0030
,
1000
0000
0002
0003
0100
0000
0002
0003
,
0010
0000
0200
0300
1000
0000
0200
0300
,
0010
0000
0000
0000
0000
0000
0002
0000
0000
0003
0000
0000
0100
0000
0000
0000
0010
0000
1000
0000
0001
0000
1000
0000
,
0100
0000
0000
1000
0000
0000
0010
0000
0100
0001
0000
1000
,
0100
0000
0000
1000
0000
0010
0000
0000
0100
0001
0000
0000
,
1000
0100
1000
0010
0100
0001
1000
0001
0010
0100
1000
0001
,
0100
0001
1000
0100
0010
0001
0100
0010
1000
0010
0100
0001
,
2000
3000
0000
0000
0000
0000
0000
0000
;
