#TITLE:We No Speak Americano;
#SUBTITLE:;
#ARTIST:Yolanda Be Cool vs DCUP;
#TITLETRANSLIT:;
#SUBTITLETRANSLIT:;
#ARTISTTRANSLIT:;
#CREDIT:;
#BANNER:../fallback - bn.png;
#BACKGROUND:../fallback - bg.png;
#LYRICSPATH:;
#CDTITLE:;
#MUSIC:We No Speak Americano.ogg;
#OFFSET:0.013;
#SAMPLESTART:43.738;
#SAMPLELENGTH:12.000;
#SELECTABLE:YES;
#DISPLAYBPM:125.000;
#BPMS:0.000=125.000,38.500=250.000,40.000=125.000,70.500=250.000,72.000=125.000,102.000=125.050,110.000=125.000,119.000=250.000,120.000=125.000,180.000=126.670,185.000=125.880,190.500=250.000,192.000=125.000,206.000=250.000,206.250=62.500,206.375=125.000,223.000=125.010,252.000=127.650,255.000=126.450,259.000=124.776,263.000=123.750,266.000=125.000;
#STOPS:38.500=0.120
,39.000=0.060
,39.250=0.060
,39.500=0.060
,39.750=0.060
,70.500=0.120
,71.000=0.060
,71.250=0.060
,71.500=0.060
,71.750=0.060
,118.500=0.001
,119.000=0.060
,119.250=0.060
,119.500=0.060
,119.750=0.060
,190.500=0.120
,191.000=0.060
,191.250=0.060
,191.500=0.060
,191.750=0.060
,196.000=0.002
;
#BGCHANGES:;
// cache tags:
#FIRSTBEAT:0.000;
#LASTBEAT:271.000;
#SONGFILENAME:Songs/Beast Aoreo BEAST!/We No Speak Americano - [Aoreo]/Americano.sm;
#HASMUSIC:1;
#HASBANNER:1;
#MUSICLENGTH:131.161;
// end cache tags

//---------------dance-single - J. Nero & C. Hanson----------------
#NOTES:
     dance-single:
     J. Nero & C. Hanson:
     Challenge:
     10:
     0.831,0.801,0.831,0.076,0.724,644.000,109.000,10.000,8.000,0.000:

1000
0000
0000
0001
0000
0000
0000
0000
0000
0100
0000
0000
0001
0000
0100
0000
0001
0000
1000
0000
0100
0000
0010
0000
0001
0000
0000
0000
0000
0000
0000
0000
0000
0000
0000
0000
0101
0000
0000
0000
0000
0000
0000
0000
0000
0000
0000
0000
,
0100
0000
0010
1000
0100
0000
1000
0001
0100
0000
0100
0000
0010
0000
1000
0000
,
0001
0000
0000
0000
0000
0000
0000
0000
0010
0000
0000
0000
0000
0000
0000
0000
0000
0000
0000
0000
0000
0000
0000
0000
0100
0000
0000
0000
0000
1000
0000
0000
0010
0000
0000
0000
0100
0000
0000
0000
0001
0000
0000
0000
1000
0000
0000
0000
0100
0000
0000
0000
0000
0000
0000
0000
0000
0000
0000
0000
0000
0000
0000
0000
,
1000
0000
0001
0100
0010
0400
0000
0301
1000
0000
0010
0000
0100
0000
0001
1000
,
0000
0000
0100
0000
0000
0000
0000
0000
0000
0000
0000
1000
0000
0000
0010
0000
0100
0000
0001
0000
1000
0000
0100
0000
1000
0000
0000
0000
0000
0000
0000
0000
,
0010
0000
0000
0100
0000
0001
0000
1000
0000
0100
0000
0000
1000
0000
0000
0010
0000
0000
0100
0000
0000
0001
0000
0000
,
0100
0000
0000
0010
0000
0000
0100
0000
0001
0000
1000
0000
0100
0000
0010
0000
,
0001
0000
0100
0001
1000
0000
0100
0000
1000
0000
0010
0000
0100
0000
0010
0000
,
1010
0000
0000
0000
0000
0000
0000
0000
0100
0000
0000
0000
0000
0001
0000
0000
1000
0000
0000
0000
0001
0000
0000
0000
0010
0000
0000
0000
0100
0000
0000
0000
1000
0000
0000
0000
0010
0000
0000
0000
0000
0000
0000
0000
0010
0000
0000
0000
1000
0000
0000
0000
0001
0000
0000
0000
1000
0000
0000
0000
0100
0000
0000
0000
,
0010
0000
0000
0000
0011
0000
0000
0000
0000
0000
0001
0000
0100
0010
1000
0100
,
0010
0000
0000
0000
0100
0000
0000
0000
1100
0000
0000
0000
1000
0000
0000
0000
0001
0000
0000
0000
0100
0000
0010
0100
0010
0000
0000
0000
0100
0000
0000
0000
,
0101
0000
0101
0000
1001
0000
1000
0000
1010
0000
0010
0100
0000
0001
1000
0000
,
1100
0000
0000
0000
0100
0000
0000
0000
0110
0000
0000
0000
0010
0000
0000
0000
0001
0000
0000
0000
1000
0000
0010
1000
0010
0000
0000
0000
1000
0000
0000
0000
,
1010
0000
0110
0000
0101
0000
0001
0000
1001
0000
1000
0100
0000
0000
0200
0320
,
0000
0000
0000
0000
0031
0000
0000
0000
0001
0000
0000
0000
0100
0000
0000
0000
0110
0000
0000
0000
0010
0000
1000
0001
1000
0000
0000
0000
0001
0000
0000
0000
,
0011
0000
0110
0000
1100
0000
1000
0000
0010
0000
0100
0001
0000
1000
0100
0000
,
1100
0000
0000
0000
1000
0000
0000
0000
1010
0000
0000
0000
0010
0000
0000
0000
0110
0000
0000
0000
0100
0000
0001
0100
0001
0000
0000
0000
0100
0000
0000
0000
,
0101
0000
0001
1000
0100
0000
1000
0000
1010
0000
0010
0000
0100
0001
0010
0100
,
1000
0000
0000
0000
0010
0000
0000
0000
0110
0000
0000
0000
0100
0000
0000
0000
0001
0000
0000
0000
1000
0000
0001
1000
0001
0000
0000
0000
0010
0000
0000
0000
,
0110
0000
1100
0000
1001
0000
0001
0000
0101
0000
0100
0010
0000
1000
0001
0000
,
0011
0000
0000
0000
0010
0000
0000
0000
0110
0000
0000
0000
0100
0000
0000
0000
1000
0000
0000
0000
0001
0000
0100
0001
1000
0000
0000
0000
0100
0000
0000
0000
,
1100
0000
1010
0000
0110
0000
0100
0000
0101
0000
0001
0010
0000
0000
0020
0230
,
0000
0000
0000
0000
1300
0000
0000
0000
1000
0000
0000
0000
0000
0000
0000
0000
1010
0000
0000
0000
0010
0000
0100
0001
0100
0000
0000
0000
0001
0000
0000
0000
,
0011
0000
0110
0000
1100
0000
1000
0000
0110
0000
0100
0001
0000
1000
0100
0000
,
1010
0000
0000
0000
0010
0000
0000
0000
0110
0000
0000
0000
0100
0000
0000
0000
0001
0000
0000
0000
0010
0000
0100
1000
0100
0000
0000
0000
1000
0000
0000
0000
,
1010
0000
0010
0100
0000
0100
0001
0000
0011
0000
0010
0000
0010
0000
0010
0000
,
0110
0100
1100
1000
1001
0001
0101
0100
,
0110
0000
0000
0000
0000
0000
0000
0000
0010
0000
0000
0000
0000
0000
0000
0000
1010
0000
0000
0000
0000
0000
0000
0000
1000
0000
0000
0000
0000
0000
0000
0000
1010
0000
0000
0000
0000
0000
0000
0000
0010
0000
0000
0000
0000
0100
0000
0000
0001
0000
0000
0000
0000
0100
0000
0000
0001
0000
0000
0000
0000
0100
0000
0000
,
0010
0000
0000
0000
0000
1000
0000
0000
0010
0000
0000
0000
0000
1000
0000
0000
0001
0000
0000
0000
0000
1000
0000
0000
0000
0000
0000
0000
0000
0001
0000
0000
0100
0000
0000
0000
0000
0001
0000
0000
1000
0000
0000
0000
0000
0100
0000
0000
1000
0000
0000
0000
0000
0010
0000
0000
0100
0000
0000
0000
0000
0001
0000
0000
,
1000
0000
0000
0000
0000
0000
0001
0000
1000
0000
0100
0000
1000
0000
0010
0000
0100
0000
0001
0000
0010
0000
0100
0000
1000
0000
0000
0000
0000
0000
0000
0000
0000
0000
0000
0000
0001
0000
0000
0010
0000
0000
0100
0000
0000
0010
0000
0000
,
0100
0000
0000
0000
1000
0000
0000
0000
1100
0000
0000
0000
0100
0000
0000
0000
0010
0000
0000
0000
0001
0000
1000
0001
0100
0000
0000
0000
0001
0000
0000
0000
,
0101
0000
1001
0000
1100
0000
0100
0000
0010
0000
0001
0100
0000
0010
1000
0000
,
1100
0000
0000
0000
0100
0000
0000
0000
1100
0000
0000
0000
1000
0000
0000
0000
1001
0000
0000
0000
0001
0000
0100
0001
1000
0000
0000
0000
0100
0000
0000
0000
,
1100
0000
0110
0000
0011
0000
0001
0000
0101
0000
0100
0010
0000
0000
0020
2030
,
0000
0000
0000
0000
3001
0000
0000
0000
0101
0000
0000
0000
0100
0000
0000
0000
0001
0000
0000
0000
1000
0000
0100
1000
0001
0000
0000
0000
0100
0000
0000
0000
,
0101
0000
1010
0000
1100
0000
0100
0000
0011
0000
0001
0100
0000
0010
1000
0000
,
1100
0000
0000
0000
0100
0000
0000
0000
0110
0000
0000
0000
0010
0000
0000
0000
0011
0000
0000
0000
0001
0000
0100
0001
1000
0000
0000
0000
0100
0000
0000
0000
,
1000
0000
0000
0001
0000
0000
0000
0000
0000
0010
0000
0000
0100
0000
1000
0000
0100
0000
1000
0000
0010
0000
0100
0000
0001
0000
0000
0000
0000
0000
0000
0000
0000
0000
0000
0000
0101
0000
0000
0000
0000
0000
0000
0000
0000
0000
0000
0000
,
0100
0000
0010
1000
0100
0000
1000
0001
0100
0000
0100
0000
0010
0000
1000
0000
,
0001
0000
0000
0000
0000
0000
0000
0000
0010
0000
0000
0000
0000
0000
0000
0000
0000
0000
0000
0000
0000
0000
0000
0000
0100
0000
0000
0000
0000
1000
0000
0000
0010
0000
0000
0000
0100
0000
0000
0000
0001
0000
0000
0000
1000
0000
0000
0000
0100
0000
0000
0000
0000
0000
0000
0000
0000
0000
0000
0000
0000
0000
0000
0000
,
1000
0000
0001
0100
0010
0400
0000
0301
1000
0000
0010
0000
0100
0000
0001
1000
,
0000
0000
0100
0000
0000
0000
0000
0000
0000
0000
0000
1000
0000
0000
0010
0000
0100
0000
0001
0000
1000
0000
0100
0000
1000
0000
0000
0000
0000
0000
0000
0000
,
0010
0000
0000
0100
0000
0001
0000
1000
0000
0100
0000
0000
1000
0000
0000
0010
0000
0000
0100
0000
0000
0001
0000
0000
,
0100
0000
0000
0010
0000
0000
0100
0000
0001
0000
1000
0000
0100
0000
0010
0000
,
0001
0000
0100
0001
1000
0000
0100
0000
1000
0000
0010
0000
0100
0000
0010
0000
,
1010
0000
0000
0000
0000
0000
0000
0000
1000
0000
0000
0000
0000
0001
0000
0000
1000
0000
0000
0000
0001
0000
0000
0000
0010
0000
0000
0000
0100
0000
0000
0000
1000
0000
0000
0000
0010
0000
0000
0000
0000
0000
0000
0000
0010
0000
0000
0000
1000
0000
0000
0000
0001
0000
0000
0000
1000
0000
0000
0000
0100
0000
0000
0000
,
0010
0011
0000
0000
,
0000
0000
0000
0000
0000
0000
0000
0000
0000
0000
1000
0000
0001
0010
0100
1000
,
0010
0000
0000
0000
0100
0000
0000
0000
0101
0000
0000
0000
0001
0000
0000
0000
1001
0000
0000
0000
1000
0000
0001
1000
0100
0000
0000
0000
0000
0000
0000
0000
,
MMMM
0000
0000
0000
1000
0001
0010
0100
0010
0000
0001
0000
0100
0000
0010
0000
,
0110
0000
0000
0000
0100
0000
0000
0000
0101
0000
0000
0000
0001
0000
0000
0000
1000
0000
0000
0000
0001
0000
0100
0001
1000
0000
0000
0000
0100
0000
0000
0000
,
1100
0000
0110
0000
0011
0000
0001
0000
0400
0000
0301
1000
0000
0000
2000
3020
,
0000
0000
0000
0000
0130
0000
0000
0000
0100
0000
0000
0000
0001
0000
0000
0000
1000
0000
0000
0000
0100
0000
1000
0010
0100
0000
0000
0000
0000
0000
0000
0000
,
MMMM
0000
0000
0000
0001
0100
0010
1000
0100
0000
1000
0000
0010
0000
0100
0000
,
0101
0000
0000
0000
0001
0000
0000
0000
1001
0000
0000
0000
1000
0000
0000
0000
1100
0000
0000
0000
0100
0000
0010
0001
0010
0000
0000
0000
0000
0000
0000
0000
,
0011
0000
0000
0000
0000
0000
0101
0000
0000
0000
0000
0000
1000
0010
0100
0001
0010
0100
1000
0000
0000
0000
0000
0000
,
1001
0000
0000
0000
0001
0000
0000
0000
0110
0000
0000
0000
0100
0000
0000
0000
0001
0000
0000
0000
1000
0000
0001
0100
0010
0000
0000
0000
0100
0000
0000
0000
,
0101
0000
0101
0000
1001
0000
1000
0000
1010
0000
0010
0100
0000
0001
1000
0000
,
1100
0000
0000
0000
0100
0000
0000
0000
0110
0000
0000
0000
0010
0000
0000
0000
0001
0000
0000
0000
1000
0000
0010
1000
0010
0000
0000
0000
1000
0000
0000
0000
,
1010
0000
0110
0000
0101
0000
0001
0000
1001
0000
1000
0100
0000
0000
0200
0320
,
0000
0000
0000
0000
0031
0000
0000
0000
0001
0000
0000
0000
0100
0000
0000
0000
0110
0000
0000
0000
0010
0000
1000
0001
1000
0000
0000
0000
0001
0000
0000
0000
,
0011
0000
0110
0000
1100
0000
1000
0000
0010
0000
0100
0001
0000
1000
0100
0000
,
1100
0000
0000
0000
1000
0000
0000
0000
1010
0000
0000
0000
0010
0000
0000
0000
0110
0000
0000
0000
0100
0000
0001
0100
0001
0000
0000
0000
0100
0000
0000
0000
,
0101
0000
0000
0000
0000
0000
0000
0000
0000
0000
0000
0000
0000
0000
0000
0000
0000
0000
0000
0000
0000
0000
0000
0001
0000
0000
0000
0000
0000
0000
0000
0000
0000
0000
0000
0000
0000
0000
0000
0000
0000
0000
0000
0000
0000
0000
0000
1000
0000
0000
0000
0000
0000
0000
0000
0000
0000
0000
0000
0000
0000
0000
0000
0000
0000
0000
0000
0000
0000
0000
0000
0010
0000
0000
0000
0000
0000
0000
0000
0000
0000
0000
0000
0000
0000
0000
0000
0000
0000
0000
0000
0000
0000
0000
0000
0110
0000
0000
0000
0000
0000
0000
0000
0000
0000
0000
0000
0000
0000
0000
0000
0000
0000
0000
0000
0000
0000
0000
0000
0000
0000
0000
0000
0000
0000
0000
0000
0000
0000
0000
0000
0000
0000
0000
0000
0000
0000
0000
0000
0000
0000
0000
0000
0000
0100
0000
0000
0000
0000
0000
0000
0000
0000
0000
0000
0000
0000
0000
0000
0000
0000
0000
0000
0000
0000
0000
0000
0000
0001
0000
0000
0000
0000
0000
0000
0000
0000
0000
0000
0000
0000
0000
0000
0000
0000
0000
0000
0000
0000
0000
0000
0000
,
1000
0001
0010
0100
1000
0010
0100
0001
1000
0010
0100
0001
0000
0000
0000
0000
,
1000
0010
0100
0001
0010
0100
1000
0010
0100
0001
0010
0100
0000
0000
0000
0000
,
1000
0010
0100
0001
0010
0100
1000
0010
0100
0001
0000
0010
0100
0010
0001
1000
,
0010
0100
0000
0001
0010
0100
1000
0010
0100
0000
0000
0000
0101
0000
0000
0000
;
