#TITLE:Flame Mammoth;
#SUBTITLE:;
#ARTIST:Capcom;
#TITLETRANSLIT:;
#SUBTITLETRANSLIT:;
#ARTISTTRANSLIT:;
#CREDIT:;
#BANNER:Flame Mammoth.png;
#BACKGROUND:Flame Mammoth BG.png;
#LYRICSPATH:;
#CDTITLE:!XMaxX.png;
#MUSIC:Flame Mammoth.mp3;
#OFFSET:-0.020;
#SAMPLESTART:18.000;
#SAMPLELENGTH:14.000;
#SELECTABLE:YES;
#BPMS:0.000=163.050;
#STOPS:;
#BGCHANGES:;
// cache tags:
#FIRSTBEAT:1.000;
#LASTBEAT:289.000;
#SONGFILENAME:Songs/keyboard/Flame Mammoth (Megaman X)/Flame Mammoth.sm;
#HASMUSIC:1;
#HASBANNER:1;
#MUSICLENGTH:112.125;
// end cache tags

//---------------dance-single - ----------------
#NOTES:
     dance-single:
     :
     Hard:
     8:
     0.547,0.548,0.339,0.000,0.125,391.000,38.000,0.000,0.000,0.000:
0000
0000
1000
0000
0001
0100
0010
1000
,
0001
1000
0000
0000
0000
0000
0000
1000
,
0000
0001
0000
0000
1000
0000
0000
0000
0001
0000
1000
0000
0001
0000
0100
0000
,
0010
0100
0000
0000
0000
0000
1000
0001
,
1000
0001
1000
0000
0001
0100
0010
1000
,
0001
0100
0000
0000
0110
0000
0110
0000
,
0000
0000
1000
0001
1000
0000
0000
0000
0010
0000
1000
0000
0001
0000
0100
0000
,
0010
1000
0000
0001
0000
0000
1001
0000
,
0110
0000
0100
0000
0010
0001
0100
0010
,
1000
0100
0000
0000
0110
0000
1001
0000
,
0000
0000
0100
0010
0100
0000
0000
0000
0010
0000
0001
0000
0100
0000
0010
0000
,
1000
0001
0000
1000
0000
0000
1000
0000
,
0000
1001
1000
0001
,
1000
0000
0000
0000
0000
0000
0010
0000
0000
0000
0001
0000
1000
0000
0000
0001
,
0000
0100
0000
0000
0010
0000
0000
0000
0000
0000
0110
0000
0000
0000
0000
0000
,
1001
0000
0000
1000
0001
1000
0001
0100
,
0010
1000
0001
0000
1000
0000
0001
0000
,
1000
0000
0000
0000
0000
0000
0001
0000
0000
0000
1000
0000
0001
0000
0000
0001
,
0000
1000
0000
0000
1000
0000
0000
0000
0000
0000
1001
0000
0000
0000
0000
0000
,
1001
0000
0000
1000
0100
0010
0001
0010
,
0100
1000
0001
0000
1000
0000
0001
0000
,
1000
0000
0000
0000
0000
0000
1010
0000
0000
0000
1000
0000
0001
0000
0000
0001
,
0000
0100
0000
0000
0110
0000
0000
0000
0000
0000
1001
0000
0000
0000
0000
0000
,
0110
0000
0000
0100
0010
0100
0010
1000
,
0001
0100
0010
0000
0100
0000
0010
0000
,
0100
0000
0000
0000
0000
0000
0101
0000
0000
0000
0001
0000
1000
0000
0000
0010
,
0000
0010
0000
0000
0110
0000
0000
0000
0000
0000
1001
0000
0000
0000
0000
0000
,
0110
0000
0000
0100
0010
1000
0100
0010
,
0001
1000
0001
0100
0010
1000
0001
0100
,
0010
1000
0100
0010
0001
1000
0100
0010
,
0001
1000
0001
0100
0010
1000
0001
0100
,
0010
0000
1000
0000
0001
0000
0000
1000
0000
0000
0001
0000
0000
0000
0000
0000
,
0001
1000
0001
1000
0010
0100
0001
1000
,
0010
0100
0001
0100
0010
1000
0001
0100
,
0010
1000
0100
0010
0001
1000
0100
0010
,
0001
0000
1000
0000
0001
0000
0000
1000
0000
0000
0001
0000
0000
0000
0000
0000
,
0000
0000
0001
1000
0001
0000
0000
0000
1000
0000
0010
0000
0100
0000
0001
0000
,
1000
0001
0000
0000
0000
0000
0000
0001
,
0000
1000
0000
0000
0001
0000
0000
0000
1000
0000
0001
0000
1000
0000
0010
0000
,
0100
0010
0000
0000
0000
0000
0001
1000
,
0001
1000
0001
0000
1000
0010
0100
0001
,
1000
0010
0000
0000
0110
0000
0110
0000
,
0000
0000
0001
1000
0001
0000
0000
0000
0100
0000
0001
0000
1000
0000
0010
0000
,
0100
0001
0000
1000
0000
0000
1001
0000
,
0110
0000
0010
0000
0100
1000
0010
0100
,
0001
0010
0000
0000
0110
0000
1001
0000
,
0000
0000
0010
0100
0010
0000
0000
0000
0100
0000
1000
0000
0010
0000
0100
0000
,
0001
1000
0000
0001
0000
0000
0001
0000
,
0000
1001
0001
1000
,
0001
0000
0000
0000
0000
0000
0100
0000
0000
0000
1000
0000
0001
0000
0000
1000
,
0000
0010
0000
0000
0100
0000
0000
0000
0000
0000
0110
0000
0000
0000
0000
0000
,
1001
0000
0000
0001
1000
0001
1000
0010
,
0100
0001
1000
0000
0001
0000
1000
0000
,
0001
0000
0000
0000
0000
0000
1000
0000
0000
0000
0001
0000
1000
0000
0000
1000
,
0000
0001
0000
0000
0001
0000
0000
0000
0000
0000
1001
0000
0000
0000
0000
0000
,
1001
0000
0000
0001
0010
0100
1000
0100
,
0010
0001
1000
0000
0001
0000
1000
0000
,
0001
0000
0000
0000
0000
0000
0101
0000
0000
0000
0001
0000
1000
0000
0000
1000
,
0000
0010
0000
0000
0110
0000
0000
0000
0000
0000
1001
0000
0000
0000
0000
0000
,
0110
0000
0000
0010
0100
0010
0100
0001
,
1000
0010
0100
0000
0010
0000
0100
0000
,
0010
0000
0000
0000
0000
0000
1010
0000
0000
0000
1000
0000
0001
0000
0000
0100
,
0000
0100
0000
0000
0110
0000
0000
0000
0000
0000
1001
0000
0000
0000
0000
0000
,
0110
0000
0000
0010
0100
0001
0010
0100
,
1000
0001
1000
0010
0100
0001
1000
0010
,
0100
0001
0010
0100
1000
0001
0010
0100
,
1000
0001
1000
0010
0100
0001
1000
0010
,
0100
0000
0001
0000
1000
0000
0000
0001
0000
0000
1000
0000
0000
0000
0000
0000
,
1000
0001
1000
0001
0100
0010
1000
0001
,
0100
0010
1000
0010
0100
0001
1000
0010
,
0100
0001
0010
0100
1000
0001
0010
0100
,
1000
0000
0001
0000
1000
0000
0000
0001
0000
0000
1000
0000
0000
0000
0000
0000
,
0000
0000
0001
1000
0001
0000
0000
0000
0000
0000
0000
0000
0000
0000
0000
0000
;

//---------------dance-single - ----------------
#NOTES:
     dance-single:
     :
     Medium:
     6:
     0.451,0.419,0.276,0.000,0.031,323.000,31.000,0.000,0.000,0.000:
0000
0000
1000
0000
0001
1000
0001
0000
,
1000
0001
0000
0000
0000
0000
1001
0001
,
0000
1000
0000
0000
0001
0000
0000
0000
0100
0000
0010
0000
0100
0000
0000
0000
,
0010
0100
0000
0000
0000
0000
0110
0000
,
0000
0000
0010
0000
1000
0100
1000
0000
,
0001
1000
0000
0000
0000
0000
0110
0000
,
0000
0000
1000
0000
0001
0100
0001
0000
,
1000
0001
0000
1001
0000
0000
0110
0000
,
0000
0000
0001
0000
0100
0010
0100
0000
,
0010
1000
0000
0000
0000
0000
1001
0000
,
0000
0000
1000
0000
0010
0100
0010
0000
,
0100
0010
0000
0110
0000
0000
1001
0000
,
0000
1001
1001
0000
1000
0000
0001
1000
,
0001
0000
1000
0000
0100
0000
0010
0001
,
0010
0000
0001
0000
0100
0000
0010
1000
,
0010
1000
0000
0000
1000
0001
1000
0000
,
0001
1000
1001
0000
0001
0000
1000
0001
,
1000
0000
0001
0000
0010
0000
0100
0010
,
0100
0000
0010
0000
0001
0000
1000
0001
,
1000
0001
0000
0000
0001
1000
0001
0000
,
1000
0001
1001
0000
0001
0000
1000
0001
,
1000
0000
0001
0000
0010
0000
0100
1000
,
0100
0000
1000
0000
0010
0000
0100
0001
,
0100
0001
0000
0000
0001
1000
0001
0000
,
1000
0001
1001
0000
1000
0000
0001
1000
,
0001
0000
1000
0000
0100
0000
0010
0100
,
0010
0000
0100
0000
1000
0000
0001
1000
,
0001
1000
0000
0000
1000
0001
1000
0000
,
0001
1000
1001
0000
1000
0000
0100
0000
,
1000
0001
0100
0001
,
1000
0100
1000
0001
,
0100
0000
0000
0000
0010
0000
0000
0100
0000
0000
0010
0000
0000
0000
0000
0000
,
0000
1001
0001
0100
,
0001
1000
0010
1000
,
0001
0100
0001
1000
,
0001
0000
0000
0000
0001
0000
0000
1000
0000
0000
0001
0000
0000
0000
0000
0000
,
0000
0000
0001
0000
1000
0001
1000
0000
,
0001
1000
0000
0000
0000
0000
1001
0000
,
1000
0000
0000
0001
0000
1000
0000
0000
0010
0000
0100
0000
0010
0000
0000
0000
,
0100
0010
0000
0000
0000
0000
0110
0000
,
0000
0000
0100
0000
0001
0010
0001
0000
,
1000
0001
0000
0000
0000
0000
0110
0000
,
0000
0000
0001
0000
1000
0010
1000
0000
,
0001
1000
0000
1001
0000
0000
0110
0000
,
0000
0000
1000
0000
0010
0100
0010
0000
,
0100
0001
0000
0000
0000
0000
1001
0000
,
0000
0000
0001
0000
0100
0010
0100
0000
,
0010
0100
0000
0110
0000
0000
1001
0000
,
0000
1001
1001
0000
0001
0000
1000
0001
,
1000
0000
0001
0000
0010
0000
0100
1000
,
0100
0000
1000
0000
0010
0000
0100
0001
,
0100
0001
0000
0000
0001
1000
0001
0000
,
1000
0001
1001
0000
1000
0000
0001
1000
,
0001
0000
1000
0000
0100
0000
0010
0100
,
0010
0000
0100
0000
1000
0000
0001
1000
,
0001
1000
0000
0000
1000
0001
1000
0000
,
0001
1000
1001
0000
1000
0000
0001
1000
,
0001
0000
1000
0000
0100
0000
0010
0001
,
0010
0000
0001
0000
0100
0000
0010
1000
,
0010
1000
0000
0000
1000
0001
1000
0000
,
0001
1000
1001
0000
0001
0000
1000
0001
,
1000
0000
0001
0000
0010
0000
0100
0010
,
0100
0000
0010
0000
0001
0000
1000
0001
,
1000
0001
0000
0000
0001
1000
0001
0000
,
1000
0001
1001
0000
0001
0000
0010
0000
,
0001
1000
0010
1000
,
0001
0010
0001
1000
,
0010
0000
0000
0000
0100
0000
0000
0010
0000
0000
0100
0000
0000
0000
0000
0000
,
0000
1001
1000
0010
,
1000
0001
0100
0001
,
1000
0010
1000
0001
,
1000
0000
0000
0000
1000
0000
0000
0001
0000
0000
1000
0000
0000
0000
0000
0000
,
0000
1001
0000
0000
;

//---------------dance-single - ----------------
#NOTES:
     dance-single:
     :
     Easy:
     5:
     0.400,0.354,0.687,0.000,0.000,237.000,77.000,0.000,0.000,0.000:
0000
1000
0100
1000
,
0100
1000
0000
0000
,
0000
0001
0100
0001
,
0100
0001
0000
0000
,
0000
1001
1000
0001
,
1000
1001
0000
0110
,
0000
0110
0010
1000
,
0001
0100
0110
0000
,
0000
1001
0001
1000
,
0001
1001
0000
0110
,
0000
0110
0100
0001
,
1000
0100
0110
0000
,
0000
1001
1000
0001
,
0001
0100
0100
0010
,
0010
1000
1000
0001
,
0001
0000
0011
1001
,
1100
1001
0001
1000
,
1000
0010
0010
0100
,
0100
0001
0001
1000
,
1000
0000
1010
1001
,
0101
1001
1000
0001
,
0001
0010
0010
0100
,
0100
1000
1000
0001
,
0001
0000
1010
1001
,
1100
1001
0001
0010
,
0010
0100
0100
1000
,
1000
0001
0001
1000
,
1000
0000
1010
1001
,
0101
1001
0000
1000
,
0001
1001
0000
0001
,
1000
1001
0000
0100
,
0010
0110
0110
0110
,
0000
1001
0000
0001
,
1000
1001
0000
1000
,
0001
1001
0000
0001
,
1000
1001
1001
1001
,
0000
0001
0010
0001
,
0010
0001
0000
0000
,
0000
1000
0010
1000
,
0010
1000
0000
0000
,
0000
1001
0001
1000
,
0001
1001
0000
0110
,
0000
0110
0100
0001
,
1000
0010
0110
0000
,
0000
1001
1000
0001
,
1000
1001
0000
0110
,
0000
0110
0010
1000
,
0001
0010
0110
0000
,
0000
1001
0001
1000
,
1000
0010
0010
0100
,
0100
0001
0001
1000
,
1000
0000
1100
1001
,
0011
1001
1000
0001
,
0001
0100
0100
0010
,
0010
1000
1000
0001
,
0001
0000
0101
1001
,
1010
1001
0001
1000
,
1000
0100
0100
0010
,
0010
0001
0001
1000
,
1000
0000
0101
1001
,
0011
1001
1000
0100
,
0100
0010
0010
0001
,
0001
1000
1000
0001
,
0001
0000
0101
1001
,
1010
1001
0000
0001
,
1000
1001
0000
1000
,
0001
1001
0000
0010
,
0100
0110
0110
0110
,
0000
1001
0000
1000
,
0001
1001
0000
0001
,
1000
1001
0000
1000
,
0001
1001
1001
1001
,
0000
1001
0000
0000
;

//---------------dance-single - ----------------
#NOTES:
     dance-single:
     :
     Beginner:
     2:
     0.166,0.161,0.259,0.000,0.000,101.000,29.000,0.000,0.000,0.000:
0000
1000
0000
0000
,
0000
0000
0000
0000
,
0000
0001
0000
0000
,
0000
0000
0000
0000
,
0000
1001
0000
1000
,
0000
0001
0000
0100
,
0000
0010
0000
1000
,
0000
0001
0000
1000
,
0000
1001
0000
0001
,
0000
1000
0000
0001
,
0000
0010
0000
0100
,
0000
1000
0000
0001
,
0000
1001
0000
1000
,
0000
0001
0000
1000
,
0000
0001
0000
1000
,
0000
0000
0000
0000
,
0000
1001
0000
0001
,
0000
1000
0000
0001
,
0000
1000
0000
0001
,
0000
0000
0000
0000
,
0000
1001
0000
1000
,
0000
0001
0000
0010
,
0000
0100
0000
1000
,
0000
0000
0000
0000
,
0000
1001
0000
1000
,
0000
0100
0000
0010
,
0000
0001
0000
1000
,
0000
0000
0000
0000
,
0000
1001
0000
0000
,
0000
0110
0000
0000
,
0000
1001
0000
0000
,
0000
0110
0000
0000
,
0000
0110
0000
0000
,
0000
1001
0000
0000
,
0000
0110
0000
0000
,
0000
1001
0000
0000
,
0000
0001
0000
0000
,
0000
0000
0000
0000
,
0000
1000
0000
0000
,
0000
0000
0000
0000
,
0000
1001
0000
0001
,
0000
1000
0000
0010
,
0000
0100
0000
0001
,
0000
1000
0000
0001
,
0000
1001
0000
1000
,
0000
0001
0000
1000
,
0000
0100
0000
0010
,
0000
0001
0000
1000
,
0000
1001
0000
0001
,
0000
1000
0000
0001
,
0000
1000
0000
0001
,
0000
0000
0000
0000
,
0000
1001
0000
1000
,
0000
0001
0000
1000
,
0000
0001
0000
1000
,
0000
0000
0000
0000
,
0000
1001
0000
0001
,
0000
1000
0000
0100
,
0000
0010
0000
0001
,
0000
0000
0000
0000
,
0000
1001
0000
0001
,
0000
0010
0000
0100
,
0000
1000
0000
0001
,
0000
0000
0000
0000
,
0000
1001
0000
0000
,
0000
0110
0000
0000
,
0000
1001
0000
0000
,
0000
0110
0000
0000
,
0000
0110
0000
0000
,
0000
1001
0000
0000
,
0000
0110
0000
0000
,
0000
1001
0000
0000
,
0000
1001
0000
0000
;

//---------------dance-single - ----------------
#NOTES:
     dance-single:
     :
     Challenge:
     9:
     0.687,0.612,0.285,0.000,0.103,507.000,32.000,0.000,0.000,0.000:
0000
0000
1000
0000
0001
0100
0010
1000
,
0100
0010
0000
0000
0110
0000
0000
0100
,
0000
0010
0000
0000
0100
0000
0000
0000
0010
0000
1000
0000
0001
0000
0100
0000
,
0010
0000
1000
0000
0000
0000
0000
0000
1001
0000
0000
0000
1000
0001
1000
0001
,
1000
0001
1000
0001
1000
0000
0000
0000
0001
0000
0100
0000
0010
0000
1000
0000
,
0100
0010
0000
0000
0110
0000
1001
0000
,
0000
0000
0100
0010
0100
0000
0000
0000
0010
0000
1000
0000
0001
0000
0100
0000
,
0010
1000
0000
0100
0000
0000
0110
0000
,
0110
0000
0100
0000
0010
0001
0100
0010
,
1000
0100
0000
0000
0110
0000
1001
0000
,
0000
0000
0100
0010
0100
0000
0000
0000
0010
0000
0001
0000
0100
0000
0010
0000
,
1000
0001
0000
1001
0000
0000
1001
0000
,
0001
1000
0001
0100
0010
1000
0100
1000
,
0100
1000
0100
0010
0001
0010
0001
0010
,
0001
0100
0001
0100
0010
1000
0010
1000
,
0001
0100
0000
0100
0010
1000
0001
1000
,
0001
0010
0100
1000
0100
1000
0100
1000
,
0010
0100
0001
0010
0001
0010
0001
0100
,
0010
1000
0100
1000
0100
1000
0001
0100
,
0010
1000
0000
1000
0100
0010
0001
0010
,
0100
1000
0001
0100
0001
0100
0010
1000
,
0010
1000
0100
0010
0001
0100
0010
1000
,
0001
1000
0100
1000
0010
0100
0001
0100
,
0001
0100
0000
0010
1000
0100
0010
0001
,
0100
0010
1000
0100
1000
0100
0010
0001
,
0010
0001
0100
0010
0100
0010
1000
0100
,
1000
0100
0010
0001
0010
0001
1000
0100
,
1000
0100
0000
0010
0001
0100
0010
1000
,
0100
0010
0001
0010
0001
0010
0001
0010
,
0001
0010
0001
0100
0001
0100
0001
0100
,
0001
0100
0010
1000
0010
1000
0010
1000
,
0010
0000
1000
0000
1100
0000
0000
0110
0000
0000
0011
0000
0000
0000
0000
0000
,
0001
0100
0010
1000
0001
0000
0100
0000
0001
0000
0100
0000
0001
0000
0100
0000
,
0001
0100
0010
1000
0010
1000
0010
1000
,
0010
1000
0100
0010
0100
0010
0100
0010
,
0100
0000
0010
0000
0011
0000
0000
0110
0000
0000
1100
0000
0000
0000
0000
0000
,
0000
0000
0001
1000
0001
0000
0000
0000
1000
0000
0010
0000
0100
0000
0001
0000
,
0010
0100
0000
0000
0110
0000
0000
0010
,
0000
0100
0010
0000
0100
0001
1000
0010
,
0100
0000
0001
0000
0000
0000
0000
0000
1001
0000
0000
0000
0001
1000
0001
1000
,
0001
1000
0001
1000
0001
0000
0000
0000
1000
0000
0010
0000
0100
0000
0001
0000
,
0010
0100
0000
0000
0110
0000
1001
0000
,
0000
0000
0010
0100
0010
0000
0000
0000
0100
0000
0001
0000
1000
0000
0010
0000
,
0100
0001
0000
0010
0000
0000
0110
0000
,
0110
0000
0010
0000
0100
1000
0010
0100
,
0001
0010
0000
0000
0110
0000
1001
0000
,
0000
0000
0010
0100
0010
0000
0000
0000
0100
0000
1000
0000
0010
0000
0100
0000
,
0001
1000
0000
1001
0000
0000
1001
0000
,
1000
0001
1000
0010
0100
0001
0010
0001
,
0010
0001
0010
0100
1000
0100
1000
0100
,
1000
0010
1000
0010
0100
0001
0100
0001
,
1000
0010
0000
0010
0100
0001
1000
0001
,
1000
0100
0010
0001
0010
0001
0010
0001
,
0100
0010
1000
0100
1000
0100
1000
0010
,
0100
0001
0010
0001
0010
0001
1000
0010
,
0100
0001
0000
0001
0010
0100
1000
0100
,
0010
0001
1000
0010
1000
0010
0100
0001
,
0100
0001
0010
0100
1000
0010
0100
0001
,
1000
0001
0010
0001
0100
0010
1000
0010
,
1000
0010
0000
0100
0001
0010
0100
1000
,
0010
0100
0001
0010
0001
0010
0100
1000
,
0100
1000
0010
0100
0010
0100
0001
0010
,
0001
0010
0100
1000
0100
1000
0001
0010
,
0001
0010
0000
0100
1000
0010
0100
0001
,
0010
0100
1000
0100
1000
0100
1000
0100
,
1000
0100
1000
0010
1000
0010
1000
0010
,
1000
0010
0100
0001
0100
0001
0100
0001
,
0100
0000
0001
0000
0011
0000
0000
0110
0000
0000
1100
0000
0000
0000
0000
0000
,
1000
0010
0100
0001
1000
0000
0010
0000
1000
0000
0010
0000
1000
0000
0010
0000
,
1000
0010
0100
0001
0100
0001
0100
0001
,
0100
0001
0010
0100
0010
0100
0010
0100
,
0010
0000
0100
0000
1100
0000
0000
0110
0000
0000
0011
0000
0000
0000
0000
0000
,
0000
0000
1000
0001
1000
0000
0000
0000
0000
0000
0000
0000
0000
0000
0000
0000
;
