#TITLE:Streamline;
#SUBTITLE:;
#ARTIST:Newton;
#TITLETRANSLIT:;
#SUBTITLETRANSLIT:;
#ARTISTTRANSLIT:;
#CREDIT:owenviau1;
#BANNER:../owenviau1 Simfiles 6 (Science X Owen).png;
#BACKGROUND:BG.PNG;
#LYRICSPATH:;
#CDTITLE:;
#MUSIC:Streamline - Newton.mp3;
#OFFSET:-3.145;
#SAMPLESTART:92.704;
#SAMPLELENGTH:29.999;
#SELECTABLE:YES;
#DISPLAYBPM:150.070;
#BPMS:0.000=150.070;
#STOPS:;
#BGCHANGES:;
// cache tags:
#FIRSTBEAT:0.000;
#LASTBEAT:736.000;
#SONGFILENAME:Songs/owenviau1 Simfiles 6/Streamline - [owenviau1] v1.0.2/Streamline.sm;
#HASMUSIC:1;
#HASBANNER:1;
#MUSICLENGTH:300.068;
// end cache tags

//---------------dance-single - 13- (owenviau1)----------------
#NOTES:
     dance-single:
     13- (owenviau1):
     Hard:
     13:
     1.000,1.000,0.697,0.423,1.000,2341.000,209.000,127.000,2.000,3.000:
2000
3000
0200
0320
0032
2003
3020
2030
,
3002
0023
0030
0200
0300
2000
3002
0023
,
0230
0000
0000
0300
0000
0000
2000
0000
3000
2000
0000
3000
0200
0000
0000
0320
0000
0000
0032
0000
0000
2003
0000
0000
,
3002
0000
0000
0000
0023
0000
0000
0000
0000
0000
0030
0000
0200
0000
0000
0000
0000
0000
0000
0300
2000
0000
0000
0000
3002
0000
0000
0000
0203
0000
0000
0000
,
0320
0030
2000
3200
0320
0032
2003
3020
,
0230
0302
0003
0200
0300
2000
3002
0023
,
0230
0000
0000
0300
0000
0000
2000
0000
3000
2000
0000
3000
0200
0000
0000
0320
0000
0000
0032
0000
0000
2003
0000
0000
,
3002
0000
0000
0000
0023
0000
0000
0000
0000
0000
0030
0000
0200
0000
0000
0000
0000
0000
0000
0300
2000
0000
0000
0000
3002
0000
0000
0000
0203
0000
0000
0000
,
1301
0010
0110
0001
1001
0100
1010
0100
,
0101
1000
0110
0001
1100
0001
1010
0100
,
1001
0100
0011
1000
0110
0001
1100
0010
,
0101
1000
1010
0100
0011
0100
1001
0100
,
0110
0001
1100
0001
0011
0100
1010
1000
,
0101
0010
1001
0100
0110
0001
1100
0001
,
0011
1000
0110
1000
0011
1000
1001
0100
,
1010
0100
0110
0001
1001
0100
1010
0001
,
1100
0000
0001
0000
0011
0000
0100
0000
1010
0000
0100
0001
1000
0000
0001
0000
,
0110
0010
1001
0100
1010
0001
0101
1000
,
0011
0000
0100
0000
1001
0000
0100
0000
0011
0000
1000
0100
0010
0000
0001
0000
,
0110
0010
1001
0100
1010
0001
0101
1000
,
0011
0000
0100
0000
1001
0000
0010
0000
0101
0000
1000
0001
0100
0000
0001
0000
,
1100
0010
1001
0100
1010
0001
0101
1000
,
0011
0000
0100
0000
1001
0000
0100
0000
0011
0000
1000
0100
0010
0000
0001
0000
,
1000
0001
1000
1000
0001
1000
0001
0001
1000
0001
1000
1000
0001
1000
0001
0001
,
1000
0010
0110
0001
1001
0100
1010
0100
,
0101
1000
0110
0001
1100
0001
1010
0100
,
1001
0100
0011
1000
0110
0001
1100
0010
,
0101
1000
1010
0100
0011
0100
1001
0100
,
0110
0001
1100
0001
0011
0100
1010
1000
,
0101
0010
1001
0100
0110
0001
1100
0001
,
0011
1000
0110
1000
0011
1000
1001
0100
,
1010
0100
0110
0001
1001
0010
0110
0001
,
1001
0100
1010
0100
0101
1000
0110
1001
,
1100
0001
1010
0100
1001
0100
0011
1000
,
0110
0001
1100
0010
0101
1000
1010
0110
,
0011
0100
1001
0100
0110
0001
1100
0001
,
0011
0100
1010
1000
0101
0010
1001
0101
,
0110
0001
1100
0001
0011
1000
0110
1000
,
0011
1000
1001
0100
1010
0100
0110
0101
,
1001
0010
0110
0001
1001
0100
1010
0100
,
0001
1000
0010
0100
0001
1000
0100
1000
0010
0100
0001
1000
0001
0100
0010
1000
,
0100
0010
0001
0100
0010
1000
0001
0010
0001
0100
0010
1000
0100
0010
0001
0100
,
0010
1000
0100
1000
0001
0100
0001
1000
0010
1000
0100
0010
0001
0100
0010
0100
,
0001
1000
0010
0100
0001
0010
0001
1000
0010
1000
0100
0010
0001
0100
0010
0100
,
0001
1000
0001
0100
0010
1000
0100
0010
0001
0100
0010
1000
0001
0010
0001
1000
,
0100
1000
0010
0100
0010
1000
0001
1000
0010
0100
0001
1000
0100
0010
0001
0100
,
0010
1000
0001
0010
0001
1000
0010
0100
0001
1000
0100
1000
0010
0100
0001
1000
,
0100
0010
0001
1000
0100
1000
0010
0100
0001
1000
0010
1000
0001
0100
0010
1000
,
0001
1000
0010
0100
0001
1000
0100
1000
0010
0100
0001
1000
0001
0100
0010
1000
,
0100
0010
0001
0100
0010
1000
0001
0010
0001
0100
0010
1000
0100
0010
0001
0100
,
0010
1000
0100
1000
0001
0100
0001
1000
0010
1000
0100
0010
0001
0100
0010
0100
,
0001
1000
0010
0100
0001
0010
0001
1000
0010
1000
0100
0010
0001
0100
0010
0100
,
0001
1000
0001
0100
0010
1000
0100
0010
0001
0100
0010
1000
0001
0010
0001
1000
,
0100
1000
0010
0100
0010
1000
0001
1000
0010
0100
0001
1000
0100
0010
0001
0100
,
0010
1000
0001
0010
0001
1000
0010
0100
0001
1000
0100
1000
0010
0100
0001
1000
,
0002
2003
3002
2003
3002
2003
3002
2003
,
3001
0100
0010
1000
0001
0010
0100
1000
0010
0100
0001
1000
0001
0100
0010
1000
,
0100
0010
0001
0100
0010
1000
0001
0010
0001
0100
0010
1000
0100
0010
0001
0100
,
0010
1000
0100
1000
0001
0100
0001
1000
0010
1000
0100
0010
0001
0100
0010
0100
,
0001
1000
0010
0100
0001
0010
0001
1000
0010
1000
0100
0010
0001
0100
0010
0100
,
0001
1000
0001
0100
0010
1000
0100
0010
0001
0100
0010
1000
0001
0010
0001
1000
,
0100
1000
0010
0100
0010
1000
0001
1000
0010
0100
0001
1000
0100
0010
0001
0100
,
0010
1000
0001
0010
0001
1000
0010
0100
0001
1000
0100
1000
0010
1000
0001
0100
,
0001
1000
0010
0100
0001
1000
0100
1000
0010
0100
0001
1000
0001
0100
0010
1000
,
0100
0010
0001
0100
0010
1000
0001
0010
0001
0100
0010
1000
0100
0010
0001
0100
,
0010
1000
0100
1000
0001
0100
0001
1000
0010
1000
0100
0010
0001
0100
0010
0100
,
0001
1000
0010
0100
0001
0010
0001
1000
0010
1000
0100
0010
0001
0100
0010
0100
,
0001
1000
0001
0100
0010
1000
0100
0010
0001
0100
0010
1000
0001
0010
0001
1000
,
0100
1000
0010
0100
0010
1000
0001
1000
0010
0100
0001
1000
0100
0010
0001
0100
,
0010
1000
0001
0010
0001
1000
0010
0100
0001
1000
0100
1000
0010
0100
0001
1000
,
0010
0100
0001
1000
0100
0010
0001
0100
0010
1000
0001
0010
0100
1000
0001
1000
,
0020
0000
0230
0000
0302
0000
2003
0000
3002
0000
0203
0000
0310
1000
0001
0010
,
0100
1000
0010
0100
0010
1000
0001
1000
0010
0100
0001
1000
0100
0010
0001
0100
,
0010
1000
0001
0010
0001
1000
0010
0100
0001
1000
0100
1000
0010
0100
0001
1000
,
0100
0010
0001
1000
0100
1000
0010
0100
0001
1000
0010
1000
0001
0100
0010
1000
,
0001
1000
0010
0100
0001
1000
0100
1000
0010
0100
0001
1000
0001
0100
0010
1000
,
0100
0010
0001
0100
0010
1000
0001
0010
0001
0100
0010
1000
0100
0010
0001
0100
,
0010
1000
0100
1000
0001
0100
0001
1000
0010
1000
0100
0010
0001
0100
0010
0100
,
0001
1000
0010
0100
0001
0010
0001
1000
0010
1000
0100
0010
0001
0100
0010
0100
,
0001
1000
0001
0100
0010
1000
0100
0010
0001
0100
0010
1000
0001
0010
0001
1000
,
01M0
1000
0001
0100
0010
1000
0001
1000
0010
0100
0001
1000
0100
1000
0010
0100
,
0010
1000
0001
1000
0010
0100
0001
1000
0100
0010
0001
0100
0010
1000
0001
0010
,
0001
1000
0010
0100
0001
1000
0100
1000
0010
0100
0001
1000
0100
0010
0001
1000
,
0100
1000
0010
0100
0001
1000
0010
1000
0001
0100
0010
1000
0001
1000
0010
0100
,
0001
1000
0100
1000
0010
0100
0001
1000
0001
0100
0010
1000
0100
0010
0001
0100
,
0010
1000
0001
0010
0001
0100
0010
1000
0100
0010
0001
0100
0010
1000
0100
1000
,
0001
0100
0001
1000
0010
1000
0100
0010
0001
0100
0010
0100
0001
1000
0010
0100
,
0001
0010
0001
1000
0010
1000
0100
0010
0001
0100
0010
0100
0001
1000
0001
0100
,
1001
0010
0110
0001
1001
0100
1010
0100
,
0101
1000
0110
0001
1100
0001
1010
0100
,
1001
0100
0011
1000
0110
0001
1100
0010
,
0101
1000
1010
0100
0011
0100
1001
0100
,
0110
0001
1100
0001
0011
0100
1010
1000
,
0101
0010
1001
0100
0110
0001
1100
0001
,
0011
0000
1000
0000
0100
0010
0001
1000
0001
0100
0010
1000
0100
1000
0001
0100
,
0010
1000
0001
0100
0001
1000
0100
0010
0001
0100
0010
1000
0001
0100
0010
0200
0000
0000
0000
0000
0000
0000
0000
0000
,
1301
0010
0110
0001
1001
0100
1010
0100
,
0101
1000
0110
0001
1100
0001
1010
0100
,
1001
0100
0011
1000
0110
0001
1100
0010
,
0101
1000
1010
0100
0011
0100
1001
0100
,
0110
0001
1100
0001
0011
0100
1010
1000
,
0101
0010
1001
0100
0110
0001
1100
0001
,
0011
1000
0110
1000
0011
1000
1001
0010
,
2000
0000
0100
0000
0001
0000
0100
0000
0001
0000
0100
0000
3001
0100
0010
0000
,
1100
0001
0110
0001
1001
0100
1010
0100
,
0101
1000
0110
0001
1100
0001
1010
0100
,
1001
0100
0011
1000
0110
0001
1100
0010
,
0101
1000
1010
0100
0011
0100
1001
0100
,
0110
0001
1100
0001
0011
0100
1010
1000
,
0101
0010
1001
0100
0110
0001
1100
0001
,
0011
1000
0110
1000
0011
1000
1001
0100
,
1010
0001
0110
0001
1001
0100
0011
0100
,
0001
1000
0010
0100
0001
1000
0100
1000
0010
0100
0001
1000
0001
0100
0010
1000
,
0100
0010
0001
0100
0010
1000
0001
0010
0001
0100
0010
1000
0100
0010
0001
0100
,
0010
1000
0100
1000
0001
0100
0001
1000
0010
1000
0100
0010
0001
0100
0010
0100
,
0001
1000
0010
0100
0001
0010
0001
1000
0010
1000
0100
0010
0001
0100
0010
0100
,
0001
1000
0001
0100
0010
1000
0100
0010
0001
0100
0010
1000
0001
0010
0001
1000
,
0100
1000
0010
0100
0010
1000
0001
1000
0010
0100
0001
1000
0100
0010
0001
0100
,
0010
1000
0001
0010
0001
1000
0010
0100
0001
1000
0100
1000
0010
0100
0001
1000
,
0002
1000
0100
1000
0100
1000
0100
1000
,
0013
1000
0001
0010
0100
1000
0001
0010
0001
0100
0010
1000
0100
0010
0001
0100
,
0010
1000
0100
1000
0001
0100
0001
1000
0010
1000
0100
0010
0001
0100
0010
0100
,
0001
1000
0010
0100
0001
0010
0001
1000
0010
1000
0100
0010
0001
0100
0010
0100
,
0001
1000
0001
0100
0010
1000
0100
0010
0001
0100
0010
1000
0001
0010
0001
1000
,
0100
1000
0010
0100
0010
1000
0001
1000
0010
0100
0001
1000
0100
0010
0001
0100
,
0010
1000
0001
0010
0001
1000
0010
0100
0001
1000
0100
1000
0010
1000
0001
0100
,
0001
1000
0010
0100
0001
1000
0100
1000
0010
0100
0001
1000
0001
0100
0010
1000
,
0100
0010
0001
0100
0010
1000
0001
0010
0001
0100
0010
1000
0100
0010
0001
0100
,
0010
1000
0100
1000
0001
0100
0001
1000
0010
1000
0100
0010
0001
0100
0010
0100
,
0001
1000
0010
0100
0001
0010
0001
1000
0010
1000
0100
0010
0001
0100
0010
0100
,
0001
1000
0001
0100
0010
1000
0100
0010
0001
0100
0010
1000
0001
0010
0001
1000
,
0100
1000
0010
0100
0010
1000
0001
1000
0010
0100
0001
1000
0100
0010
0001
0100
,
0010
1000
0001
0010
0001
1000
0010
0100
0001
1000
0100
1000
0010
0100
0001
1000
,
0010
0100
0001
1000
0100
0010
0001
0100
0010
1000
0001
0010
0100
1000
0001
0100
,
0010
1000
0001
0010
0001
0100
0010
1000
0100
0010
0001
0100
0010
1000
0100
1000
,
0001
0100
0001
1000
0010
1000
0100
0010
0001
0100
0010
0100
0001
1000
0010
0100
,
0001
0010
0001
1000
0010
1000
0100
0010
0001
0100
0010
0100
0001
1000
0001
0100
,
0010
1000
0100
0010
0001
0100
0010
1000
0001
0010
0001
1000
0100
1000
0010
0100
,
0010
1000
0001
1000
0010
0100
0001
1000
0100
0010
0001
0100
0010
1000
0001
0010
,
0001
1000
0010
0100
0001
1000
0100
1000
0010
1000
0001
0100
0001
1000
0010
0100
,
0001
1000
0100
1000
0010
0100
0001
1000
0001
0100
0010
1000
0100
0010
0001
0100
,
0010
1000
0001
0010
0001
0100
0010
1000
0100
0010
0001
0100
0010
1000
0100
1000
,
0001
0100
0001
1000
0010
1000
0100
0010
0001
0100
0010
0100
0001
1000
0010
0100
,
0001
0010
0001
1000
0010
1000
0100
0010
0001
0100
0010
0100
0001
1000
0001
0100
,
0010
1000
0100
0010
0001
0100
0010
1000
0001
0010
0001
1000
0100
1000
0010
0100
,
0010
1000
0001
1000
0010
0100
0001
1000
0100
0010
0001
0100
0010
1000
0001
0010
,
0001
1000
0010
0100
0001
1000
0100
1000
0010
0100
0001
1000
0010
0100
0001
1000
,
0100
0010
0001
0100
0010
1000
0001
0010
0100
1000
0001
0100
0010
1000
0001
0010
,
0001
0100
0010
1000
0100
0010
0001
0100
0010
1000
0100
1000
0001
0100
0001
1000
,
0010
1000
0100
0010
0001
0100
0010
0100
0001
1000
0010
0100
0001
0010
0001
1000
,
0010
1000
0100
0010
0001
0100
0010
0100
0001
1000
0001
0100
0010
1000
0100
0010
,
0001
0100
0010
1000
0001
0010
0001
1000
0100
1000
0010
0100
0010
1000
0001
1000
,
0010
0100
0001
1000
0100
0010
0001
0100
0010
1000
0001
0010
0001
1000
0010
0100
,
0001
1000
0100
1000
0010
1000
0001
0100
0001
1000
0010
0100
0001
1000
0100
1000
,
0010
0100
0001
1000
0001
0100
0010
1000
0100
0010
0001
0100
0010
1000
0001
0010
,
0001
0100
0010
1000
0100
0010
0001
0100
0010
1000
0100
1000
0001
0100
0001
1000
,
0010
1000
0100
0010
0001
0100
0010
0100
0001
1000
0010
0100
0001
0010
0001
1000
,
0010
1000
0100
0010
0001
0100
0010
0100
0001
1000
0001
0100
0010
1000
0100
0010
,
0001
0100
0010
1000
0001
0010
0001
1000
0100
1000
0010
0100
0010
1000
0001
1000
,
0010
0100
0001
1000
0100
0010
0001
0100
0010
1000
0001
0010
0001
1000
0010
0100
,
M001
0100
0010
1000
0001
0010
0100
1000
0010
0100
0001
1000
0001
0100
0010
1000
,
0100
0010
0001
0100
0010
1000
0001
0010
0001
0100
0010
1000
0100
0010
0001
0100
,
0010
1000
0100
1000
0001
0100
0001
1000
0010
1000
0100
0010
0001
0100
0010
0100
,
0001
1000
0010
0100
0001
0010
0001
1000
0010
1000
0100
0010
0001
0100
0010
0100
,
0001
1000
0001
0100
0010
1000
0100
0010
0001
0100
0010
1000
0001
0010
0001
1000
,
0100
1000
0010
0100
0010
1000
0001
1000
0010
0100
0001
1000
0100
0010
0001
0100
,
0010
1000
0001
0010
0001
1000
0010
0100
0001
1000
0010
0100
0010
1000
0001
0100
,
0020
2030
3002
0023
0032
2003
3101
1000
,
0001
1000
0010
0100
0001
1000
0100
1000
0010
0100
0001
1000
0001
0100
0010
1000
,
0100
0010
0001
0100
0010
1000
0001
0010
0001
0100
0010
1000
0100
0010
0001
0100
,
0010
1000
0100
1000
0001
0100
0001
1000
0010
1000
0100
0010
0001
0100
0010
0100
,
0001
1000
0010
0100
0001
0010
0001
1000
0010
1000
0100
0010
0001
0100
0010
0100
,
0001
1000
0001
0100
0010
1000
0100
0010
0001
0100
0010
1000
0001
0010
0001
1000
,
0100
1000
0010
0100
0010
1000
0001
1000
0010
0100
0001
1000
0100
0010
0001
0100
,
0010
1000
0001
0010
0001
1000
0010
0100
0001
1000
0100
1000
0010
0100
0001
1000
,
0100
0010
0001
1000
0100
1000
0010
0100
0001
1000
0010
1000
0100
0010
0001
1000
,
0002
0003
2000
3020
0032
2003
3020
2030
,
3002
0023
0030
0200
0300
2000
3002
0023
,
0230
0000
0000
0300
0000
0000
2000
0000
3000
2000
0000
3000
0200
0000
0000
0320
0000
0000
0032
0000
0000
2003
0000
0000
,
3002
0000
0000
0000
0023
0000
0000
0000
0000
0000
0030
0000
0200
0000
0000
0000
0000
0000
0000
0300
2000
0000
0000
0000
3002
0000
0000
0000
0203
0000
0000
0000
,
0320
0030
2000
3200
0320
0032
2003
3020
,
0230
0302
0003
0200
0300
2000
3002
0023
,
0230
0000
0000
0300
0000
0000
2000
0000
3000
2000
0000
3000
0200
0000
0000
0320
0000
0000
0032
0000
0000
2003
0000
0000
,
3002
0000
0000
0000
0023
0000
0000
0000
0000
0000
0030
0000
0200
0000
0000
0000
0000
0000
0000
0300
2000
0000
0000
0000
3002
0000
0000
0000
0203
0000
0000
0000
,
0300
0000
0000
0000
,
0000
0000
0000
0000
;

//---------------dance-single - 18 (owenviau1)----------------
#NOTES:
     dance-single:
     18 (owenviau1):
     Challenge:
     18:
     1.000,1.000,0.697,0.423,1.000,2981.000,209.000,127.000,0.000,3.000:
2000
3000
0200
0320
0032
2003
3020
2030
,
3002
0023
0030
0200
0300
2000
3002
0023
,
0230
0000
0000
0300
0000
0000
2000
0000
3000
2000
0000
3000
0200
0000
0000
0320
0000
0000
0032
0000
0000
2003
0000
0000
,
3002
0000
0000
0000
0023
0000
0000
0000
0000
0000
0030
0000
0200
0000
0000
0000
0000
0000
0000
0300
2000
0000
0000
0000
3002
0000
0000
0000
0203
0000
0000
0000
,
0320
0030
2000
3200
0320
0032
2003
3020
,
0230
0302
0003
0200
0300
2000
3002
0023
,
0230
0000
0000
0300
0000
0000
2000
0000
3000
2000
0000
3000
0200
0000
0000
0320
0000
0000
0032
0000
0000
2003
0000
0000
,
3002
0000
0000
0000
0023
0000
0000
0000
0000
0000
0030
0000
0200
0000
0000
0000
0000
0000
0000
0300
2000
0000
0000
0000
3002
0000
0000
0000
0203
0000
0000
0000
,
1301
0010
0110
0001
1001
0100
1010
0100
,
0101
1000
0110
0001
1100
0001
1010
0100
,
1001
0100
0011
1000
0110
0001
1100
0010
,
0101
1000
1010
0100
0011
0100
1001
0100
,
0110
0001
1100
0001
0011
0100
1010
1000
,
0101
0010
1001
0100
0110
0001
1100
0001
,
0011
1000
0110
1000
0011
1000
1001
0100
,
1010
0100
0110
0001
1001
0100
1010
0001
,
1100
0000
0001
0000
0011
0000
0100
0000
1010
0000
0100
0001
1000
0000
0001
0000
,
0110
0010
1001
0100
1010
0001
0101
1000
,
0011
0000
0100
0000
1001
0000
0100
0000
0011
0000
1000
0100
0010
0000
0001
0000
,
0110
0010
1001
0100
1010
0001
0101
1000
,
0011
0000
0100
0000
1001
0000
0010
0000
0101
0000
1000
0001
0100
0000
0001
0000
,
1100
0010
1001
0100
1010
0001
0101
1000
,
0011
0000
0100
0000
1001
0000
0100
0000
0011
0000
1000
0100
0010
0000
0001
0000
,
1000
0001
1000
1000
0001
1000
0001
0001
1000
0001
1000
1000
0001
1000
0001
0001
,
1000
0010
0110
0001
1001
0100
1010
0100
,
0101
1000
0110
0001
1100
0001
1010
0100
,
1001
0100
0011
1000
0110
0001
1100
0010
,
0101
1000
1010
0100
0011
0100
1001
0100
,
0110
0001
1100
0001
0011
0100
1010
1000
,
0101
0010
1001
0100
0110
0001
1100
0001
,
0011
1000
0110
1000
0011
1000
1001
0100
,
1010
0100
0110
0001
1001
0010
0110
0001
,
1001
0100
1010
0100
0101
1000
0110
1001
,
1100
0001
1010
0100
1001
0100
0011
1000
,
0110
0001
1100
0010
0101
1000
1010
0110
,
0011
0100
1001
0100
0110
0001
1100
0001
,
0011
0100
1010
1000
0101
0010
1001
0101
,
0110
0001
1100
0001
0011
1000
0110
1000
,
0011
1000
1001
0100
1010
0100
0110
0101
,
1001
0010
0110
0001
1001
0100
1010
0100
,
0001
1000
0010
0100
0001
1000
0100
1000
0010
0100
0001
1000
0001
0100
0010
1000
,
0100
0010
0001
0100
0010
1000
0001
0010
0001
0100
0010
1000
0100
0010
0001
0100
,
0010
1000
0100
1000
0001
0100
0001
1000
0010
1000
0100
0010
0001
0100
0010
0100
,
0001
1000
0010
0100
0001
0010
0001
1000
0010
1000
0100
0010
0001
0100
0010
0100
,
0001
1000
0001
0100
0010
1000
0100
0010
0001
0100
0010
1000
0001
0010
0001
1000
,
0100
1000
0010
0100
0010
1000
0001
1000
0010
0100
0001
1000
0100
0010
0001
0100
,
0010
1000
0001
0010
0001
1000
0010
0100
0001
1000
0100
1000
0010
0100
0001
1000
,
0100
0010
0001
1000
0100
1000
0010
0100
0001
1000
0010
1000
0001
0100
0010
0100
,
0001
1000
0010
1000
0100
0010
0001
0100
0010
0100
0001
1000
0001
0100
0010
1000
0100
0010
0001
0100
0010
1000
0001
0010
,
0001
0100
0010
1000
0100
0010
0001
0100
0010
0100
0001
1000
0010
0100
0010
1000
0001
1000
0010
0100
0001
1000
0100
0010
,
0001
0100
0010
1000
0010
0100
0001
1000
0100
0010
0001
0100
0010
1000
0001
0010
0001
0100
0010
1000
0100
0010
0001
1000
,
0100
1000
0010
0100
0001
0010
0001
1000
0010
0100
0001
1000
0001
0100
0010
1000
0100
0010
0001
0100
0010
0100
0001
1000
,
0001
0100
0010
1000
0100
0010
0001
0100
0010
1000
0001
0010
0001
0100
0010
1000
0100
0010
0001
0100
0010
0100
0001
1000
,
0010
0100
0010
1000
0001
1000
0010
0100
0001
1000
0100
0010
0001
0100
0010
1000
0010
0100
0001
1000
0100
0010
0001
0100
,
0010
1000
0001
0010
0001
0100
0010
1000
0100
0010
0001
1000
0100
1000
0010
0100
0001
0010
0001
1000
0010
0100
0001
1000
,
0002
2003
3002
2003
3002
2003
3002
2003
,
3001
0100
0010
1000
0100
0010
0001
0100
0010
0100
0001
1000
0001
0100
0010
1000
0100
0010
0001
0100
0010
1000
0001
0010
,
0001
0100
0010
1000
0100
0010
0001
0100
0010
0100
0001
1000
0010
0100
0010
1000
0001
1000
0010
0100
0001
1000
0100
0010
,
0001
0100
0010
1000
0010
0100
0001
1000
0100
0010
0001
0100
0010
1000
0001
0010
0001
0100
0010
1000
0100
0010
0001
1000
,
0100
1000
0010
0100
0001
0010
0001
1000
0010
0100
0001
1000
0001
0100
0010
1000
0100
0010
0001
0100
0010
0100
0001
1000
,
0001
0100
0010
1000
0100
0010
0001
0100
0010
1000
0001
0010
0001
0100
0010
1000
0100
0010
0001
0100
0010
0100
0001
1000
,
0010
0100
0010
1000
0001
1000
0010
0100
0001
1000
0100
0010
0001
0100
0010
1000
0010
0100
0001
1000
0100
0010
0001
0100
,
0010
1000
0001
0010
0001
0100
0010
1000
0100
0010
0001
1000
0100
1000
0010
0100
0001
0010
0001
1000
0010
1000
0100
0010
,
0001
0100
0010
0100
0001
1000
0001
0100
0010
1000
0100
0010
0001
0100
0010
1000
0001
0010
0001
0100
0010
1000
0100
0010
,
0001
0100
0010
0100
0001
1000
0010
0100
0010
1000
0001
1000
0010
0100
0001
1000
0100
0010
0001
0100
0010
1000
0010
0100
,
0001
1000
0100
0010
0001
0100
0010
1000
0001
0010
0001
0100
0010
1000
0100
0010
0001
1000
0100
1000
0010
0100
0001
0010
,
0001
1000
0010
0100
0001
1000
0001
0100
0010
1000
0100
0010
0001
0100
0010
0100
0001
1000
0001
0100
0010
1000
0100
0010
,
0001
0100
0010
1000
0001
0010
0001
0100
0010
1000
0100
0010
0001
0100
0010
0100
0001
1000
0010
0100
0010
1000
0001
1000
,
0010
0100
0001
1000
0100
0010
0001
0100
0010
1000
0010
0100
0001
1000
0100
0010
0001
0100
0010
1000
0001
0010
0001
0100
,
0010
1000
0100
0010
0001
1000
0100
1000
0010
0100
0001
0010
0001
1000
0010
1000
0100
0010
0001
0100
0010
0100
0001
1000
,
0001
0100
0010
1000
0100
0010
0001
0100
0010
1000
0001
0010
0001
0100
0010
1000
0100
0010
0001
0100
0010
0100
0001
1000
,
0020
0000
0230
0000
0302
0000
2003
0000
3002
0000
0203
0000
0310
1000
0001
0010
,
0100
1000
0001
0010
0001
0100
0010
1000
0100
0010
0001
1000
0100
1000
0010
0100
0001
0010
0001
1000
0010
0100
0001
1000
,
0001
0100
0010
1000
0100
0010
0001
0100
0010
0100
0001
1000
0001
0100
0010
1000
0100
0010
0001
0100
0010
1000
0001
0010
,
0001
0100
0010
1000
0100
0010
0001
0100
0010
0100
0001
1000
0010
0100
0010
1000
0001
1000
0010
0100
0001
1000
0100
0010
,
0001
0100
0010
1000
0010
0100
0001
1000
0100
0010
0001
0100
0010
1000
0001
0010
0001
0100
0010
1000
0100
0010
0001
1000
,
0100
1000
0010
0100
0001
0010
0001
1000
0010
1000
0100
0010
0001
0100
0010
0100
0001
1000
0001
0100
0010
1000
0100
0010
,
0001
0100
0010
1000
0001
0010
0001
0100
0010
1000
0100
0010
0001
0100
0010
0100
0001
1000
0010
0100
0010
1000
0001
1000
,
0010
0100
0001
1000
0100
0010
0001
0100
0010
1000
0010
0100
0001
1000
0100
0010
0001
0100
0010
1000
0001
0010
0001
0100
,
0010
1000
0100
0010
0001
0100
0010
1000
0001
0010
0001
0100
0010
1000
0100
0010
,
0001
0100
0010
0100
0001
1000
0001
0100
0010
1000
0100
0010
0001
0100
0010
1000
0001
0010
0001
0100
0010
1000
0100
0010
,
0001
0100
0010
0100
0001
1000
0010
0100
0010
1000
0001
1000
0010
0100
0001
1000
0100
0010
0001
0100
0010
1000
0010
0100
,
0001
1000
0100
0010
0001
0100
0010
1000
0001
0010
0001
0100
0010
1000
0100
0010
0001
1000
0100
1000
0010
0100
0001
0010
,
0001
1000
0010
1000
0100
0010
0001
0100
0010
0100
0001
1000
0001
0100
0010
1000
0100
0010
0001
0100
0010
1000
0001
0010
,
0001
0100
0010
1000
0100
0010
0001
0100
0010
0100
0001
1000
0010
0100
0010
1000
0001
1000
0010
0100
0001
1000
0100
0010
,
0001
0100
0010
1000
0010
0100
0001
1000
0100
0010
0001
0100
0010
1000
0001
0010
0001
0100
0010
1000
0100
0010
0001
1000
,
0001
0100
0010
1000
0001
0010
0001
0100
0010
1000
0100
0010
0001
0100
0010
0100
,
0001
1000
0100
1000
0010
0100
0001
1000
0100
0010
0001
1000
0001
0100
0010
1000
,
1001
0010
0110
0001
1001
0100
1010
0100
,
0101
1000
0110
0001
1100
0001
1010
0100
,
1001
0100
0011
1000
0110
0001
1100
0010
,
0101
1000
1010
0100
0011
0100
1001
0100
,
0110
0001
1100
0001
0011
0100
1010
1000
,
0101
0010
1001
0100
0110
0001
1100
0001
,
0011
0000
1000
0000
0100
0010
0001
1000
0001
0100
0010
1000
0100
1000
0001
0100
,
0010
1000
0001
0100
0001
1000
0100
0010
0001
0100
0010
1000
0001
0100
0010
0200
0000
0000
0000
0000
0000
0000
0000
0000
,
1301
0010
0110
0001
1001
0100
1010
0100
,
0101
1000
0110
0001
1100
0001
1010
0100
,
1001
0100
0011
1000
0110
0001
1100
0010
,
0101
1000
1010
0100
0011
0100
1001
0100
,
0110
0001
1100
0001
0011
0100
1010
1000
,
0101
0010
1001
0100
0110
0001
1100
0001
,
0011
1000
0110
1000
0011
1000
1001
0010
,
2000
0000
0100
0000
0001
0000
0100
0000
0001
0000
0100
0000
3001
0100
0010
0000
,
1100
0001
0110
0001
1001
0100
1010
0100
,
0101
1000
0110
0001
1100
0001
1010
0100
,
1001
0100
0011
1000
0110
0001
1100
0010
,
0101
1000
1010
0100
0011
0100
1001
0100
,
0110
0001
1100
0001
0011
0100
1010
1000
,
0101
0010
1001
0100
0110
0001
1100
0001
,
0011
1000
0110
1000
0011
1000
1001
0100
,
1010
0001
0110
0001
1001
0100
0011
0100
,
0001
1000
0010
0100
0001
1000
0100
1000
0010
0100
0001
1000
0001
0100
0010
1000
,
0100
0010
0001
0100
0010
1000
0001
0010
0001
0100
0010
1000
0100
0010
0001
0100
,
0010
1000
0100
1000
0001
0100
0001
1000
0010
1000
0100
0010
0001
0100
0010
0100
,
0001
1000
0010
0100
0001
0010
0001
1000
0010
1000
0100
0010
0001
0100
0010
0100
,
0001
1000
0001
0100
0010
1000
0100
0010
0001
0100
0010
1000
0001
0010
0001
1000
,
0100
1000
0010
0100
0010
1000
0001
1000
0010
0100
0001
1000
0100
0010
0001
0100
,
0010
1000
0001
0010
0001
1000
0010
0100
0001
1000
0100
1000
0010
0100
0001
1000
,
0002
1000
0100
1000
0100
1000
0100
1000
,
0103
1000
0010
0100
0001
0010
0001
1000
0010
0100
0001
1000
0001
0100
0010
1000
0100
0010
0001
0100
0010
0100
0001
1000
,
0001
0100
0010
1000
0100
0010
0001
0100
0010
1000
0001
0010
0001
0100
0010
1000
0100
0010
0001
0100
0010
0100
0001
1000
,
0010
0100
0010
1000
0001
1000
0010
0100
0001
1000
0100
0010
0001
0100
0010
1000
0010
0100
0001
1000
0100
0010
0001
0100
,
0010
1000
0001
0010
0001
0100
0010
1000
0100
0010
0001
1000
0100
1000
0010
0100
0001
0010
0001
1000
0010
0100
0001
1000
,
0001
0100
0010
1000
0100
0010
0001
0100
0010
0100
0001
1000
0001
0100
0010
1000
0100
0010
0001
0100
0010
1000
0001
0010
,
0001
0100
0010
1000
0100
0010
0001
0100
0010
0100
0001
1000
0010
0100
0010
1000
0001
1000
0010
0100
0001
1000
0100
0010
,
0001
0100
0010
1000
0010
0100
0001
1000
0100
0010
0001
0100
0010
1000
0001
0010
0001
0100
0010
1000
0100
0010
0001
1000
,
0100
1000
0010
0100
0001
0010
0001
1000
0010
0100
0001
1000
0001
0100
0010
1000
0100
0010
0001
0100
0010
0100
0001
1000
,
0001
0100
0010
1000
0100
0010
0001
0100
0010
1000
0001
0010
0001
0100
0010
1000
0100
0010
0001
0100
0010
0100
0001
1000
,
0010
0100
0010
1000
0001
1000
0010
0100
0001
1000
0100
0010
0001
0100
0010
1000
0010
0100
0001
1000
0100
0010
0001
0100
,
0010
1000
0001
0010
0001
0100
0010
1000
0100
0010
0001
1000
0100
1000
0010
0100
0001
0010
0001
1000
0010
0100
0001
1000
,
0001
0100
0010
1000
0100
0010
0001
0100
0010
0100
0001
1000
0001
0100
0010
1000
0100
0010
0001
0100
0010
1000
0001
0010
,
0001
0100
0010
1000
0100
0010
0001
0100
0010
0100
0001
1000
0010
0100
0010
1000
0001
1000
0010
0100
0001
1000
0100
0010
,
0001
0100
0010
1000
0010
0100
0001
1000
0100
0010
0001
0100
0010
1000
0001
0010
0001
0100
0010
1000
0100
0010
0001
1000
,
0100
1000
0010
0100
0001
0010
0001
1000
0010
0100
0001
1000
0001
0100
0010
1000
0100
0010
0001
0100
0010
0100
0001
1000
,
0010
0100
0001
1000
0100
1000
0001
0100
0001
1000
0010
1000
0001
0100
0010
1000
,
0001
0100
0010
1000
0001
1000
0010
0100
0001
1000
0100
0010
0001
0100
0010
1000
0010
0100
0001
1000
0100
0010
0001
0100
,
0010
1000
0001
0010
0001
0100
0010
1000
0100
0010
0001
1000
0100
1000
0010
0100
0001
0010
0001
1000
0010
0100
0001
1000
,
0001
0100
0010
1000
0100
0010
0001
0100
0010
0100
0001
1000
0001
0100
0010
1000
0100
0010
0001
0100
0010
1000
0001
0010
,
0001
0100
0010
1000
0100
0010
0001
0100
0010
0100
0001
1000
0010
0100
0010
1000
0001
1000
0010
0100
0001
1000
0100
0010
,
0001
0100
0010
1000
0010
0100
0001
1000
0100
0010
0001
0100
0010
1000
0001
0010
0001
0100
0010
1000
0100
0010
0001
1000
,
0100
1000
0010
0100
0001
0010
0001
1000
0010
0100
0001
1000
0001
0100
0010
1000
0100
0010
0001
0100
0010
0100
0001
1000
,
0001
0100
0010
1000
0100
0010
0001
0100
0010
1000
0001
0010
0001
0100
0010
1000
0100
0010
0001
0100
0010
0100
0001
1000
,
0010
0100
0010
1000
0001
1000
0010
0100
0001
1000
0100
0010
0001
0100
0010
1000
0010
0100
0001
1000
0100
0010
0001
0100
,
0010
1000
0001
0010
0001
0100
0010
1000
0100
0010
0001
1000
0100
1000
0010
0100
0001
0010
0001
1000
0010
0100
0001
1000
,
0001
0100
0010
1000
0100
0010
0001
0100
0010
0100
0001
1000
0001
0100
0010
1000
0100
0010
0001
0100
0010
1000
0001
0010
,
0001
0100
0010
1000
0100
0010
0001
0100
0010
0100
0001
1000
0010
0100
0010
1000
0001
1000
0010
0100
0001
1000
0100
0010
,
0001
0100
0010
1000
0010
0100
0001
1000
0100
0010
0001
0100
0010
1000
0001
0010
0001
0100
0010
1000
0100
0010
0001
1000
,
0100
1000
0010
0100
0001
0010
0001
1000
0010
0100
0001
1000
0001
0100
0010
1000
0100
0010
0001
0100
0010
0100
0001
1000
,
0001
0100
0010
1000
0100
0010
0001
0100
0010
1000
0001
0010
0001
0100
0010
1000
0100
0010
0001
0100
0010
0100
0001
1000
,
0010
0100
0010
1000
0001
1000
0010
0100
0001
1000
0100
0010
0001
0100
0010
1000
0010
0100
0001
1000
0100
0010
0001
0100
,
0010
1000
0100
0010
0001
1000
0001
0100
0010
1000
0100
1000
0001
0010
0001
1000
,
0100
1000
0010
0100
0001
0010
0001
1000
0010
0100
0001
1000
0001
0100
0010
1000
0100
0010
0001
0100
0010
0100
0001
1000
,
0001
0100
0010
1000
0100
0010
0001
0100
0010
1000
0001
0010
0001
0100
0010
1000
0100
0010
0001
0100
0010
0100
0001
1000
,
0010
0100
0010
1000
0001
1000
0010
0100
0001
1000
0100
0010
0001
0100
0010
1000
0010
0100
0001
1000
0100
0010
0001
0100
,
0010
1000
0001
0010
0001
0100
0010
1000
0100
0010
0001
1000
0100
1000
0010
0100
0001
0010
0001
1000
0010
0100
0001
1000
,
0001
0100
0010
1000
0100
0010
0001
0100
0010
0100
0001
1000
0001
0100
0010
1000
0100
0010
0001
0100
0010
1000
0001
0010
,
0001
0100
0010
1000
0100
0010
0001
0100
0010
0100
0001
1000
0010
0100
0010
1000
0001
1000
0010
0100
0001
1000
0100
0010
,
0001
0100
0010
1000
0010
0100
0001
1000
0100
0010
0001
0100
0010
1000
0001
0010
0001
0100
0010
1000
0100
0010
0001
1000
,
0100
1000
0010
0100
0001
0010
0001
1000
0010
0100
0001
1000
0001
0100
0010
1000
0100
0010
0001
0100
0010
0100
0001
1000
,
0001
0100
0010
1000
0100
0010
0001
0100
0010
1000
0001
0010
0001
0100
0010
1000
0100
0010
0001
0100
0010
0100
0001
1000
,
0010
0100
0010
1000
0001
1000
0010
0100
0001
1000
0100
0010
0001
0100
0010
1000
0010
0100
0001
1000
0100
0010
0001
0100
,
0010
1000
0001
0010
0001
0100
0010
1000
0100
0010
0001
1000
0100
1000
0010
0100
0001
0010
0001
1000
0010
0100
0001
1000
,
0001
0100
0010
1000
0100
0010
0001
0100
0010
0100
0001
1000
0001
0100
0010
1000
0100
0010
0001
0100
0010
1000
0001
0010
,
0001
0100
0010
1000
0100
0010
0001
0100
0010
0100
0001
1000
0010
0100
0010
1000
0001
1000
0010
0100
0001
1000
0100
0010
,
0001
0100
0010
1000
0010
0100
0001
1000
0100
0010
0001
0100
0010
1000
0001
0010
0001
0100
0010
1000
0100
0010
0001
1000
,
0100
1000
0010
0100
0001
0010
0001
1000
0010
0100
0001
1000
0001
0100
0010
1000
0100
0010
0001
0100
0010
0100
0001
1000
,
0020
2030
3002
0023
0032
2003
3101
1000
,
0001
1000
0010
0100
0001
1000
0100
1000
0010
0100
0001
1000
0001
0100
0010
1000
,
0100
0010
0001
0100
0010
1000
0001
0010
0001
0100
0010
1000
0100
0010
0001
0100
,
0010
1000
0100
1000
0001
0100
0001
1000
0010
1000
0100
0010
0001
0100
0010
0100
,
0001
1000
0010
0100
0001
0010
0001
1000
0010
1000
0100
0010
0001
0100
0010
0100
,
0001
1000
0001
0100
0010
1000
0100
0010
0001
0100
0010
1000
0001
0010
0001
1000
,
0100
1000
0010
0100
0010
1000
0001
1000
0010
0100
0001
1000
0100
0010
0001
0100
,
0010
1000
0001
0010
0001
1000
0010
0100
0001
1000
0100
1000
0010
0100
0001
1000
,
0100
0010
0001
1000
0100
1000
0010
0100
0001
1000
0010
1000
0100
0010
0001
1000
,
0002
0003
2000
3020
0032
2003
3020
2030
,
3002
0023
0030
0200
0300
2000
3002
0023
,
0230
0000
0000
0300
0000
0000
2000
0000
3000
2000
0000
3000
0200
0000
0000
0320
0000
0000
0032
0000
0000
2003
0000
0000
,
3002
0000
0000
0000
0023
0000
0000
0000
0000
0000
0030
0000
0200
0000
0000
0000
0000
0000
0000
0300
2000
0000
0000
0000
3002
0000
0000
0000
0203
0000
0000
0000
,
0320
0030
2000
3200
0320
0032
2003
3020
,
0230
0302
0003
0200
0300
2000
3002
0023
,
0230
0000
0000
0300
0000
0000
2000
0000
3000
2000
0000
3000
0200
0000
0000
0320
0000
0000
0032
0000
0000
2003
0000
0000
,
3002
0000
0000
0000
0023
0000
0000
0000
0000
0000
0030
0000
0200
0000
0000
0000
0000
0000
0000
0300
2000
0000
0000
0000
3002
0000
0000
0000
0203
0000
0000
0000
,
0300
0000
0000
0000
,
0000
0000
0000
0000
;
