#TITLE:Have It All;
#SUBTITLE:;
#ARTIST:Triple J;
#TITLETRANSLIT:;
#SUBTITLETRANSLIT:;
#ARTISTTRANSLIT:;
#CREDIT:Owem;
#BANNER:../banner.png;
#BACKGROUND:../bg.png;
#LYRICSPATH:;
#CDTITLE:../cdtitleowem.png;
#MUSIC:Triple J - Have It All.ogg;
#OFFSET:-0.164;
#SAMPLESTART:175.562;
#SAMPLELENGTH:29.999;
#SELECTABLE:YES;
#DISPLAYBPM:182.000;
#BPMS:0.000=181.668,1.000=181.643,22.000=181.656,23.000=181.643,45.000=181.656,46.000=181.643,68.000=181.656,69.000=181.643,91.000=181.656,92.000=181.643,114.000=181.656,115.000=181.643,136.000=181.656,137.000=181.643,160.000=181.656,161.000=181.643,183.000=181.656,184.000=181.643,205.000=181.656,206.000=181.643,228.000=181.656,229.000=181.643,250.000=181.656,251.000=181.643,273.000=181.656,274.000=181.643,294.000=181.631,295.000=181.643,298.000=181.656,299.000=181.643,319.000=181.631,320.000=181.643,321.000=181.656,322.000=181.643,342.000=181.631,343.000=181.656,344.000=181.643,364.000=181.631,365.000=181.643,366.000=181.656,367.000=181.643,387.000=181.631,388.000=181.656,389.000=181.643,409.000=181.631,410.000=181.643,411.000=181.656,412.000=181.643,432.000=181.631,433.000=181.656,434.000=181.643,454.000=181.631,455.000=181.643,456.000=181.656,457.000=181.643,477.000=181.631,478.000=181.656,479.000=181.643,499.000=181.631,500.000=181.643,501.000=181.656,502.000=181.643,522.000=181.631,523.000=181.656,524.000=181.643,544.000=181.631,545.000=181.643,546.000=181.656,547.000=181.643,567.000=181.631,568.000=181.643,569.000=181.656,570.000=181.643,584.000=181.631,585.000=181.643,597.000=181.656,598.000=181.643,612.000=181.631,613.000=181.643,619.000=181.656,620.000=181.643,634.000=181.631,635.000=181.643,642.000=181.656,643.000=181.643,656.000=181.631,657.000=181.643,664.000=181.656,665.000=181.643,678.000=181.631,679.000=181.643,687.000=181.656,688.000=181.643,702.000=181.631,703.000=181.643,709.000=181.656,710.000=181.643,724.000=181.631,725.000=181.643,732.000=181.656,733.000=181.643,746.000=181.631,747.000=181.643,754.000=181.656,755.000=181.643,768.000=181.631,769.000=181.643,777.000=181.656,778.000=181.643,792.000=181.631,793.000=181.643,800.000=181.656,801.000=181.643,814.000=181.631,815.000=181.643,822.000=181.656,823.000=181.643,836.000=181.631,837.000=181.643,845.000=181.656,846.000=181.643,860.000=181.631,861.000=181.643,867.000=181.656,868.000=181.643,882.000=181.631,883.000=181.643,890.000=181.656,891.000=181.643,904.000=181.631,905.000=181.643,912.000=181.656,913.000=181.643,926.000=181.631,927.000=181.643,935.000=181.656,936.000=181.643,950.000=181.631,951.000=181.643,957.000=181.656,958.000=181.643,972.000=181.631,973.000=181.643,980.000=181.656,981.000=181.643,994.000=181.631,995.000=181.643,1002.000=181.656,1003.000=181.643,1016.000=181.631,1017.000=181.643,1025.000=181.656,1026.000=181.643,1040.000=181.631,1041.000=181.643,1047.000=181.656,1048.000=181.643,1062.000=181.631,1063.000=181.643,1070.000=181.656,1071.000=181.643,1076.000=181.868,1112.000=181.856,1113.000=181.881,1114.000=181.856,1115.000=181.881,1116.000=181.856,1117.000=181.868,1151.000=181.881,1152.000=181.856,1154.000=181.881,1156.000=181.856,1158.000=181.881,1159.000=181.856,1160.000=181.881,1161.000=181.856,1162.000=181.881,1163.000=181.856,1164.000=181.881,1165.000=181.856,1166.000=181.881,1167.000=181.856,1168.000=181.881,1169.000=181.856,1170.000=181.881,1171.000=181.856,1172.000=181.881,1173.000=181.856,1174.000=181.881,1175.000=181.856,1176.000=181.881,1177.000=181.856,1178.000=181.881,1179.000=181.856,1180.000=181.881,1181.000=181.856,1182.000=181.881,1183.000=181.856,1184.000=181.881,1185.000=181.856,1186.000=181.881,1187.000=181.856,1188.000=181.881,1189.000=181.856,1190.000=181.881,1191.000=181.856,1192.000=181.881,1193.000=181.856,1194.000=181.881,1195.000=181.856,1196.000=181.881,1197.000=181.856,1198.000=181.881,1199.000=181.856,1200.000=181.881,1201.000=181.856,1202.000=181.881,1203.000=181.856,1204.000=181.881,1205.000=181.856,1206.000=181.881,1207.000=181.856,1208.000=181.881,1209.000=181.856,1210.000=181.881,1211.000=181.856,1212.000=181.881,1213.000=181.856,1214.000=181.881,1215.000=181.856,1216.000=181.881,1217.000=181.856,1218.000=181.881,1219.000=181.856,1221.000=181.881,1223.000=181.856,1225.000=181.881,1227.000=181.856,1229.000=181.881,1231.000=181.856,1233.000=181.881,1235.000=181.856,1237.000=181.881,1238.000=181.856,1239.000=181.881,1240.000=181.856,1241.000=181.881,1242.000=181.856,1243.000=181.881,1244.000=181.856,1245.000=181.881,1246.000=181.856,1247.000=181.881,1248.000=181.856,1249.000=181.881,1250.000=181.856,1251.000=181.881,1252.000=181.856,1253.000=181.881,1254.000=181.856,1255.000=181.881,1256.000=181.856,1257.000=181.881,1258.000=181.856,1259.000=181.881,1260.000=181.856,1261.000=181.881,1262.000=181.856,1263.000=181.881,1264.000=181.856,1265.000=181.881,1266.000=181.856,1267.000=181.881,1268.000=181.856,1269.000=181.881,1270.000=181.856,1271.000=181.881,1272.000=181.856,1273.000=181.881,1274.000=181.856,1275.000=181.881,1276.000=181.856,1277.000=181.881,1278.000=181.856,1279.000=181.881,1280.000=181.856,1281.000=181.881,1282.000=181.856,1283.000=181.881,1284.000=181.856,1285.000=181.881,1286.000=181.856,1287.000=181.881,1288.000=181.856,1289.000=181.881,1290.000=181.856,1291.000=181.881,1292.000=181.856,1293.000=181.881,1294.000=181.856,1295.000=181.881,1296.000=181.856,1297.000=181.881,1298.000=181.856,1300.000=181.881,1302.000=181.856,1304.000=181.881,1306.000=181.856,1308.000=181.881,1310.000=181.856;
#STOPS:;
#BGCHANGES:;
// cache tags:
#FIRSTBEAT:7.000;
#LASTBEAT:1310.500;
#SONGFILENAME:Songs/Owem's Simfiles 08 (not release)/Have It All - [Owem]/Have It All.sm;
#HASMUSIC:1;
#HASBANNER:1;
#MUSICLENGTH:433.240;
// end cache tags

//---------------dance-single - 4/3-15-15-16/38/3-15----------------
#NOTES:
     dance-single:
     4/3-15-15-16/38/3-15:
     Challenge:
     16:
     1.000,1.000,0.067,0.185,1.000,3307.000,29.000,80.000,3.000,0.000:
0000
0000
0000
0000
,
0000
0000
0000
1000
,
0010
0100
0001
1000
,
0001
0100
0010
1000
,
0010
0100
0001
1000
,
0100
0000
0010
0000
0001
1000
0001
0100
,
0010
1000
0010
0100
0001
1000
0100
1000
,
0001
0010
0001
0100
0010
1000
0010
0100
,
0001
1000
0100
0010
0001
1000
0100
1000
,
0001
0000
0100
0000
0001
0000
0010
0000
0100
0000
1000
0010
1000
0000
0001
0000
,
0100
0010
1000
0010
0100
0001
1000
0001
,
0100
0010
0100
0001
0010
0001
1000
0010
,
1000
0100
0010
0001
1000
0001
0010
0100
,
1000
0001
0100
0010
1000
0001
1001
1000
,
0100
0010
0001
1000
0100
1000
0001
0010
,
0001
0100
0010
1000
0010
0100
0001
1000
,
0010
1000
0100
0010
0001
1000
0101
0001
,
0000
0000
0001
0000
1000
0000
0010
0000
1000
0000
0001
0100
0001
0000
1000
0000
,
0010
0100
0010
1000
0001
0100
0001
0010
,
0100
1000
0001
0100
0010
0100
0001
1000
,
0010
1000
0100
0010
0001
1000
0100
1000
,
0001
0100
0010
2000
3200
0320
0031
0100
,
0010
1000
0010
0100
0001
1000
0001
0010
,
0100
1000
0001
0010
0001
0100
0010
1000
,
0010
0100
0001
1000
0010
1000
0100
0010
,
0001
0000
1000
0000
0400
0000
4300
0000
3004
0000
0103
0010
0100
0000
0001
0000
,
1000
0010
1000
0001
0100
0010
0100
0001
,
1000
0010
1000
0100
0010
0001
1000
0100
,
1000
0001
0010
0001
0100
0010
1000
0010
,
0100
0001
1000
0002
0203
0320
1030
0001
,
1000
0100
0010
0001
1000
0100
0010
0100
,
1000
0001
1000
0010
1000
0001
0100
0010
,
0100
0000
0001
0000
1000
0000
0100
0000
0010
0000
0001
1000
0001
0000
0100
0010
,
0100
0001
1000
0010
0100
0010
2000
0000
3002
0000
0103
0010
0100
0000
0001
0000
,
1000
0100
1000
0001
0010
0001
0100
0010
,
1000
0010
0100
0001
1000
0100
0010
0001
,
1000
0100
1000
0001
0010
0001
0100
0010
,
1000
0010
0100
0002
2003
3020
0130
0001
,
1000
0001
0010
0100
1000
0001
0010
0001
,
0100
0010
1000
0010
0100
0001
1000
0010
,
1000
0100
0010
0001
1000
0100
1000
0001
,
0100
0000
0010
0000
0100
0001
1000
0000
0100
0010
0001
1000
0001
0000
0010
0000
,
0100
1000
0001
1000
0010
0100
0010
1000
,
0001
0100
0001
0010
0100
1000
0001
0010
,
0001
1000
0100
1000
0010
0100
0001
0100
,
0010
0000
1000
0000
0001
0000
2000
0000
3200
0000
0310
0001
1000
0000
0010
0000
,
0100
0001
1000
0001
0100
0010
1000
0010
0100
0001
0100
0010
1000
0001
1000
0100
,
0010
0001
1000
0100
1000
0001
0010
0001
0100
0010
1000
0010
0100
0001
1000
0010
,
0100
0010
1000
0001
0100
0001
0010
0100
1000
0001
0010
0001
0100
0010
1000
0010
,
0100
0001
1000
0100
1000
0001
0010
0001
0100
0010
1000
0001
0200
0000
0000
0000
,
0000
0000
0000
0000
,
0000
0000
0000
0000
,
0020
0000
0000
0000
0000
0300
1030
0000
,
0000
0001
0000
0000
0100
0000
0000
0010
,
0000
0000
1000
0000
0001
0100
0001
0000
,
0000
0010
0000
0000
0100
0000
0000
1000
,
0000
0001
0100
0010
0100
0001
1000
0000
,
0000
0100
0000
0000
0010
0000
0000
0001
,
0000
0000
1000
0000
0010
0100
0010
0000
,
0000
1000
0000
0000
0001
0000
0000
0010
,
0000
0000
0100
1000
0001
1000
01M0
0000
,
0010
0000
0001
1000
0000
0020
0000
0000
,
0030
0000
0000
0100
,
0001
0000
1000
0000
0100
0020
0000
0030
,
0000
0000
0000
0000
0000
0001
0100
0010
,
0000
1000
0000
0001
0000
0020
0000
0000
,
0030
0000
0000
0000
0000
0000
0100
1000
,
0000
0001
0000
0100
0000
0020
0000
0000
,
0030
0000
0000
0000
0000
0000
1000
0100
,
0000
0010
0000
0001
0000
2000
0000
0000
,
3000
0000
00M0
0000
0000
0000
0001
0100
,
0000
0010
0000
1000
0000
0002
0000
0000
,
0023
0000
0M30
0000
0000
0000
0100
1000
,
0000
0001
0000
0100
0000
0020
0000
0000
,
0230
0302
0000
0000
2003
3020
0000
0000
,
0000
0000
0030
0000
0100
0000
0000
0001
,
0000
0000
1000
0010
1000
0001
0200
0000
,
0000
0000
0000
0000
0000
0010
0010
0000
,
0000
0000
0000
0001
0001
0000
0001
0000
,
0000
0000
0300
0010
,
0000
1000
0000
0001
0100
0001
0020
0000
,
0000
0000
0000
0000
0000
0100
0100
0000
,
0000
0000
0000
0100
0100
0000
0100
0000
,
0000
0000
0030
0000
0100
1000
0001
0000
,
0000
0100
0000
0010
1000
0001
2000
0000
,
0000
0000
0000
0000
0000
0100
0100
0000
,
0000
0000
0000
0010
0010
0000
0010
0000
,
0000
0000
0000
0000
3000
0000
0001
0100
,
0000
0010
0000
1000
0001
1000
0200
0000
,
0000
0000
0000
0000
0000
0010
0010
0000
,
0000
0000
0000
1000
1000
0000
1000
0000
,
0000
0000
0300
0000
0010
0001
1000
0001
,
0000
0010
0100
1000
0001
1000
1010
0010
,
0100
0000
0001
1000
0000
0010
0000
0100
0001
0000
0010
0000
0100
0000
1000
0000
,
0001
0000
0100
0010
0000
1000
0000
0010
0100
0000
0001
0000
1000
0000
0100
0000
,
0010
0000
0001
1000
0000
0001
0000
1000
0001
0000
0100
0000
0010
0000
1000
0000
,
0001
0000
0010
0100
0000
1000
0001
0000
0100
0000
0010
1000
0010
0000
0100
0000
,
0001
0000
1000
0100
0000
0010
0000
0001
1000
0000
0010
0000
0100
0000
0001
0000
,
1000
0000
0010
1000
0000
0010
0000
0100
0001
0000
1000
0000
0001
0000
0010
0000
,
0100
0000
1000
0001
0000
1000
0000
0010
0100
0000
0001
0000
1000
0000
0100
0000
,
0010
0000
0001
1000
0000
0010
0200
0000
0302
0000
1003
0000
1010
0000
0010
0000
,
0100
0000
0001
1000
0000
0010
0000
0100
0001
0000
0010
0000
0100
0000
1000
0000
,
0001
0000
0100
0010
0000
1000
0000
0010
0100
0000
0001
0000
1000
0000
0100
0000
,
0010
0000
0001
1000
0000
0001
0000
1000
0001
0000
0100
0000
0010
0000
1000
0000
,
0001
0000
0010
0100
0000
1000
0001
0000
0100
0000
0010
1000
0010
0000
0100
0000
,
0001
0000
1000
0100
0000
0010
0000
0001
1000
0000
0010
0000
0100
0000
0001
0000
,
1000
0000
0010
1000
0000
0010
0000
0100
0001
0000
1000
0000
0001
0000
0010
0000
,
0100
0000
1000
0001
0000
1000
0000
0010
0100
0000
0001
0000
1000
0000
0100
0000
,
0010
0000
0001
1000
0000
0010
0200
0000
0302
0000
2003
0000
3100
0000
0010
0000
,
0001
0000
1000
0010
0000
0100
0000
0001
1000
0000
0010
0000
0100
0000
0001
0000
,
1000
0000
0100
0010
0000
0001
0000
1000
0001
0000
0100
0000
0010
0000
0100
0000
,
0001
0000
1000
0010
0000
1000
0000
0001
0100
0000
0010
0000
1000
0000
0010
0000
,
0100
0000
0001
1000
0000
0100
0000
0010
0001
0000
1000
0000
0010
0100
0010
1000
,
0001
0100
0001
0010
0100
1000
0001
1000
0010
0100
0010
1000
0001
0010
0001
0100
,
0010
1000
0010
0100
0001
1000
0100
1000
0001
0100
0001
1000
0001
0100
0010
1000
,
0010
0100
0001
1000
0100
0010
0001
1000
0100
1000
0001
0100
0010
0000
0000
0000
,
2010
3000
0000
0000
0120
0030
0000
0000
0201
0300
0001
0000
1000
0100
0010
0001
,
1000
0001
0100
0010
0100
0001
1000
0010
1000
0001
0100
0001
0010
0100
1000
0001
,
1000
0010
0100
0010
1000
0001
0100
0001
1000
0001
0100
0010
0100
0001
1000
0010
,
1000
0100
0010
0001
1000
0100
1000
0001
0010
0001
0100
0010
1000
0010
0100
0001
,
1000
0100
1000
0001
0010
0001
0100
0010
1000
0010
0100
0001
1000
0001
0100
0010
,
0100
0001
1000
0010
1000
0100
0010
0001
1000
0100
1000
0001
0010
0001
0100
0010
,
1000
0010
0100
0001
1000
0100
1000
0001
0010
0001
0100
0010
1000
0010
0100
0001
,
1000
0001
0100
0010
0100
0001
1000
0001
0010
0001
0100
0010
1000
0010
0100
0001
,
1000
0100
1000
0001
0010
0001
0100
0010
1000
0010
0100
0001
1000
0100
1000
0001
,
0010
0001
0100
0010
1000
0010
0100
0001
1000
0010
1000
0001
0100
0001
1000
0001
,
0100
0010
0100
0001
1000
0010
1000
0100
0010
0001
0010
0100
1000
0001
0010
0001
,
0100
0010
1000
0010
0100
0001
1000
0001
0100
0010
0100
0001
1000
0100
0010
0100
,
1000
0001
0010
0001
0100
0010
1000
0010
0100
0001
1000
0001
0010
0100
0010
0001
,
1000
0010
1000
0100
0010
0001
1000
0100
1000
0001
0100
0001
0010
0100
1000
0001
,
0100
0001
1000
0010
0100
0001
0100
0010
1000
0001
1000
0100
0010
0001
1000
0100
,
1000
0001
0010
0001
0100
0010
1000
0010
0100
0001
1000
0001
0010
0000
0000
0000
,
0210
0300
0000
0000
1200
0300
1000
0000
2001
3000
0100
0010
1000
0001
0100
0001
,
0010
0100
1000
0001
0010
0001
0100
0010
1000
0010
0100
0001
1000
0010
1000
0001
,
0100
0001
1000
0010
1000
0100
0010
0001
1000
0100
1000
0001
0010
0001
0100
0010
,
1000
0010
0100
0001
1000
0100
1000
0001
0010
0001
0100
0010
1000
0010
0100
0001
,
1000
0100
1000
0001
0010
0001
0100
0010
1000
0010
0100
0001
1000
0010
1000
0100
,
0010
0001
1000
0100
1000
0001
0010
0001
0100
0010
1000
0010
0100
0001
1000
0001
,
0100
0010
0100
0001
1000
0010
1000
0100
0010
0001
1000
0100
1000
0001
0010
0001
,
0100
0010
1000
0010
0100
0001
1000
0010
1000
0001
0100
0001
1000
0100
0010
0001
,
1000
0001
0100
0010
0100
0001
1000
0010
1000
0001
0100
0001
0010
0100
1000
0100
,
0010
0001
1000
0010
1000
0001
0100
0001
1000
0010
1000
0100
0010
0001
1000
0100
,
1000
0001
0010
0001
0100
0010
1000
0010
0100
0001
1000
0001
0100
0010
0100
0001
,
1000
0010
1000
0001
0100
0001
0010
0100
1000
0001
0010
0001
0100
0010
1000
0010
,
0100
0001
1000
0010
1000
0001
0100
0001
1000
0100
0010
0001
1000
0100
1000
0001
,
0010
0001
0100
0010
1000
0010
0100
0001
1000
0010
1000
0001
0010
0001
0100
0010
,
0100
0001
1000
0100
0010
0100
1000
0001
0010
0001
1000
0001
0100
0010
0100
0001
,
1000
0010
1000
0100
0010
0001
1000
0100
1000
0001
0100
0010
1000
0000
0000
0000
,
0102
0003
0000
0000
2010
3000
1000
0000
1002
0003
0010
0100
1000
0001
0100
0010
,
0100
0001
1000
0010
1000
0100
0010
0001
1000
0100
1000
0010
0100
0010
1000
0001
,
0100
0001
0010
0100
1000
0001
0010
0001
0100
0010
1000
0010
0100
0001
1000
0010
,
1000
0001
0100
0001
0010
0100
1000
0001
0010
0001
0100
0010
1000
0010
0100
0001
,
1000
0010
1000
0001
0100
0001
1000
0100
0010
0001
1000
0100
1000
0001
0010
0001
,
0100
0010
1000
0010
0100
0001
1000
0010
1000
0001
0100
0010
0100
0001
1000
0010
,
1000
0001
0100
0001
0010
0100
1000
0001
0010
0001
0100
0010
1000
0010
0100
0001
,
1000
0100
1000
0001
0010
0001
0100
0010
1000
0010
0100
0001
1000
0001
0100
0010
,
0100
0001
1000
0010
1000
0001
0100
0001
0010
0100
1000
0001
0010
0001
0100
0010
,
1000
0010
0100
0001
1000
0010
1000
0001
0100
0001
0010
0100
1000
0001
1000
0010
,
0100
0010
1000
0001
0100
0001
0010
0100
1000
0001
0010
0001
0100
0010
1000
0010
,
0100
0001
1000
0001
0100
0010
1000
0010
0100
0001
0010
0001
1000
0100
1000
0001
,
0010
0001
0100
0010
1000
0010
0100
0001
1000
0001
0010
0001
0100
0010
1000
0010
,
0100
0001
1000
0100
1000
0001
0010
0001
0100
0010
1000
0010
0100
0001
1000
0010
,
1000
0001
0100
0001
0010
0100
1000
0100
0010
0001
1000
0100
1000
0001
0100
0010
,
0100
0001
1000
0010
1000
0001
0100
0001
0010
0100
1000
0001
1000
0010
0100
0010
,
1000
0001
0010
0001
0100
0010
1000
0010
0100
0001
1000
0001
0010
0000
0100
0000
,
0000
0001
0000
1000
0100
1000
0010
0100
,
0000
0001
0000
1000
0010
1000
0001
0100
,
0000
0010
0000
1000
0001
1000
0100
0010
,
0000
0001
0000
1000
0001
1000
0010
0100
,
0000
0001
0000
1000
0100
0010
0001
1000
,
0000
0010
0000
0100
0001
1000
0001
0100
,
0000
0010
0000
1000
0100
1000
0001
0100
,
0000
0010
0000
0100
0001
1000
1001
0001
,
0000
0100
0000
0010
1000
0010
0100
0001
,
0000
0000
1000
0000
0000
0000
0100
0000
0010
0000
0001
0000
1000
0010
0100
0001
,
1000
0001
0100
0010
0100
0001
1000
0010
1000
0001
0100
0001
0010
0100
1000
0001
,
0010
0001
0100
0010
1000
0010
0100
0001
1000
0010
1000
0001
0100
0001
0010
0100
,
1000
0001
0010
0001
0100
0010
1000
0010
0100
0001
1000
0001
0100
0010
0100
0001
,
1000
0010
1000
0001
0100
0001
0010
0100
1000
0100
0010
0001
1000
0010
1000
0001
,
0100
0010
1000
0010
0100
0001
1000
0100
1000
0001
0010
0001
0100
0010
1000
0010
,
0100
0001
1000
0100
1000
0001
0010
0001
0100
0010
1000
0001
1000
0100
0010
0001
,
1000
0001
0100
0010
1000
0010
0100
0001
1000
0001
0010
0100
1000
0001
0010
0001
,
0100
0010
1000
0010
0100
0001
1000
0010
1000
0100
0010
0001
1000
0100
1000
0001
,
0010
0001
0100
0010
1000
0010
0100
0001
1000
0010
0100
0010
1000
0001
0100
0001
,
0010
0100
1000
0001
0010
0001
0100
0010
0100
0001
1000
0010
1000
0100
0010
0001
,
1000
0100
1000
0001
0010
0001
0100
0010
1000
0010
0100
0001
1000
0100
1000
0001
,
0010
0001
0100
0010
1000
0010
0100
0001
1000
0001
0100
0010
0100
0001
1000
0100
,
1000
0001
0010
0001
0100
0010
1000
0010
0100
0001
1000
0100
1000
0001
0010
0001
,
0100
0010
1000
0010
0100
0001
1000
0001
1000
0010
0100
0010
1000
0001
0010
0001
,
0100
0010
1000
0010
0100
0001
1000
0100
0010
0100
1000
0001
0010
0001
0100
0010
,
1000
0001
0010
0100
0010
0001
1000
0010
1000
0001
0100
0001
0010
0100
1000
0001
,
0010
0001
0100
0010
1000
0010
0100
0001
1000
0100
1000
0001
0010
0001
0100
0010
,
1000
0010
0100
0001
1000
0010
1000
0100
0010
0001
1000
0100
1000
0001
0100
0001
,
1000
0010
0100
0010
1000
0001
0010
0001
0100
0010
1000
0010
0100
0001
1000
0100
,
1000
0001
0010
0001
0100
0010
1000
0010
0100
0001
1000
0100
0010
0001
0100
0001
,
1000
0100
0010
0001
1000
0010
1000
0001
0100
0010
1000
0010
0100
0001
1000
0100
,
1000
0001
0010
0001
0100
0010
1000
0010
0100
0001
1000
0100
1000
0001
0010
0001
,
0100
0010
1000
0001
1000
0100
0010
0001
1000
0001
0100
0010
1000
0010
0100
0001
,
1000
0001
0010
0100
1000
0001
0010
0001
0100
0010
1000
0010
0100
0001
1000
0010
,
1000
0100
0010
0001
1000
0100
1000
0001
0010
0001
0100
0010
1000
0010
0100
0001
,
1000
0010
0100
0010
1000
0001
0100
0001
0010
0100
1000
0001
0010
0001
0100
0010
,
0100
0001
1000
0010
1000
0100
0010
0001
1000
0100
1000
0001
0010
0001
0100
0010
,
1000
0010
0100
0001
1000
0100
1000
0001
0010
0001
0100
0010
1000
0010
0100
0001
,
1000
0001
0100
0010
0100
0001
1000
0100
1000
0001
0010
0001
0100
0010
1000
0010
,
0100
0001
1000
0100
1000
0001
0010
0001
0100
0010
1000
0010
0100
0001
1000
0001
,
1000
0010
0100
0010
1000
0001
0010
0001
0100
0010
1000
0010
0100
0001
1000
0100
,
0010
0100
1000
0001
0010
0001
0100
0010
1000
0001
0010
0100
0010
0001
1000
0010
,
1000
0001
0100
0001
0010
0100
1000
0001
0010
0001
0100
0010
1000
0010
0100
0001
,
1000
0100
1000
0001
0010
0001
0100
0010
1000
0010
0100
0001
1000
0010
1000
0100
,
0010
0001
1000
0100
1000
0001
0100
0001
1000
0010
0100
0010
1000
0001
0010
0001
,
0100
0010
1000
0010
0100
0001
1000
0100
1000
0001
0010
0001
0100
0010
1000
0010
,
0100
0001
1000
0100
0010
0001
0100
0001
1000
0100
0010
0001
1000
0100
1000
0001
,
0010
0001
0100
0010
1000
0010
0100
0001
1000
0001
0010
0100
1000
0000
0001
0000
,
0000
0100
0000
0010
1000
0010
0100
0001
,
0000
1000
0000
0100
0010
0001
1000
0001
,
0000
0010
0000
0100
1000
0001
1000
0010
,
0000
0100
0001
1000
0100
1000
0000
0010
,
0000
0100
0000
0001
1000
0010
0100
0001
,
0000
1000
0000
0010
0100
0001
1000
0001
,
0000
1000
0000
0010
0100
0010
1000
0001
,
0000
1000
0000
0010
1000
0001
0200
0000
,
0000
0000
0000
0000
0000
0010
0010
0000
,
0000
0000
0000
0001
0001
0000
0001
0000
,
0000
0000
0300
0010
,
0000
1000
0000
0001
0100
0001
0010
0000
,
0000
0100
0000
0000
0100
0000
0000
0100
,
0000
0000
0100
0001
1000
0001
0100
0000
,
0000
0100
0000
0000
0100
0001
1000
0100
,
0000
0010
0000
0001
1000
0001
1010
0010
,
0100
0000
0001
1000
0000
0010
0000
0100
0001
0000
0010
0000
0100
0000
1000
0000
,
0001
0000
0100
0010
0000
1000
0000
0010
0100
0000
0001
0000
1000
0000
0100
0000
,
0010
0000
0001
1000
0000
0001
0000
1000
0001
0000
0100
0000
0010
0000
1000
0000
,
0001
0000
0010
0100
0000
1000
0001
0000
0100
0000
0010
1000
0010
0000
0100
0000
,
0001
0000
1000
0100
0000
0010
0000
0001
1000
0000
0010
0000
0100
0000
0001
0000
,
1000
0000
0010
1000
0000
0010
0000
0100
0001
0000
1000
0000
0001
0000
0010
0000
,
0100
0000
1000
0001
0000
1000
0000
0010
0100
0000
0001
0000
1000
0000
0100
0000
,
0010
0000
0001
1000
0000
0010
0200
0000
0302
0000
1003
0000
1010
0000
0010
0000
,
0100
0000
0001
1000
0000
0010
0000
0100
0001
0000
0010
0000
0100
0000
1000
0000
,
0001
0000
0100
0010
0000
1000
0000
0010
0100
0000
0001
0000
1000
0000
0100
0000
,
0010
0000
0001
1000
0000
0001
0000
1000
0001
0000
0100
0000
0010
0000
1000
0000
,
0001
0000
0010
0100
0000
1000
0001
0000
0100
0000
0010
1000
0010
0000
0100
0000
,
0001
1000
0001
0100
0010
1000
0010
0100
0001
1000
0100
1000
0001
0010
0001
0100
,
0010
1000
0010
0100
0001
1000
0010
1000
0100
0010
0001
1000
0100
1000
0001
0010
,
0001
0100
0010
1000
0010
0100
0001
1000
0010
1000
0001
0100
0001
0000
0000
0000
,
0210
0300
0000
0000
2100
3000
0000
0000
0201
0300
0001
0000
1000
0100
0010
0001
,
1000
0001
0100
0010
0100
0001
1000
0010
1000
0001
0100
0001
0010
0100
1000
0001
,
1000
0010
0100
0010
1000
0001
0100
0001
1000
0001
0100
0010
0100
0001
1000
0010
,
1000
0100
0010
0001
1000
0100
1000
0001
0010
0001
0100
0010
1000
0010
0100
0001
,
1000
0100
1000
0001
0010
0001
0100
0010
1000
0010
0100
0001
1000
0001
0100
0010
,
0100
0001
1000
0010
1000
0100
0010
0001
1000
0100
1000
0001
0010
0001
0100
0010
,
1000
0010
0100
0001
1000
0100
1000
0001
0010
0001
0100
0010
1000
0010
0100
0001
,
1000
0001
0100
0010
0100
0001
1000
0001
0010
0001
0100
0010
1000
0010
0100
0001
,
1000
0100
1000
0001
0010
0001
0100
0010
1000
0010
0100
0001
1000
0100
1000
0001
,
0010
0001
0100
0010
1000
0010
0100
0001
1000
0010
1000
0001
0100
0001
1000
0001
,
0100
0010
0100
0001
1000
0010
1000
0100
0010
0001
0010
0100
1000
0001
0010
0001
,
0100
0010
1000
0010
0100
0001
1000
0001
0100
0010
0100
0001
1000
0100
0010
0100
,
1000
0001
0010
0001
0100
0010
1000
0010
0100
0001
1000
0001
0010
0100
0010
0001
,
1000
0010
1000
0100
0010
0001
1000
0100
1000
0001
0100
0001
0010
0100
1000
0001
,
0100
0001
1000
0010
0100
0001
0100
0010
1000
0001
1000
0100
0010
0001
1000
0100
,
1000
0001
0010
0001
0100
0010
1000
0010
0100
0001
1000
0001
0010
0000
0000
0000
,
0210
0300
0000
0000
1200
0300
1000
0000
2001
3000
0100
0010
1000
0001
0100
0001
,
0010
0100
1000
0001
0010
0001
0100
0010
1000
0010
0100
0001
1000
0010
1000
0001
,
0100
0001
1000
0010
1000
0100
0010
0001
1000
0100
1000
0001
0010
0001
0100
0010
,
1000
0010
0100
0001
1000
0100
1000
0001
0010
0001
0100
0010
1000
0010
0100
0001
,
1000
0100
1000
0001
0010
0001
0100
0010
1000
0010
0100
0001
1000
0010
1000
0100
,
0010
0001
1000
0100
1000
0001
0010
0001
0100
0010
1000
0010
0100
0001
1000
0001
,
0100
0010
0100
0001
1000
0010
1000
0100
0010
0001
1000
0100
1000
0001
0010
0001
,
0100
0010
1000
0010
0100
0001
1000
0010
1000
0001
0100
0001
1000
0100
0010
0001
,
1000
0001
0100
0010
0100
0001
1000
0010
1000
0001
0100
0001
0010
0100
1000
0100
,
0010
0001
1000
0010
1000
0001
0100
0001
1000
0010
1000
0100
0010
0001
1000
0100
,
1000
0001
0010
0001
0100
0010
1000
0010
0100
0001
1000
0001
0100
0010
0100
0001
,
1000
0010
1000
0001
0100
0001
0010
0100
1000
0001
0010
0001
0100
0010
1000
0010
,
0100
0001
1000
0010
1000
0001
0100
0001
1000
0100
0010
0001
1000
0100
1000
0001
,
0010
0001
0100
0010
1000
0010
0100
0001
1000
0010
1000
0001
0010
0001
0100
0010
,
0100
0001
1000
0100
0010
0100
1000
0001
0010
0001
1000
0001
0100
0010
0100
0001
,
1000
0010
1000
0100
0010
0001
1000
0100
1000
0001
0100
0010
1000
0000
0000
0000
,
0102
0003
0000
0000
2010
3000
1000
0000
1002
0003
0010
0100
1000
0000
0010
0000
,
0100
0001
1000
0001
0100
0010
1000
0010
,
0100
0001
1000
0010
1000
0100
0010
0001
,
1000
0100
1000
0001
0010
0001
0100
0010
,
1000
0010
0100
0002
2003
3200
1300
0001
,
0010
0001
0100
0010
1000
0010
0100
0001
,
1000
0010
1000
0001
0100
0001
1000
0100
,
0010
0001
1000
0001
0010
0100
1000
0010
,
0100
0000
0010
0000
4000
0000
3004
0000
0043
0000
0130
1000
0001
0000
0100
0000
,
0010
1000
0010
0100
0001
1000
0010
1000
,
0001
0100
0001
0010
0100
1000
0001
0010
,
0001
0100
0010
1000
0010
0100
0001
1000
,
0100
1000
0001
0020
0032
0203
0310
1000
,
0010
0100
0001
1000
0010
1000
0100
0010
,
0001
1000
0100
1000
0001
0010
0001
0100
,
0010
1000
0010
0100
0001
1000
0100
0010
,
0001
1000
0020
0230
0302
1003
0001
1000
,
0010
0100
0010
1000
0001
0100
0001
0010
,
0100
1000
0001
0100
0010
0100
0001
1000
,
0010
1000
0100
0010
0001
1000
0100
1000
,
0001
0100
0010
2000
3200
0320
0031
0100
,
0010
1000
0010
0100
0001
1000
0001
0010
,
0100
1000
0001
0010
0001
0100
0010
1000
,
0010
0100
0001
1000
0010
1000
0100
0010
,
0001
0000
1000
0000
0400
0000
4300
0000
3004
0000
0103
0010
0100
0000
0001
0000
,
1000
0010
1000
0001
0100
0010
0100
0001
,
1000
0010
1000
0100
0010
0001
1000
0100
,
1000
0001
0010
0001
0100
0010
1000
0010
,
0100
0001
1000
0002
0203
0320
1030
0001
,
1000
0100
0010
0001
1000
0100
0010
0100
,
1000
0001
1000
0010
1000
0001
0100
0010
,
0100
0001
1000
0100
0010
0001
1000
0010
,
0100
0001
2000
3200
0320
0031
1001
1000
,
0010
0100
0010
1000
0001
0100
0001
0010
,
0100
1000
0001
0100
0010
0100
0001
1000
,
0010
1000
0100
0010
0001
1000
0100
1000
,
0001
0100
0010
1000
0200
0320
0031
0100
,
0010
1000
0010
0100
0001
1000
0001
0010
,
0100
1000
0001
0010
0001
0100
0010
1000
,
0010
0100
0001
1000
0010
1000
0100
0010
,
0001
0000
1000
0000
0100
0000
1000
0000
0001
0000
0100
0010
0100
0000
0001
0000
,
1000
0010
1000
0001
0100
0010
0100
0001
,
1000
0010
1000
0100
0010
0001
1000
0100
,
1000
0001
0010
0001
0100
0010
1000
0010
,
0100
0001
1000
0001
0200
0320
1030
0001
,
1000
0100
0010
0001
1000
0100
0010
0100
,
1000
0001
1000
0010
1000
0001
0100
0010
,
0100
0001
1000
0100
0010
0001
1000
0010
,
0100
0000
0001
0000
1000
0000
0100
0000
0010
0000
0001
1000
0002
0000
0000
0000
,
0000
0000
0000
0000
,
0000
0000
0000
0000
,
0000
0000
0000
0000
0000
0003
0000
0000
;
