#TITLE:TV Reporter;
#SUBTITLE:;
#ARTIST:SLAKE;
#TITLETRANSLIT:;
#SUBTITLETRANSLIT:;
#ARTISTTRANSLIT:;
#CREDIT:ChaosUnown;
#BANNER:tv-bn.png;
#BACKGROUND:tv.png;
#LYRICSPATH:;
#CDTITLE:chaosunownCD.png;
#MUSIC:tv.ogg;
#OFFSET:0.007;
#SAMPLESTART:53.760;
#SAMPLELENGTH:12.000;
#SELECTABLE:YES;
#BPMS:0.000=125.000;
#STOPS:;
#BGCHANGES:;
// cache tags:
#FIRSTBEAT:32.000;
#LASTBEAT:262.000;
#SONGFILENAME:Songs/Omnifarious/(ChaosUnown) TV Reporter/tv.sm;
#HASMUSIC:1;
#HASBANNER:1;
#MUSICLENGTH:127.282;
// end cache tags

//---------------dance-single - P. Mason----------------
#NOTES:
     dance-single:
     P. Mason:
     Challenge:
     11:
     0.709,0.823,0.196,0.440,1.000,540.000,25.000,56.000,29.000,0.000:

0000
0000
0000
0000
,
0000
0000
0000
0000
,
0000
0000
0000
0000
,
0000
0000
0000
0000
,
0000
0000
0000
0000
,
0000
0000
0000
0000
,
0000
0000
0000
0000
,
0000
0000
0000
0000
,
1000
0000
1000
0000
0000
1000
0000
1000
0000
1000
0000
1000
0001
1000
0000
1000
,
0100
0000
0100
0000
0000
0100
0000
0100
0000
0100
0000
0100
1000
0100
0000
0100
,
0010
0000
0010
0000
0000
0010
0000
0010
0000
0010
0000
0010
0100
0010
0000
0010
,
0001
0000
0001
0000
0000
0001
0000
0001
0000
0001
0000
0001
1000
0001
00M0
0001
,
0100
0000
0100
0000
0000
0100
0000
0100
0000
0100
0000
0100
0010
0100
0000
0100
,
0001
1000
0001
1000
0000
0001
1000
0001
1000
0001
1000
0001
0001
1000
0100
1000
,
0010
0000
0010
0000
0000
0010
0000
0010
0000
0010
0000
0010
0100
0010
0000
0010
,
1000
0000
1M01
0000
0000
0001
0000
0001
0000
M011
0000
0010
M100
0010
0000
0010
,
0000
0001
0100
0010
0000
1000
0100
0010
0000
0001
0100
0010
0000
1000
0100
0010
,
0000
0001
1000
0010
0000
0100
0001
1000
0000
0001
1000
0010
0000
0100
0001
1000
,
0000
0100
0010
0001
0000
0100
0010
1000
0000
0100
0010
0001
0000
0100
0010
1000
,
0000
0001
0010
0100
0000
1000
0010
0100
0000
0001
0010
0100
0000
1000
0010
0100
,
0001
0000
0000
1001
0000
0000
1001
0000
0000
1100
0000
0000
1100
0000
0000
0110
,
0000
0000
0110
0000
0000
0011
0000
0000
0011
0000
0000
1001
0000
0000
1001
0000
,
0001
0100
0001
0100
0001
0100
0001
0100
0001
0100
0001
0100
0001
0100
0001
0100
,
0004
4000
0000
0000
0000
0000
0000
0000
3000
0013
0100
0010
0100
0010
0100
0010
,
0001
0000
0001
0000
1000
0010
0000
1000
0000
0001
0000
0010
0001
1000
0000
1000
,
0010
0000
0010
0000
0100
0001
0000
1000
0000
0100
0000
1000
0010
0100
0000
0100
,
0001
0000
0001
1000
0000
0100
0000
1000
0000
0010
0000
0100
0001
1000
0000
1000
,
0004
0400
0000
0000
0000
0000
0000
0000
0000
0000
0000
0000
0000
0000
0000
0000
0000
0000
0000
0000
0300
00M3
0000
0000
,
1MM0
0000
0001
0000
1000
0100
0000
0100
0000
0020
0030
0002
0003
1000
0010
1000
,
0001
0020
0130
0000
1000
0010
0000
0010
0000
0100
0000
0002
0003
1000
0100
0010
,
0100
0000
0000
2000
0000
0000
3000
0000
0000
0000
0000
0000
0001
0000
0000
0100
0000
0000
0000
0000
0000
0020
0000
0000
0030
0000
0000
1000
0000
0000
0001
0000
0000
1000
0000
0000
0010
0000
0000
0100
0000
0000
0001
0000
1000
0000
0001
0000
,
2000
3200
0310
0001
1000
0001
0000
0100
0000
0020
0030
0100
0000
0002
1003
0100
,
0010
0000
0001
0000
1000
0010
0000
0010
0000
0200
0300
0002
0003
1000
0100
1000
,
0001
0200
0310
0000
1000
0001
0000
0001
0000
0010
0000
0200
0300
1000
0001
1000
,
0010
0000
0000
0200
0000
0000
0300
0000
0000
0000
0000
0000
0001
0000
0000
1000
0000
0000
0000
0000
0000
0200
0000
0000
0300
0000
0000
0010
0000
0000
0001
0000
0000
0010
0000
0000
0001
0000
0000
1000
0000
0000
0010
0000
0100
0000
0010
0000
,
2000
0000
0000
3000
2200
0000
0000
3300
0220
0000
0000
0330
0022
0000
0000
0033
,
0001
2000
0000
0000
3010
0100
0001
0100
0010
1000
0000
0000
0100
0010
0001
1000
,
0010
0100
0000
0000
0001
0010
0001
1000
0010
0100
0000
0000
0001
1000
0010
0100
,
0001
0010
0000
0000
0100
1000
0001
0100
0010
0100
0000
0000
0001
1000
0100
1000
,
0002
0203
0302
0203
0302
0203
0302
0M03
000M
0M00
000M
0M00
,
1000
0000
0100
0000
0000
1000
0000
1000
0000
0004
0400
0300
1003
0100
0000
1000
,
0001
0000
0001
0000
0000
0010
0000
0010
0000
0100
0000
0100
0000
1000
0001
0000
,
0100
0000
0010
0100
0000
000M
0000
0000
0000
0004
4000
3000
0013
0100
0000
1000
,
0001
0000
0001
0000
0000
0100
0000
0100
0000
0010
0000
0010
0000
1000
0100
0000
,
0010
0000
0001
0000
0000
0010
0000
0010
0000
0400
4000
3000
0310
0001
0000
1000
,
0010
0000
0010
0000
0000
0100
0000
0100
0000
0001
0000
0001
0000
1000
0100
0000
,
0010
0000
0100
0010
0000
000M
0000
0000
0000
0004
0400
0300
1003
0100
0000
1000
,
0001
0000
0100
0000
0001
0000
0100
0000
0001
0000
0100
0000
0001
0000
0000
1000
0000
0000
0000
0000
0000
1000
0000
0000
0000
0000
0M00
0000
00M0
0000
0M00
0000
00M0
0000
0M00
0000
0000
0000
0000
0000
0000
0000
0200
0000
0000
0000
0000
0000
,
1300
0000
0001
0000
1000
0000
0001
0000
1000
0000
0001
0000
1000
0000
0001
0000
1000
0000
0001
0000
1000
0000
0001
0000
1000
0000
0000
0001
0000
0000
0100
0000
0000
0000
0000
0000
0010
0000
1000
0000
0010
0000
1000
0000
0010
0000
1000
0000
,
0010
0000
0010
0000
0000
0100
0000
0100
0000
0001
0000
0001
0000
1000
0001
0000
,
0010
0000
0100
0010
0000
000M
0000
0000
0000
0004
4000
3000
0013
0100
0000
1000
,
0001
0100
0001
0100
0000
0000
0000
0000
0000
0010
0000
0010
0000
1000
0001
0000
,
1000
0000
0100
0000
1000
0000
0100
0000
1000
0000
0100
0000
1000
0000
0100
0000
1000
0000
0100
0000
1000
0000
0100
0000
1000
0000
0000
0100
0000
0000
0010
0000
0000
0000
0000
0000
0001
0000
1000
0000
0001
0000
1000
0000
0001
0000
1000
0000
,
0001
0000
0001
0000
0000
0100
0000
0100
0000
0010
0000
0010
0000
1000
0001
0000
,
0010
0000
0100
0010
0000
000M
0000
0000
0000
0004
0400
0300
1003
0100
0000
1000
,
0004
0400
0000
0000
0000
0000
0000
0000
0000
0000
0000
0000
0000
0000
0000
0000
0000
0000
0000
0000
0300
00M3
0000
0000
,
1MM0
0000
0001
0000
1000
0100
0000
0100
0000
0020
0030
0002
0003
1000
0010
1000
,
0001
0020
0130
0000
1000
0010
0000
0010
0000
0100
0000
0002
0003
1000
0100
0010
,
0100
0000
0000
2000
0000
0000
3000
0000
0000
0000
0000
0000
0001
0000
0000
0100
0000
0000
0000
0000
0000
0020
0000
0000
0030
0000
0000
1000
0000
0000
0001
0000
0000
1000
0000
0000
0010
0000
0000
0100
0000
0000
0001
0000
1000
0000
0001
0000
,
2000
3200
0310
0001
1000
0001
0000
0100
0000
0020
0030
0100
0000
0002
1003
0100
,
0010
0000
0001
0000
1000
0010
0000
0010
0000
0200
0300
0002
0003
1000
0100
1000
,
0001
0200
0310
0000
1000
0001
0000
0001
0000
0010
0000
0200
0300
1000
0001
1000
,
0010
0000
0000
0200
0000
0000
0300
0000
0000
0000
0000
0000
0001
0000
0000
1000
0000
0000
0000
0000
0000
0200
0000
0000
0300
0000
0000
0010
0000
0000
0001
0000
0000
0010
0000
0000
0001
0000
0000
1000
0000
0000
0010
0000
0100
0000
0010
0000
,
2000
0000
0000
3000
2200
0000
0000
3300
0220
0000
0000
0330
0022
0000
0000
0033
,
2000
3000
M000
M000
,
M000
M000
M000
0000
;
