#TITLE:Vermilion Pt. 2;
#SUBTITLE:;
#ARTIST:Slipknot;
#TITLETRANSLIT:;
#SUBTITLETRANSLIT:;
#ARTISTTRANSLIT:;
#CREDIT:;
#BANNER:Vermillion Pt. 2 Banner.JPG;
#BACKGROUND:Vermillion Pt. 2 BG.JPG;
#LYRICSPATH:;
#CDTITLE:Drunk Link.png;
#MUSIC:Vermilion Pt. 2.mp3;
#OFFSET:-0.160;
#SAMPLESTART:40.492;
#SAMPLELENGTH:12.000;
#SELECTABLE:YES;
#BPMS:0.000=122.470,72.000=122.430,200.000=122.910,260.000=123.210,276.000=123.570,392.000=123.910;
#STOPS:444.000=0.560
,444.500=0.540
,445.000=0.560
;
#BGCHANGES:;
// cache tags:
#FIRSTBEAT:0.000;
#LASTBEAT:456.500;
#SONGFILENAME:Songs/lvsb tourney pack/Vermilion Pt. 2/Vermilion Pt. 2.sm;
#HASMUSIC:1;
#HASBANNER:1;
#MUSICLENGTH:224.425;
// end cache tags

//---------------dance-single - Copied from----------------
#NOTES:
     dance-single:
     Copied from:
     Hard:
     6:
     0.518,0.610,0.504,0.535,0.004,580.000,113.000,120.000,0.000,0.000:
1100
0001
1000
0110
0010
0100
1001
1000
,
0010
1100
0010
0100
1000
0100
0010
0001
,
2001
0100
0010
0001
0010
0100
0010
3001
,
0102
0100
0010
1000
0100
0010
1000
0103
,
1001
0010
1000
0110
1000
0010
0011
0100
,
0001
0110
1000
0100
0010
0001
0010
0100
,
2010
0001
0010
0100
0001
0010
0100
3001
,
2100
0100
0010
0001
0010
0100
0001
3010
,
2002
0000
3003
0202
0000
0303
2200
0000
,
3300
0220
0000
0330
0022
0000
0033
1001
,
2010
0000
0010
0100
0010
0001
0010
3001
,
2200
3300
0001
0100
0000
0010
0000
1000
,
0202
0000
0303
0220
0000
0330
1100
0010
,
0001
1100
0000
0101
0000
1010
0000
1001
,
0102
0000
0100
1000
0100
0013
1100
0000
,
0011
0000
0100
0001
1000
0220
0000
0330
,
0000
0000
0100
0110
1000
0010
1001
0100
,
0001
0100
0000
1000
0000
0010
0000
1001
,
0102
0010
1000
0100
1000
0013
0100
1000
,
0100
0000
0001
0010
0000
1000
0000
0100
,
0202
0000
0303
0220
0000
0330
1100
0001
,
0100
1001
0000
0100
0000
0001
0000
1001
,
0102
1000
0100
0010
0100
1000
0103
0010
,
1000
0000
0001
0010
0000
1000
0000
2001
,
0010
0000
0001
0100
0000
0100
0001
0000
,
0100
0001
0100
0001
0100
0000
0001
3010
,
1000
0100
2002
0000
3003
2200
0000
3300
,
0102
0000
1000
0100
0000
0100
1000
0000
,
0010
1000
0000
1000
0010
0000
0100
0013
,
2001
0000
0100
0001
0000
0001
0100
0000
,
0100
0001
0000
0001
3100
0000
0001
0000
,
2002
0000
3003
0220
0000
0330
2200
0000
,
3300
0220
0000
0330
0022
0000
0033
1000
,
0102
0000
0100
1000
0100
0010
1003
0100
,
0010
0000
0001
0100
0000
1000
0000
0001
,
2002
0000
3003
0220
0000
0330
1001
0100
,
1000
0000
1000
0010
0000
0100
0000
1100
,
2010
0000
0001
0010
0001
0010
3100
0001
,
0010
0000
1000
0100
0010
0001
0000
0100
,
1001
0000
1000
0110
0001
0000
0101
0010
,
1000
0000
0100
0001
0010
0000
0100
0000
,
1001
0000
0010
0100
1000
0100
0010
0001
,
0010
0000
0000
1000
0001
0220
0000
0330
,
1100
0000
0022
0000
0033
0000
0000
0100
,
0010
0000
0010
0100
0000
1000
0000
0100
,
0102
0000
0100
1000
0100
0010
0103
1000
,
0100
0000
0100
1000
0000
0100
0000
1001
,
0102
0000
0010
0100
0000
0100
0010
0000
,
0010
0100
0000
0100
0010
0000
0010
1003
,
0010
0100
0022
0000
0033
2200
0000
3300
,
2010
0001
0010
0001
0100
0010
0001
0010
,
0100
0001
0100
0001
0010
0100
0010
3100
,
2001
0010
0100
0010
0001
0010
0100
0001
,
0100
0010
0100
0001
0100
3001
0010
0100
,
0110
0100
0010
1100
,
0100
0000
0010
1000
0000
0100
0220
0000
,
0330
0000
0101
0000
0001
0100
0001
0100
,
1100
0001
1000
0110
,
0010
0000
0001
0010
0000
1000
0220
0000
,
0330
0000
0011
0000
1000
0100
1000
0100
,
0110
0001
0010
1100
,
1000
0000
0101
0010
0000
0001
0220
0000
,
0330
0000
0101
0000
0001
1000
0001
1000
,
0110
0001
1000
0101
,
0001
0000
0100
0010
0000
0001
0010
0000
,
0100
0010
0001
0100
0010
0000
0001
0000
,
0100
0000
0010
0001
0010
1000
0100
0000
,
0001
0010
1000
0100
0001
0000
1000
0100
,
0010
0001
0200
0000
0020
0000
0000
0330
,
0202
0000
0303
0000
0000
0001
1000
0000
,
1000
0100
0000
0000
1001
0000
0100
0000
,
0001
0101
0001
0010
,
1000
0000
0010
0000
0100
0010
0000
0000
,
0001
0100
0000
0000
0001
0000
1000
0000
,
0001
0000
1001
0000
0100
0000
0001
0100
,
0010
0000
1000
0000
0001
0100
0000
0000
,
0010
0000
0100
1000
0001
0000
0100
0000
,
0010
0000
1000
0000
0001
0000
0100
0010
,
0000
1000
0001
0000
0100
0000
0010
0000
,
1000
0000
0001
0010
0100
1000
0010
0000
,
1000
0000
0001
0000
0010
0000
1000
0100
,
0000
0001
0010
0000
0100
0000
0010
0000
,
1000
0000
0001
0010
0100
1000
0100
0000
,
0010
0000
0001
0000
0010
0000
0100
1000
,
0000
0100
0010
0000
0001
0000
0010
0000
,
0100
0000
1000
0100
0010
0001
0010
0000
,
0100
0000
0001
0000
0010
0000
0000
0010
,
0100
0000
0001
0100
1000
0000
0100
0000
,
0010
0000
0001
0000
0010
0000
0100
0010
,
0001
0000
1000
0100
0001
0000
0010
0100
,
0001
0010
0100
1000
0100
0010
0001
0000
,
2200
0000
3300
2002
0000
3003
0220
0000
,
0330
2200
0000
3300
0001
0100
0001
0100
,
2001
0000
0100
0010
0001
0010
0100
0001
,
0010
0100
0010
0001
0010
0100
0001
3100
,
2100
0000
0002
0000
,
0000
0000
0000
0000
0000
0000
0000
0000
3003
0000
0100
0000
0000
0010
0000
0000
,
2200
0000
0000
0000
0000
3300
0000
0000
,
0001
0010
0100
1000
0100
0010
0001
0010
,
2002
0000
3003
0220
0000
0330
2002
0000
,
3003
0220
0000
0330
2002
0000
0000
0000
,
0000
3003
0000
0000
0010
0100
1000
0100
,
0010
0001
0010
0100
1000
0100
0010
0001
,
2010
0000
0002
0000
,
0000
0000
0000
0000
0000
0000
0000
0000
3003
0000
0100
0000
0000
0010
0000
0000
,
2002
0000
0000
0000
0000
3003
0000
0000
,
0100
0010
1000
0100
0001
0100
0010
0100
,
2002
0000
3003
0220
0000
0330
2002
0000
,
3003
0220
0000
0330
2002
0000
0000
0000
,
0000
0000
3003
0000
0001
1000
0100
0001
,
0100
0010
1000
0100
0010
0001
0100
0010
,
2002
3003
0000
0000
0000
0000
0000
0000
0220
0330
0000
0000
0000
0000
0000
0000
2002
3003
0000
0000
0000
0000
0000
0000
0220
0000
0000
0000
0000
0000
0000
0000
0000
0000
0000
0000
0000
0000
0000
0000
0000
0000
0000
0000
0000
0000
0000
0000
0000
0000
0000
0000
0000
0000
0000
0000
0000
0000
0000
0000
0000
0000
0000
0000
,
0000
0000
0000
0000
,
0000
0000
0000
0000
,
0000
0330
0000
0000
0000
0000
0000
0000
;
