#TITLE:Lawn Wake IX v2;
#SUBTITLE:;
#ARTIST:The Flashbulb;
#TITLETRANSLIT:;
#SUBTITLETRANSLIT:;
#ARTISTTRANSLIT:;
#CREDIT:;
#BANNER:lawnwakeix-bn.PNG;
#BACKGROUND:lawnwakeix-bg.PNG;
#LYRICSPATH:;
#CDTITLE:OMEGAspike.PNG;
#MUSIC:Lawn Wake IX.mp3;
#OFFSET:-0.067;
#SAMPLESTART:111.905;
#SAMPLELENGTH:12.900;
#SELECTABLE:YES;
#BPMS:0.000=186.000,3.000=93.000,6.000=186.000,10.000=93.000,11.000=186.000,13.500=93.000,15.250=248.000,18.000=185.999,29.625=92.999,32.500=186.000,35.500=92.999,37.000=186.000,41.500=93.000,44.500=186.000,69.500=93.000,70.000=186.000,83.000=93.000,84.500=186.000,89.500=371.998,91.500=186.000,104.500=371.999,107.500=186.000,133.500=93.000,148.000=186.000,213.000=93.000,213.375=46.500,213.563=23.250,213.667=93.000,214.000=186.001,222.000=248.001,227.500=186.001,275.500=93.000,299.500=186.001,324.500=279.001,329.000=186.001,398.000=93.000,399.000=186.001;
#STOPS:104.500=0.080
,105.000=0.080
,105.500=0.080
,106.000=0.080
,106.500=0.080
,107.000=0.080
;
#BGCHANGES:;
// cache tags:
#FIRSTBEAT:0.000;
#LASTBEAT:424.000;
#SONGFILENAME:Songs/toune 2/(OMEGAspike)Lawn Wake IX v2/Lawn Wake IX.sm;
#HASMUSIC:1;
#HASBANNER:1;
#MUSICLENGTH:155.820;
// end cache tags

//---------------dance-single - ----------------
#NOTES:
     dance-single:
     :
     Hard:
     13:
     1.000,1.000,0.725,0.430,1.000,1095.000,113.000,67.000,0.000,3.000:
2000
0000
3001
0010
0100
0000
2000
0000
0000
0000
0000
0000
3000
0000
0000
0000
,
0000
0000
0000
0000
0000
0000
0000
0000
1000
0010
0100
0010
1000
0001
0100
0001
,
0020
0230
1300
0002
,
0013
0000
0100
1000
0100
0000
0010
0000
0000
0000
0000
0000
0000
1000
0100
0010
,
0001
0010
0100
1000
0100
0010
0001
0010
0200
0000
0000
0000
2300
0000
0000
0000
,
3100
0000
0010
0001
0100
0010
1000
0000
0000
0000
0000
0000
0000
0000
0200
0000
,
2300
0000
0000
0000
3020
0000
0000
0000
0130
0000
0001
0000
0010
0000
0100
1000
,
0001
0200
0000
0300
0000
0000
0000
0000
,
0000
0000
0200
0000
0000
0000
0310
1000
0010
0100
0020
0000
0000
0000
0030
0000
,
0000
0000
0000
0000
2000
0000
3020
0000
0000
0000
0130
0000
0001
0010
0100
1000
,
0002
0000
0000
0003
0000
0000
0000
0000
,
0000
0000
0020
0000
1030
0100
0010
0001
0020
0000
0000
0000
0000
0000
0230
0000
,
0000
0000
2300
0000
3002
0000
0000
0000
0203
0000
0310
1000
0100
0010
1000
0100
,
0010
0001
0010
0100
0001
0010
0100
0000
1000
0000
0001
0000
0000
0000
0000
0000
,
0000
0000
0000
0000
0000
0000
0000
1000
,
2000
0000
0000
0000
3100
0010
0002
0000
0000
0000
0003
0000
0000
0000
0000
0000
,
0010
0200
0000
2300
0000
3020
0230
0301
,
0010
0100
1000
0000
0001
0000
0020
0000
1030
0100
0010
0001
1000
0100
0010
0001
,
1000
0100
0010
0001
2000
0000
0000
3020
0000
0000
0032
0000
0000
0000
0000
0000
,
0013
0100
1000
0010
0100
1000
0001
0010
0100
0001
0010
0100
1000
0010
0100
0001
,
0100
0010
1000
0100
0010
0001
0010
0100
2000
0000
0000
0000
3100
0010
0001
0100
,
0010
0001
0010
0000
0100
1000
0100
0010
1000
0100
0010
0001
0010
0100
0001
0010
,
0100
1000
0001
0100
0010
0001
1000
0100
0010
0001
1000
0100
0010
0001
1000
0100
,
0010
0001
0010
0100
1000
0000
0010
0100
0001
0100
1000
0010
0001
0010
0100
0000
,
1000
0000
0002
0000
0000
0000
0013
0000
0100
0000
1000
0000
0100
0010
0001
0000
,
0010
0200
0000
2300
3002
0203
0000
2300
,
3200
0320
0032
0023
0032
0023
0032
0103
,
1000
0100
0010
0001
0100
0000
0010
0000
1000
0001
0100
0000
0010
0000
1000
0100
,
0010
0000
0001
0000
0010
0000
0100
1000
0001
1000
0020
0000
0000
0000
0000
0000
,
0000
0000
0000
0000
,
0000
0000
0000
0000
0000
0230
2300
3002
,
0203
0000
0310
1000
0001
0100
0001
0010
0100
0001
0010
0100
1000
0100
0010
1000
,
0100
0010
0001
0100
1000
0010
0100
0001
0010
1000
0200
0000
0000
0000
0000
0000
,
0000
0000
0000
0000
0000
0000
0310
0000
0000
0001
0000
0000
0010
0000
0000
0100
,
0000
0000
1000
0000
0000
0010
0000
0000
0001
0000
0000
0100
0000
0000
1000
0000
,
0100
0000
0000
0010
0000
0000
0001
0000
0000
0100
0000
0000
0010
0000
0000
1000
,
0000
0000
0100
0000
0000
0010
0000
0000
1000
0000
0000
0001
0000
0000
0100
0000
,
0010
1000
0110
0011
1000
0100
0011
1010
,
0100
0000
0001
0000
1100
0000
0010
0001
0100
0010
1000
0000
0101
0000
0110
0000
,
1000
0000
0100
0000
0011
0000
1000
0100
0010
0000
0001
0010
1100
0000
0010
0000
,
0100
0000
0000
0000
0000
0000
0000
0000
0000
0000
0000
0000
0000
0000
0000
0000
0000
0000
0000
0000
0000
0000
0000
0000
0001
0000
0000
0000
0000
0000
0000
0000
0000
0000
0000
0000
0000
0000
0000
0000
0000
0000
0000
0000
0000
0000
0000
0000
0110
0000
0000
0000
0000
0000
0000
0000
0000
0000
0000
0000
0000
0000
0000
0000
0000
0000
0000
0000
0000
0000
0000
0000
1000
0000
0000
0000
0000
0000
0001
0000
0000
0000
0000
0000
0010
0000
0000
0000
0100
0000
0000
0000
1000
0000
0000
0000
0001
0000
0000
0000
0000
0000
0000
0000
0000
0000
0000
0000
0100
0000
0000
0000
0000
0000
0000
0000
0000
0000
0000
0000
0010
0000
0000
0000
0000
0000
0000
0000
0000
0000
0000
0000
0000
0000
0000
0000
0000
0000
0000
0000
0000
0000
0000
0000
1001
0000
0000
0000
0000
0000
0000
0000
0000
0000
0000
0000
0000
0000
0000
0000
0000
0000
0000
0000
0000
0000
0000
0000
0110
0000
0000
0000
0000
0000
0000
0000
0000
0000
0000
0000
0000
0000
0000
0000
0000
0000
0000
0000
0000
0000
0000
0000
,
1000
0000
0010
0000
0101
0000
0011
0000
1000
0100
0010
0001
2020
0000
3131
0000
,
0010
0000
0000
0000
0000
0000
0000
0000
0000
0000
0000
0000
0000
0000
0000
0000
0000
0000
0000
0000
0000
0000
0000
0000
0100
0000
0000
0000
0000
0000
0000
0000
0000
0000
0000
0000
0000
0000
0000
0000
0000
0000
0000
0000
0000
0000
0000
0000
0011
0000
0000
0000
0000
0000
0000
0000
0000
0000
0000
0000
0000
0000
0000
0000
1100
0000
0000
0000
0000
0000
0000
0000
0000
0000
0000
0000
0000
0000
0000
0000
0011
0000
0000
0000
0000
0000
0000
1000
0000
0000
0100
0000
0000
0010
0000
0000
0001
0000
0000
0000
0000
0000
0000
0000
0000
0000
0000
0000
1000
0000
0000
0000
0000
0000
0000
0000
0000
0000
0000
0000
0100
0000
0000
0000
0000
0000
0000
0000
0000
0000
0000
0000
0000
0000
0000
0000
0000
0000
0000
0000
0000
0000
0000
0000
1000
0000
0000
0000
0000
0000
0000
0000
0000
0000
0000
0000
0000
0000
0000
0000
0000
0000
0000
0000
0000
0000
0000
0000
0010
0000
0000
0000
0000
0000
0000
0000
0000
0000
0000
0000
0000
0000
0000
0000
0000
0000
0000
0000
0000
0000
0000
0000
,
0100
0000
0000
0000
0000
0000
0000
0000
0000
0000
0000
0000
0000
0000
0000
0000
0001
0000
0000
0000
0000
0000
0000
0000
0000
0000
0000
0000
0000
0000
0000
0000
0100
0000
0000
0000
0000
0000
0000
0000
0000
0000
0000
0000
0000
0000
0000
0000
1000
0000
0000
0000
0000
0000
0100
0000
0000
0000
0000
0000
0010
0000
0000
0000
0000
0000
0001
0000
0000
0000
0000
0000
1000
0000
0000
0000
0000
0000
0100
0000
0000
0000
0000
0000
0010
0000
0000
0000
0000
0000
0001
0000
0000
0000
0000
0000
1000
0000
0000
0000
0000
0000
0000
0000
0000
0000
0000
0000
0000
0000
0000
0000
0000
0000
0000
0000
0000
0000
0000
0000
0100
0000
0000
0000
0000
0000
0000
0000
0000
0000
0000
0000
0000
0000
0000
0000
0000
0000
0000
0000
0000
0000
0000
0000
0011
0000
0000
0000
0000
0000
0000
0000
0000
0000
0000
0000
1100
0000
0000
0000
0000
0000
0000
0000
0000
0000
0000
0000
0011
0000
0000
0000
0000
0000
0000
0000
0000
0000
0000
0000
1100
0000
0000
0000
0000
0000
0000
0000
0000
0000
0000
0000
,
0011
0000
0000
0000
1000
0000
0100
0000
0011
0000
0000
0000
1010
0000
0000
0000
0100
0000
0001
1000
0010
0000
0000
0000
0100
0000
1000
0010
0001
0000
0000
0000
,
1000
0000
0000
0000
0100
0000
0001
0000
1100
0000
0000
0000
0010
0000
0000
0000
1000
0000
0100
0000
0010
0001
1000
0000
0100
0000
0000
0000
0011
0000
0000
0000
,
1100
0000
0010
0001
1100
0000
0001
0110
0000
0000
0000
0000
2222
0000
3333
0000
,
1010
0000
0100
0001
0010
0000
1100
0000
0010
0001
1000
0000
1000
0001
0010
0000
,
1100
0000
0000
0000
0000
0000
0000
0000
0000
0000
0000
0000
0000
0000
0000
0000
1100
0000
0000
0000
0000
0000
0000
0000
0000
0000
0000
0000
0000
0000
0000
0000
1100
0000
0000
0000
0000
0000
0000
0000
0000
0000
0000
0000
0000
0000
0000
0000
0011
0000
0000
0000
0000
0000
0000
0000
0000
0000
0000
0000
0000
0000
0000
0000
0000
0000
0000
0000
0000
0000
0000
0000
1000
0000
0000
0000
0000
0000
0100
0000
0000
0000
0000
0000
0010
0000
0000
0000
0000
0000
0001
0000
0000
0000
0000
0000
0010
0000
0000
0000
0000
0000
0000
0000
0000
0000
0000
0000
0100
0000
0000
0000
0000
0000
0000
0000
0000
0000
0000
0000
1000
0000
0000
0000
0000
0000
0000
0000
0000
0000
0000
0000
0000
0000
0000
0000
0000
0000
0000
0000
0000
0000
0000
0000
1100
0000
0000
0000
0000
0000
0000
0000
0000
0000
0000
0000
0000
0000
0000
0000
0000
0000
0000
0000
0000
0000
0000
0000
0011
0000
0000
0000
0000
0000
0000
0000
0000
0000
0000
0000
0000
0000
0000
0000
0000
0000
0000
0000
0000
0000
0000
0000
,
0010
0000
1100
0011
1100
0000
0010
0001
0100
0010
1000
0100
0011
0000
2000
0000
,
3001
0010
0100
1000
0100
0000
0000
0000
0010
0001
0010
0100
1000
0000
0000
0000
0001
0000
0010
0000
1000
0000
0000
0000
0011
0000
1100
0000
0011
0000
1100
0000
,
0001
0000
0100
0000
1010
0000
0100
0001
0010
0000
0100
0000
1010
0000
0001
0000
,
1000
0000
0000
0100
0000
0000
1000
0000
0000
0000
0000
0000
0001
0010
0100
1000
0100
0010
0001
0000
0000
0000
0000
0000
0010
0000
0000
1000
0000
0000
0100
0000
0000
0000
0000
0000
0011
0000
0000
0000
0000
0000
1000
0000
0000
0000
0000
0000
,
0010
0000
0000
0000
0000
0000
0000
0000
0000
0000
0000
0000
0000
0000
0000
0000
0000
0000
0000
0000
0000
0000
0000
0000
0100
0000
0000
0000
0000
0000
0000
0000
0000
0000
0000
0000
0010
0000
0000
0000
0000
0000
0000
0000
0000
0000
0000
0000
0001
0000
0000
0000
0000
0000
0000
0000
0000
0000
0000
0000
0000
0000
0000
0000
0000
0000
0010
0000
0000
0000
0000
0000
0000
0000
0000
0100
0000
0000
0000
0000
1000
0000
0000
0000
0000
0000
0000
0000
0000
0000
0000
0000
0000
0000
0000
0000
0100
0000
0000
0000
0000
0000
0000
0000
0000
0000
0000
0000
0000
0000
0000
0000
0000
0000
0000
0000
0000
0000
0000
0000
0010
0000
0000
0000
0000
0000
0000
0000
0000
0000
0000
0000
0000
0000
0000
0000
0000
0000
0000
0000
0000
0000
0000
0000
0001
0000
0000
0000
0000
0000
0000
0000
0000
0000
0000
0000
0010
0000
0000
0000
0000
0000
0000
0000
0000
0000
0000
0000
0100
0000
0000
0000
0000
0000
1000
0000
0000
0000
0000
0000
0100
0000
0000
0000
0000
0000
0010
0000
0000
0000
0000
0000
,
0001
0000
0000
0000
0010
0000
0000
0000
0100
0000
0000
0000
0000
0000
0000
0000
1010
0000
0000
0000
0000
0000
0000
0000
0101
0000
0000
0000
0000
0000
0000
0000
1000
0000
0000
0000
0000
0000
0000
0000
0100
0000
0000
0000
0000
0000
0000
0000
0010
0001
0000
0000
0000
0000
0000
0000
1000
0000
0000
0000
0100
0000
0000
0000
,
0001
1100
0011
0101
1010
0101
1001
1010
,
0110
0000
0011
0000
1100
0000
0110
0000
0101
0000
1001
0000
0011
0000
1100
0010
,
0001
0010
0100
1000
0100
0010
0001
0100
0001
1000
0010
0100
0001
1000
0100
0010
,
0100
1000
0010
0100
0001
0010
0100
0010
0001
0100
0010
0100
0001
0010
0100
1000
,
0100
0010
0100
1000
0010
0100
1000
0100
0010
0001
0010
0100
1000
0010
0001
0100
,
0010
1000
0100
0010
1000
0100
0010
0001
0010
0100
0001
0010
0100
1000
0001
0100
,
0010
1000
0100
0010
0100
1000
0001
0100
0001
0010
0100
0001
1000
0100
0010
1000
,
0010
0100
0001
1000
0001
0010
0100
1000
0001
0010
0100
1000
0100
0010
0001
1000
,
0010
0100
0010
0001
0100
1000
0010
0100
0001
1000
0100
0010
0100
0001
1000
0010
,
1000
0001
1000
0010
1000
0001
1000
0010
1000
0001
1000
0010
1000
0001
0020
0000
,
0000
0100
0000
1000
0100
0001
0000
0100
,
0000
1000
0000
0001
0100
0001
0000
1000
,
0000
0100
0000
0001
1000
0100
0000
0001
,
0000
0000
0100
0000
0000
0000
0001
0000
1000
0100
0000
0100
1000
0000
0130
0000
,
0000
0010
0000
0000
0100
0000
0000
0001
0000
0000
0010
0000
0000
0100
0000
0000
,
0010
0000
0000
0001
0000
0000
0100
0000
0000
0010
0000
0000
1000
0000
0100
0000
,
0000
0010
0000
0000
0100
0000
0000
1000
0000
0000
0001
0000
0000
0100
0000
0000
,
0010
0000
0000
0100
0000
0000
1000
0000
0000
0100
0000
0000
0010
0000
0002
0100
,
0010
1000
0010
0100
0013
0000
0100
0000
1000
0000
0200
0010
0301
0000
0020
0000
,
0100
0000
1030
0100
0001
0000
2000
0000
0001
0010
3000
0100
1000
0001
1100
0000
,
0010
0000
0101
0000
1000
0100
0011
0000
0000
0000
0100
1000
0010
0000
0101
0000
,
0010
0100
1000
0000
0001
0100
1010
0000
0001
1100
0000
1000
0011
0000
1000
0100
,
0010
0000
0101
0000
1000
0000
0010
0100
0010
0000
1100
0000
0011
0000
1100
0000
,
0010
0000
0000
0000
0000
0000
0000
0000
0000
0000
0000
0000
0000
0000
0000
0000
0000
0000
0000
0000
0000
0000
0000
0000
0101
0000
0000
0000
0000
0000
0000
0000
0000
0000
0000
0000
0000
0000
0000
0000
0000
0000
0000
0000
0000
0000
0000
0000
1000
0000
0000
0000
0000
0000
0000
0000
0000
0000
0000
0000
0100
0000
0000
0000
0000
0000
0000
0000
0000
0000
0000
0000
0011
0000
0000
0000
0000
0000
0000
0000
0000
0000
0000
0000
0000
0000
0000
0000
0000
0000
0000
0000
0000
0000
0000
0000
0000
0000
0000
0000
0000
0000
0000
0000
0000
0000
0000
0000
0000
0000
0000
0000
0000
0000
0000
0000
0000
0000
0000
0000
0000
0000
0000
0000
0000
0000
0000
0000
0000
0000
0000
0000
0000
0000
0000
0000
0000
0000
0001
0000
0000
0000
0000
0000
1000
0000
0000
0000
0000
0000
0100
0000
0000
0000
0000
0000
0010
0000
0000
0000
0001
0000
0000
0000
1000
0000
0000
0000
0100
0000
0000
0000
0000
0000
0000
0000
0000
0000
0000
0000
0000
0000
0000
0000
0000
0000
0000
0000
0000
0000
0000
0000
,
0000
0000
0011
0000
1000
0001
0100
0010
1000
0000
0101
0000
0010
1000
0100
0010
,
1001
0000
0101
0000
0010
1000
0010
0000
1001
0000
0110
0000
0000
0000
1111
0000
,
0000
0000
1000
0100
0010
0001
0010
0100
1000
0100
0010
0001
0010
0100
1000
0100
,
0010
0001
0010
0100
1000
0100
1000
0000
0011
1100
0011
0000
1000
0001
0100
0000
,
1001
0000
0000
0110
0000
0000
1000
0000
0100
0000
0010
0000
1001
0000
0000
0010
0000
0000
0100
0000
0010
0000
0100
0000
,
1001
0000
0100
0010
0001
0000
0010
0100
1000
0000
0100
0010
0001
0000
1000
0000
,
0110
0000
0001
0010
0100
1000
0110
0000
,
0101
0000
1001
0010
0100
1000
0101
0000
,
0010
0000
0100
0000
1000
0000
0100
0000
0010
0000
0001
0000
0100
0000
0000
0000
0000
0000
0001
0000
0000
0000
0000
0000
1100
0000
0000
0000
0000
0000
0001
0000
0000
0100
0000
0000
0010
0000
0000
1000
0000
0000
0001
0000
0000
0100
0000
0000
,
1010
0000
0101
0000
0010
0000
1000
0000
0110
0000
0001
0010
0100
1000
0100
0010
,
1001
0000
0000
0000
0000
0000
0000
0000
0010
0000
0000
0000
1000
0000
0000
0000
0101
0000
0000
0000
0000
0000
0000
0000
0010
0000
0000
0000
0001
0000
0000
0000
1100
0000
0000
0000
0000
0000
0000
0000
0010
0000
0000
0000
1000
0000
0000
0000
0001
0000
0000
0000
0000
0000
0000
0000
1000
0100
0010
0001
0000
0000
0000
0000
,
0000
0000
1100
0011
0101
0110
1100
1010
,
0001
0000
0010
0000
0100
0000
1000
0000
0100
0000
0010
0000
0001
0000
0000
0010
0000
0000
1000
0000
0000
0010
0000
0000
0001
0000
0000
0100
0000
0000
1000
0000
0000
0100
0000
0000
0001
0000
0000
0010
0000
0000
1000
0000
0000
0100
0000
0000
,
0010
0001
0010
0100
1000
0010
0100
0001
0010
0100
1000
0100
0010
1000
0100
0010
,
0001
0010
0100
0001
0010
0100
1000
0010
0100
1000
0100
0001
0010
0100
1000
0100
,
0010
0100
0001
0100
1000
0010
0100
0001
1000
0100
1000
0010
0100
0001
0010
0001
,
0100
0010
1000
0001
0100
0001
1000
0100
0010
0100
1000
0010
0001
0100
1000
0100
,
0010
0100
1000
0010
0100
0001
1000
0001
0010
0100
1000
0100
0010
0001
0010
1000
,
0100
0001
1000
0010
0100
0001
0010
1000
0100
0010
0100
0010
1000
0100
0010
0001
,
1000
0100
0010
0001
1000
0100
0010
0001
1000
0100
0010
0001
1000
0100
0010
0001
,
1000
0100
0010
0001
0200
0000
0000
0000
0000
0000
0000
0000
0000
0000
0000
0000
,
0310
0001
1000
0100
0010
0100
1000
0001
0100
0001
1000
0010
0100
0001
1000
0100
,
0010
0001
0010
0100
1000
0001
0010
0001
1000
0100
1000
0010
0100
0001
1000
0001
,
0100
0010
1000
0100
0010
0001
0010
0100
1000
0001
0100
0010
1000
0100
0010
0001
,
0010
0100
1000
0001
0100
0001
1000
0010
1000
0100
0010
0001
0010
0100
1000
0010
,
0100
0010
1000
0010
0100
0001
0100
0010
1000
0100
0001
0010
0100
1000
0200
0000
,
0320
0000
0000
0000
,
0030
0000
0000
0000
;

//---------------dance-single - ----------------
#NOTES:
     dance-single:
     :
     Challenge:
     14:
     1.000,1.000,1.000,0.449,1.000,1096.000,253.000,70.000,0.000,3.000:
0002
0000
1003
0100
0010
0000
0002
0000
0000
0000
0000
0000
0003
0000
0000
0000
,
0000
0000
0000
0000
0000
0000
0000
0000
0001
0100
0010
0100
0001
1000
0010
1000
,
0200
0320
0031
2000
,
3100
0000
0010
0001
0010
0000
0100
0000
0000
0000
0000
0000
0000
0001
0010
1000
,
0010
0001
0100
1000
0100
0001
0010
0100
0020
0000
0000
0000
0032
0000
0000
0000
,
0013
0000
0100
1000
0010
0100
0001
0000
0000
0000
0000
0000
0000
0000
0020
0000
,
0032
0000
0000
0000
0203
0000
0000
0000
0310
0000
1000
0000
0100
0000
0010
0001
,
1000
0020
0000
0030
0000
0000
0000
0000
,
0000
0000
0020
0000
0000
0000
0130
0001
0100
0010
0200
0000
0000
0000
0300
0000
,
0000
0000
0000
0000
0002
0000
0203
0000
0000
0000
0310
0000
1000
0100
0010
0001
,
2000
0000
0000
3000
0000
0000
0000
0000
,
0000
0000
0200
0000
0301
0010
0100
1000
0200
0000
0000
0000
0000
0000
0320
0000
,
0000
0000
0032
0000
2003
0000
0000
0000
3020
0000
0130
0001
0010
0100
0001
0010
,
0100
1000
0100
0010
1000
0100
0010
0000
0001
0000
1000
0000
0000
0000
0000
0000
,
0000
0000
0000
0000
0000
0000
0000
0001
,
0002
0000
0000
0000
0013
0100
2000
0000
0000
0000
3000
0000
0000
0000
0000
0000
,
0100
0020
0000
0032
0000
0203
0320
1030
,
0100
0010
0001
0000
1000
0000
0200
0000
0301
0010
0100
1000
0001
0010
0100
1000
,
0001
0010
0100
1000
0002
0000
0000
0203
0000
0000
2300
0000
0000
0000
0000
0000
,
3100
0010
0001
0100
0010
0001
1000
0100
0010
1000
0100
0010
0001
0100
0010
1000
,
0010
0100
0001
0010
0100
1000
0100
0010
0002
0000
0000
0000
0013
0100
1000
0010
,
0100
1000
0100
0000
0010
0001
0010
0100
0001
0010
0100
1000
0100
0010
1000
0100
,
0010
0001
1000
0010
0100
1000
0001
1000
0001
1000
0001
1000
0001
1000
0001
0010
,
0100
1000
0100
0010
0001
0000
0100
0010
1000
0010
0001
0100
1000
0100
0010
0000
,
0001
0000
2000
0000
0000
0000
3100
0000
0010
0000
0001
0000
0010
0100
1000
0000
,
0100
0020
0000
0032
2003
3020
0000
0032
,
0023
0230
0302
2003
3200
0302
2003
3010
,
0001
0010
0100
1000
0010
0000
0100
0000
0001
1000
0010
0000
0100
0000
0001
0010
,
0100
0000
1000
0000
0100
0000
0010
0001
1000
0001
0200
0000
0000
0000
0000
0000
,
0000
0000
0000
0000
,
0000
0000
0000
0000
0000
0320
0032
2003
,
3020
0000
0130
0001
1000
0010
1000
0100
0010
1000
0100
0010
0001
0010
0100
0001
,
0010
0100
1000
0010
0001
0100
0010
1000
0100
0001
0020
0000
0000
0000
0000
0000
,
0000
0000
0000
0000
0000
0000
0130
0000
0000
1000
0000
0000
0100
0000
0000
0010
,
0000
0000
0001
0000
0000
0100
0000
0000
1000
0000
0000
0010
0000
0000
0001
0000
,
0010
0000
0000
0100
0000
0000
1000
0000
0000
0010
0000
0000
0100
0000
0000
0001
,
0000
0000
0010
0000
0000
0100
0000
0000
0001
0000
0000
1000
0000
0000
0010
0000
,
1100
0011
0110
1100
1001
0011
1100
0101
,
0110
0000
1001
0000
0011
0000
0101
1000
0011
0100
1001
0000
1010
0000
0110
0000
,
1001
0000
0011
0000
1100
0000
1001
0010
0101
0000
1010
0100
0011
0000
1100
0000
,
0011
0000
0000
0000
0000
0000
0000
0000
0000
0000
0000
0000
0000
0000
0000
0000
0000
0000
0000
0000
0000
0000
0000
0000
1010
0000
0000
0000
0000
0000
0000
0000
0000
0000
0000
0000
0000
0000
0000
0000
0000
0000
0000
0000
0000
0000
0000
0000
0110
0000
0000
0000
0000
0000
0000
0000
0000
0000
0000
0000
0000
0000
0000
0000
0000
0000
0000
0000
0000
0000
0000
0000
0001
0000
0000
0000
0000
0000
1000
0000
0000
0000
0000
0000
0100
0000
0000
0000
0010
0000
0000
0000
0001
0000
0000
0000
1000
0000
0000
0000
0000
0000
0000
0000
0000
0000
0000
0000
0010
0000
0000
0000
0000
0000
0000
0000
0000
0000
0000
0000
0101
0000
0000
0000
0000
0000
0000
0000
0000
0000
0000
0000
0000
0000
0000
0000
0000
0000
0000
0000
0000
0000
0000
0000
1001
0000
0000
0000
0000
0000
0000
0000
0000
0000
0000
0000
0000
0000
0000
0000
0000
0000
0000
0000
0000
0000
0000
0000
0110
0000
0000
0000
0000
0000
0000
0000
0000
0000
0000
0000
0000
0000
0000
0000
0000
0000
0000
0000
0000
0000
0000
0000
,
1001
0000
0101
0000
1010
0000
1100
0000
0011
0100
0011
1000
0202
0000
1313
0000
,
0101
0000
0000
0000
0000
0000
0000
0000
0000
0000
0000
0000
0000
0000
0000
0000
0000
0000
0000
0000
0000
0000
0000
0000
0011
0000
0000
0000
0000
0000
0000
0000
0000
0000
0000
0000
0000
0000
0000
0000
0000
0000
0000
0000
0000
0000
0000
0000
1100
0000
0000
0000
0000
0000
0000
0000
0000
0000
0000
0000
0000
0000
0000
0000
0011
0000
0000
0000
0000
0000
0000
0000
0000
0000
0000
0000
0000
0000
0000
0000
1100
0000
0000
0000
0000
0000
0000
0001
0000
0000
0010
0000
0000
0100
0000
0000
1000
0000
0000
0000
0000
0000
0000
0000
0000
0000
0000
0000
0001
0000
0000
0000
0000
0000
0000
0000
0000
0000
0000
0000
0110
0000
0000
0000
0000
0000
0000
0000
0000
0000
0000
0000
0000
0000
0000
0000
0000
0000
0000
0000
0000
0000
0000
0000
1001
0000
0000
0000
0000
0000
0000
0000
0000
0000
0000
0000
0000
0000
0000
0000
0000
0000
0000
0000
0000
0000
0000
0000
0101
0000
0000
0000
0000
0000
0000
0000
0000
0000
0000
0000
0000
0000
0000
0000
0000
0000
0000
0000
0000
0000
0000
0000
,
0110
0000
0000
0000
0000
0000
0000
0000
0000
0000
0000
0000
0000
0000
0000
0000
1001
0000
0000
0000
0000
0000
0000
0000
0000
0000
0000
0000
0000
0000
0000
0000
1010
0000
0000
0000
0000
0000
0000
0000
0000
0000
0000
0000
0000
0000
0000
0000
0001
0000
0000
0000
0000
0000
0010
0000
0000
0000
0000
0000
0100
0000
0000
0000
0000
0000
1000
0000
0000
0000
0000
0000
0001
0000
0000
0000
0000
0000
0010
0000
0000
0000
0000
0000
0100
0000
0000
0000
0000
0000
1000
0000
0000
0000
0000
0000
0001
0000
0000
0000
0000
0000
0000
0000
0000
0000
0000
0000
0000
0000
0000
0000
0000
0000
0000
0000
0000
0000
0000
0000
1001
0000
0000
0000
0000
0000
0000
0000
0000
0000
0000
0000
0000
0000
0000
0000
0000
0000
0000
0000
0000
0000
0000
0000
1100
0000
0000
0000
0000
0000
0000
0000
0000
0000
0000
0000
0011
0000
0000
0000
0000
0000
0000
0000
0000
0000
0000
0000
1100
0000
0000
0000
0000
0000
0000
0000
0000
0000
0000
0000
0011
0000
0000
0000
0000
0000
0000
0000
0000
0000
0000
0000
,
1100
0000
0000
0000
1001
0000
0010
0000
1100
0000
0000
0000
0101
0000
0000
0000
0110
0000
1000
0001
0100
0000
0000
0000
1010
0000
0001
0100
1000
0000
0000
0000
,
0101
0000
0000
0000
0110
0000
1000
0000
0011
0000
0000
0000
1100
0000
0000
0000
1001
0000
0010
0000
0100
1000
0001
0000
0110
0000
0000
0000
1100
0000
0000
0000
,
0011
0000
0101
1000
0011
0000
1001
0110
0000
0000
0000
0000
2222
0000
3333
0000
,
0101
0000
0011
1000
0110
0000
0011
0000
1010
0100
1001
0000
0011
1000
0110
0000
,
0011
0000
0000
0000
0000
0000
0000
0000
0000
0000
0000
0000
0000
0000
0000
0000
0011
0000
0000
0000
0000
0000
0000
0000
0000
0000
0000
0000
0000
0000
0000
0000
0011
0000
0000
0000
0000
0000
0000
0000
0000
0000
0000
0000
0000
0000
0000
0000
1100
0000
0000
0000
0000
0000
0000
0000
0000
0000
0000
0000
0000
0000
0000
0000
0000
0000
0000
0000
0000
0000
0000
0000
0001
0000
0000
0000
0000
0000
0010
0000
0000
0000
0000
0000
0100
0000
0000
0000
0000
0000
1000
0000
0000
0000
0000
0000
0100
0000
0000
0000
0000
0000
0000
0000
0000
0000
0000
0000
0010
0000
0000
0000
0000
0000
0000
0000
0000
0000
0000
0000
1001
0000
0000
0000
0000
0000
0000
0000
0000
0000
0000
0000
0000
0000
0000
0000
0000
0000
0000
0000
0000
0000
0000
0000
0011
0000
0000
0000
0000
0000
0000
0000
0000
0000
0000
0000
0000
0000
0000
0000
0000
0000
0000
0000
0000
0000
0000
0000
1100
0000
0000
0000
0000
0000
0000
0000
0000
0000
0000
0000
0000
0000
0000
0000
0000
0000
0000
0000
0000
0000
0000
0000
,
1001
0000
0011
1100
0011
0000
1001
0100
1010
0100
0011
0100
1010
0000
0101
0000
,
1000
0100
0010
0001
0010
0000
0000
0000
0100
1000
0100
0010
0001
0000
0000
0000
1010
0000
0101
0000
1010
0000
0000
0000
1100
0000
0011
0000
1100
0000
0011
0000
,
1100
0000
1010
0000
0101
0000
0011
1000
0110
0000
1010
0000
0101
0000
1010
0000
,
1001
0000
0000
0010
0000
0000
1001
0000
0000
0000
0000
0000
1000
0100
0010
0001
0010
0100
1000
0000
0000
0000
0000
0000
1100
0000
0000
0001
0000
0000
0110
0000
0000
0000
0000
0000
1100
0000
0000
0000
0000
0000
0011
0000
0000
0000
0000
0000
,
1100
0000
0000
0000
0000
0000
0000
0000
0000
0000
0000
0000
0000
0000
0000
0000
0000
0000
0000
0000
0000
0000
0000
0000
1001
0000
0000
0000
0000
0000
0000
0000
0000
0000
0000
0000
0110
0000
0000
0000
0000
0000
0000
0000
0000
0000
0000
0000
2000
0000
0000
0000
0000
0000
0000
0000
0000
0000
0000
0000
0000
0000
0000
0000
0000
0000
3200
0000
0000
0000
0000
0000
0000
0000
0000
0320
0000
0000
0000
0000
0032
0000
0000
0000
0003
0000
0000
0000
0000
0000
0000
0000
0000
0000
0000
0000
1010
0000
0000
0000
0000
0000
0000
0000
0000
0000
0000
0000
0000
0000
0000
0000
0000
0000
0000
0000
0000
0000
0000
0000
0101
0000
0000
0000
0000
0000
0000
0000
0000
0000
0000
0000
0000
0000
0000
0000
0000
0000
0000
0000
0000
0000
0000
0000
1010
0000
0000
0000
0000
0000
0000
0000
0000
0000
0000
0000
0100
0000
0000
0000
0000
0000
0000
0000
0000
0000
0000
0000
0010
0000
0000
0000
0000
0000
0001
0000
0000
0000
0000
0000
0010
0000
0000
0000
0000
0000
0100
0000
0000
0000
0000
0000
,
1000
0000
0000
0000
0100
0000
0000
0000
0011
0000
0000
0000
0000
0000
0000
0000
0101
0000
0000
0000
0000
0000
0000
0000
1010
0000
0000
0000
0000
0000
0000
0000
0101
0000
0000
0000
0000
0000
0000
0000
1010
0000
0000
0000
0000
0000
0000
0000
0011
1000
0000
0000
0000
0000
0000
0000
0101
0000
0000
0000
0010
0000
0000
0000
,
1100
0011
1100
1010
0101
1010
1001
0101
,
0110
0000
1100
0000
0011
0000
0110
0000
1010
0000
1001
0000
1100
0000
0011
0100
,
1000
0100
0010
0001
0010
0100
1000
0010
1000
0001
1000
0010
1000
0100
0010
0100
,
1000
0001
1000
0010
1000
0100
0010
0100
1000
0010
0100
0010
1000
0100
0010
0001
,
0010
0100
0010
0001
1000
0010
0001
0010
0100
1000
0100
0010
0001
0100
1000
0010
,
0100
0001
0010
0100
0001
0010
0100
1000
0100
0010
1000
0100
0010
0001
1000
0010
,
0100
0001
0010
0100
1000
0001
1000
0010
1000
0100
0001
1000
0001
0010
0100
0001
,
0100
0010
1000
0001
1000
0100
0010
0001
1000
0100
0010
0001
0010
0100
1000
0001
,
0100
0010
0001
1000
0010
0001
0100
0010
1000
0001
0010
0100
0010
1000
0001
0100
,
0001
1000
0001
0100
0001
1000
0001
0100
0001
1000
0001
0100
0001
1000
0200
0000
,
0000
0010
0000
0001
0010
1000
0000
0010
,
0000
0001
0000
1000
0010
1000
0000
0001
,
0000
0010
0000
1000
0001
0010
0000
1000
,
0000
0000
0010
0000
0000
0000
1000
0000
0001
0010
0000
0010
0001
0000
0310
0000
,
0000
0100
0000
0000
0010
0000
0000
1000
0000
0000
0100
0000
0000
0010
0000
0000
,
0100
0000
0000
1000
0000
0000
0010
0000
0000
0100
0000
0000
0001
0000
0010
0000
,
0000
0100
0000
0000
0010
0000
0000
0001
0000
0000
1000
0000
0000
0010
0000
0000
,
0100
0000
0000
0010
0000
0000
0001
0000
0000
0010
0000
0000
0100
0000
2000
0010
,
0100
0001
0100
0010
3100
0000
0010
0000
0001
0000
0020
0100
1030
0000
0200
0000
,
0010
0000
0301
0010
1000
0000
0002
0000
1000
0100
0003
0010
0001
1000
0011
0000
,
1100
0000
1010
0000
0101
0010
1100
0000
0000
0000
1010
0001
0110
0000
1010
0000
,
1100
0010
0101
0000
1001
0010
0101
0000
1100
0011
0000
0011
1100
0000
1001
0010
,
0101
0000
1010
0000
1001
0000
1100
0010
1100
0000
0011
0000
1100
0000
0011
0000
,
0101
0000
0000
0000
1010
0000
0000
0000
0101
0000
0010
0000
1100
0000
0000
0000
0000
0000
0000
0000
0000
0001
0010
0100
1000
0001
0010
0100
1000
0000
0000
0000
,
0000
0000
1100
0000
0011
1000
0011
0100
1001
0000
1010
0000
1100
0001
0110
1000
,
0101
0000
1010
0000
0110
0001
1100
0000
1001
0000
0110
0000
0000
0000
1111
0000
,
0000
0000
0100
0010
0100
0010
0100
0010
1000
0001
1000
0001
1000
0001
0010
0100
,
0010
0100
0010
0100
1001
0010
0101
0000
1100
0011
1100
0000
0101
1000
0110
0000
,
1001
0000
0000
0110
0000
0000
1001
0000
0011
0000
1100
0000
1001
0000
0000
1100
0000
0000
0011
0000
1100
0000
0110
0000
,
1001
0000
0011
0100
1010
0000
1100
0010
0101
0000
0011
0100
1010
0000
0011
0000
,
0110
0000
1001
1100
0110
0011
0110
0000
,
1010
0000
1001
0110
0110
1001
1010
0000
,
0100
0000
0010
0000
0001
0000
0010
0000
0100
0000
1000
0000
0100
0000
0000
0000
0000
0000
0011
0000
0000
0000
0000
0000
0101
0000
0000
0000
0000
0000
1001
0000
0000
0010
0000
0000
1100
0000
0000
0001
0000
0000
1010
0000
0000
0001
0000
0000
,
0110
0000
1010
0000
0101
0000
1001
0000
0110
0000
1010
0100
0011
1000
0011
0100
,
1001
0000
0000
0000
0000
0000
0000
0000
0110
0000
0000
0000
0001
0000
0000
0000
1010
0000
0000
0000
0000
0000
0000
0000
0101
0000
0000
0000
1000
0000
0000
0000
0011
0000
0000
0000
0000
0000
0000
0000
0110
0000
0000
0000
0001
0000
0000
0000
1100
0000
0000
0000
0000
0000
0000
0000
0001
0010
0100
1000
0000
0000
0000
0000
,
0000
0000
0011
1100
1010
0110
0011
0101
,
1000
0000
0100
0000
0010
0000
0001
0000
0010
0000
0100
0000
1000
0000
0000
0100
0000
0000
0001
0000
0000
0100
0000
0000
1000
0000
0000
0010
0000
0000
0001
0000
0000
0010
0000
0000
1000
0000
0000
0100
0000
0000
0001
0000
0000
0010
0000
0000
,
0100
1000
0100
0010
0001
0100
0001
1000
0100
0010
0001
0010
0100
0001
0010
0100
,
1000
0100
0010
1000
0100
0010
0001
0100
0010
0001
0010
1000
0100
0010
1000
0010
,
0100
0010
1000
0010
0001
0100
0010
1000
0001
0010
1000
0100
0010
1000
0100
1000
,
0001
0100
0001
1000
0001
1000
0001
0010
0100
0010
0001
0100
1000
0010
0001
0010
,
1000
0010
0001
0100
0010
1000
0001
1000
0100
0010
0001
0010
0100
1000
0100
0001
,
0010
1000
0001
0100
0010
1000
0100
0001
0100
0010
0001
1000
0001
0100
1000
0100
,
0001
0010
1000
0010
0001
0100
1000
0100
0001
0010
1000
0010
0001
0100
1000
0100
,
0001
0010
1000
0100
0020
0000
0000
0000
0000
0000
0000
0000
0000
0000
0000
0000
,
0130
1000
0001
0010
0100
0010
0001
1000
0010
1000
0001
0100
0010
1000
0001
0010
,
0100
1000
0100
0010
0001
1000
0100
1000
0001
0010
0001
0100
0010
1000
0001
1000
,
0010
0100
0001
0010
0100
1000
0100
0010
0001
1000
0010
0100
0001
0010
0100
1000
,
0100
0010
0001
1000
0010
1000
0001
0100
0001
0010
0100
1000
0100
0010
0001
0100
,
0010
0100
0001
0100
0010
1000
0010
0100
0001
0010
1000
0100
0010
0001
0020
0000
,
0230
0000
0000
0000
,
0300
0000
0000
0000
;
