#TITLE:Restoration ~Chinmoku no Sora~;
#SUBTITLE:Baldr Sky Dive.1 "Lost Memory" OP theme;
#ARTIST:KOTOKO;
#TITLETRANSLIT:;
#SUBTITLETRANSLIT:;
#ARTISTTRANSLIT:;
#CREDIT:ALICE_;
#BANNER:Restoration.png;
#BACKGROUND:Restoration.jpg;
#LYRICSPATH:;
#CDTITLE:cdtitle.png;
#MUSIC:Restoration.mp3;
#OFFSET:-0.040;
#SAMPLESTART:46.840;
#SAMPLELENGTH:20.420;
#SELECTABLE:YES;
#BPMS:0.000=140.000,252.000=120.000,254.000=135.000,256.000=115.000;
#STOPS:;
#BGCHANGES:2.000=Restoration.avi=1.000=0=0=1,
99999=-nosongbg-=1.000=0=0=0 // don't automatically add -songbackground-
;
// cache tags:
#FIRSTBEAT:4.000;
#LASTBEAT:270.000;
#SONGFILENAME:Songs/alice 4th complete step/Restoration/Restoration.sm;
#HASMUSIC:1;
#HASBANNER:1;
#MUSICLENGTH:123.480;
// end cache tags

//---------------dance-single - ----------------
#NOTES:
     dance-single:
     :
     Hard:
     9:
     0.587,0.668,0.324,0.300,0.202,430.000,40.000,37.000,0.000,0.000:
0000
0000
0000
0000
,
0000
0000
0000
0000
,
0000
0000
0000
0000
,
1000
0100
0010
0001
0000
0000
0000
0000
,
0001
0100
0010
1000
0000
0000
0000
0000
,
1000
0100
0001
0010
0000
0000
0000
0000
,
0010
0001
0100
1000
1000
0100
0001
0010
,
1000
0001
0010
0100
0000
0000
0000
0000
,
0001
1000
0100
0010
0000
0000
0000
0000
,
0100
1000
0001
0100
0000
0000
0000
0000
,
0220
0000
0000
0000
0000
0000
0000
0330
,
1000
0100
0010
0001
1000
0010
0100
0000
,
0001
0100
0010
1000
0001
0010
0100
0000
,
1000
0001
0100
0001
0010
1000
0100
0000
,
0001
1000
0100
1000
0010
0001
0100
0010
,
1000
0100
0001
0100
1000
0010
0001
0000
,
0001
0100
1000
0100
0001
0010
1000
0000
,
0010
0100
0010
0001
1000
0010
0100
0001
,
2000
0000
0000
0000
0000
0000
0100
0000
0020
0000
0000
0000
0000
0000
0030
3000
,
0001
0100
0010
1000
0010
0100
0001
0010
0000
0100
1000
0000
0000
0000
0000
0000
,
1000
0100
0010
0001
0010
0100
1000
0010
0000
0100
0001
0000
0000
0000
0000
0000
,
1000
0100
1000
0100
0001
0100
1000
0010
0000
0100
0001
0000
0000
0000
0000
0000
,
0001
0100
0001
0100
1000
0000
0100
0010
0000
1000
0002
0000
0010
0000
0013
0000
,
0100
1000
0010
0100
0010
0000
1000
0010
0000
0100
0001
0000
0000
0000
0000
0000
,
0100
0001
0010
0100
0010
0000
0001
0010
0000
0100
1000
0000
0010
0000
0100
0000
,
0002
0000
0000
1000
2000
0000
0000
3003
,
0110
0000
0000
0110
0000
0000
0110
0000
1100
0000
0000
0000
2002
0000
0000
3003
,
0101
0000
0110
0000
1010
0000
0100
0000
0002
0000
0000
2000
0000
0000
3003
0000
,
1100
0000
0110
0000
0011
0000
0100
0000
2000
0000
0000
0002
3000
0000
0103
0000
,
0100
0000
0010
0000
1000
0000
0010
0000
0100
0000
0000
0001
0000
0000
1000
0000
,
0011
0001
0101
0001
1100
1000
1010
0010
,
0100
0000
0101
0000
1100
0000
0010
0000
2000
0000
0000
0200
0000
0000
3300
0000
,
0001
0000
1100
0000
0101
0000
0010
0000
0002
0000
0000
0200
0000
0000
0303
0000
,
0010
0000
1000
0000
0001
0000
1000
0000
0100
0000
0000
0100
0000
0000
0100
0000
,
1000
0010
0100
0010
0001
0010
0100
0010
,
1000
0000
1100
0010
1000
0001
0100
0010
,
1000
0001
0100
0001
0010
0001
1000
0100
,
0010
0000
0101
1000
0010
0100
0001
1000
,
0010
0001
0010
0100
0010
1000
0100
0010
,
2200
0300
3001
0100
0001
1000
0010
0000
,
0202
0300
1003
0100
1000
0001
0010
0000
,
0100
1000
0001
0100
0010
0000
1000
0100
0000
0001
0100
0000
1000
0010
0001
0000
,
0010
1000
0001
0010
0100
0000
1000
0010
0000
0001
0010
0000
1000
0100
1000
0010
,
0100
0001
0100
0001
1000
0100
1000
0010
,
0100
1000
0100
1000
0001
0100
0001
0010
,
0100
1000
1001
0100
0001
0010
0011
1000
,
0010
0100
0010
1000
0001
0010
0001
0101
,
1001
0010
0100
0010
1000
0100
0010
0001
,
1001
0100
0010
0100
0001
0010
0100
1000
,
0010
0000
0110
0000
0101
0000
1000
0100
0010
0100
1000
0001
0100
0010
1000
0001
,
0020
0000
0000
0130
0100
0010
0001
0100
,
1001
1000
1100
0010
0100
0100
0001
0010
,
0100
0100
1000
0001
0010
0010
0001
0100
,
0010
1000
0010
0001
1000
0100
0001
0010
,
0100
1000
0100
0001
0100
0010
0010
0001
,
2001
0100
3010
0100
0002
0100
0013
0100
,
2000
0010
3001
0100
0002
0010
1003
0100
,
1000
0010
0100
0001
0001
0010
0100
1000
,
0001
0010
0001
0100
0010
0010
1010
0011
,
0100
0010
0100
0000
0001
0000
1000
0000
,
0100
0010
0100
0000
1000
0000
0001
0000
,
2200
3300
0202
0303
,
0220
0330
2002
3003
,
1000
0100
0010
0001
2000
0000
0000
0000
,
3020
0000
0000
0000
,
0230
0000
0000
0000
,
0300
0000
0000
0000
;

//---------------dance-single - Copied from----------------
#NOTES:
     dance-single:
     Copied from:
     Challenge:
     14:
     0.954,1.000,1.000,0.373,0.806,632.000,140.000,46.000,0.000,20.000:
0000
0000
0000
0000
,
2000
0000
3200
0000
,
0320
0000
0000
0000
0000
0000
0032
0000
0000
0000
0000
0003
,
1000
0100
1000
0010
1000
0001
1000
0010
0100
0000
0000
1100
0000
0000
1000
0000
,
0001
0010
0001
0100
0001
1000
0001
0010
0100
0001
0000
0000
1000
0000
0010
0000
,
1000
0100
0001
0100
1000
0100
0001
0100
1000
0010
0000
0000
0100
0000
1000
0000
,
0001
0100
0010
0000
1000
0000
0001
0000
1000
0100
0010
0000
1000
0000
0001
0000
,
1000
0100
1000
0010
1000
0100
1000
0001
0100
0010
0000
0000
1001
0000
0010
0000
,
0001
0100
0001
0010
0001
0100
0001
1000
0010
0100
0000
0000
1001
0000
0100
0000
,
0001
0010
0001
0100
0010
0100
0001
1000
0010
0100
0000
0000
0001
0000
0010
0000
,
1000
0100
0010
0002
0000
0000
0000
0000
0000
0000
0000
0000
1000
0000
0000
0100
0000
0000
1000
0000
0000
0010
0000
0000
0103
0000
0000
1000
0000
0000
0001
0000
0000
0000
0000
0000
0100
0000
0000
0010
0000
0000
0100
0000
0000
0010
0000
0000
,
1000
0100
1000
0000
0001
0100
0001
0000
1000
0010
0100
0010
1001
0100
0010
0000
,
0001
0010
0001
0100
1000
0010
1000
0000
0001
0010
0100
0010
1001
0100
0010
0000
,
1000
0010
0001
0000
0001
0010
0100
0000
1000
0001
0100
0010
1000
0011
0100
0000
,
1000
0010
1000
0100
1000
0010
0100
0000
0001
0010
0001
0100
0001
0010
0100
1000
,
0100
0001
0100
0000
1000
0000
0010
0000
0100
0001
0100
1000
0010
0000
0100
0000
,
1000
0001
1000
0000
0010
0000
0100
0000
0001
0010
0001
1000
0010
0100
0010
0000
,
0100
1000
0010
1000
0001
0100
1000
0000
0110
0001
1000
0000
0101
0000
0010
0000
,
2200
0000
0000
0000
0000
0000
0000
0300
0002
0000
0000
0000
0000
3003
0010
0100
,
1010
0000
0000
1010
0000
0000
1010
0000
2201
0000
0010
0000
3301
0010
0010
0100
,
1001
0000
0000
1001
0000
0000
1001
0000
0212
0000
1000
0000
0313
0000
1000
1000
,
0011
0000
0000
0011
0000
0000
0011
0000
2120
0000
0001
0000
3130
0001
0001
1000
,
0110
0000
0000
0110
0000
0000
0110
0000
0001
1000
0010
0000
0101
0000
1100
0100
,
1010
0000
0000
1010
0000
0000
1010
0000
0202
0000
1000
0000
0313
0100
0100
0010
,
1001
0000
0000
1001
0000
0000
1001
0000
0220
0000
0001
0000
1330
0000
0010
0010
,
0101
0000
0000
1100
0000
0000
0011
0000
1010
0000
0000
0110
0000
0000
0110
0000
,
1001
0000
0000
1001
0000
0000
1001
0000
2010
0000
0000
3000
2102
0000
0000
3003
,
0121
0000
1000
0000
0001
0000
1000
0000
0001
0000
1000
0030
0001
1000
0100
0000
,
1020
0000
0001
0000
1000
0000
0001
0000
1000
0000
0031
0000
1000
0001
0100
0000
,
2010
0001
0100
0001
0010
0001
0100
3110
,
1101
0000
0000
0000
1110
0000
0000
0000
1001
0000
0000
0000
0110
0000
1010
0010
,
0201
1000
0001
1000
0001
1000
0301
0101
,
2001
0010
0001
0010
0001
0010
3001
1010
,
0210
0001
1000
0001
1000
0001
1300
0101
,
1010
0100
0000
0000
1001
0000
0011
0000
0101
1000
0010
0100
0001
1000
0010
0100
,
1001
0000
0010
0000
0101
0000
0010
1000
0100
1000
0010
0000
1001
0000
0100
0000
,
1100
0010
0010
0000
1001
0000
0100
0000
1010
0100
0001
0000
0101
0010
1000
0000
,
0101
1000
0100
0000
1010
0000
0100
0000
0001
0010
1000
0100
1001
0100
0010
0000
,
1100
0001
0010
0000
0101
0000
0010
0000
1000
0100
0001
0000
0110
0000
0110
0000
,
1001
0000
0010
0000
1001
0000
0100
0000
0011
1000
0010
0000
1100
0001
0100
0000
,
0010
1000
0100
0000
1001
0000
0010
0100
0001
0010
0001
0000
0110
1000
0100
0000
,
1001
0010
0001
0010
0101
0000
0010
0000
1000
0100
0010
0000
0010
0100
1000
0000
,
1001
0100
1000
0100
1010
0000
0100
0000
0001
1000
0100
1000
0010
0100
0010
0100
,
1100
0000
0001
0000
1010
0000
0001
0000
0100
1000
0011
0000
0001
0010
1100
0000
,
0101
1000
0010
0000
1001
0000
0100
0000
0010
1000
0011
0000
1100
0001
1000
0000
,
1010
0001
0010
0000
0101
0000
1000
0000
0110
0001
0010
0000
0110
1000
0100
0000
,
1001
0010
0001
0000
0101
0000
0010
0000
1000
0101
1000
0010
0101
0000
1001
1000
,
0110
0000
1000
0000
0110
0000
0001
0000
0010
1000
0100
0000
1001
0000
0010
0000
,
0101
1000
0100
0000
1001
0000
0100
0000
1010
0001
0010
1000
0100
0010
1000
0000
,
0001
0100
0100
0000
0011
0000
1000
0000
1010
0001
0100
0010
1000
0001
1000
0001
,
2002
0000
0000
3003
,
1100
0010
0100
0001
1000
0010
1000
0010
0101
1000
0010
0100
0001
0010
0001
0010
,
1001
0100
0010
1000
0100
0010
0100
0010
0101
1000
0010
0100
0001
1000
0001
1000
,
0110
0001
1000
0010
0100
1000
0100
1000
0011
0100
1000
0001
0100
0010
0100
0010
,
1000
0100
1000
0001
0100
0010
1000
0001
0100
0011
0100
0010
1001
0110
1000
0010
,
0101
0000
1000
0000
1001
0000
0100
1000
0010
0100
0010
0000
1001
0000
0100
0000
,
0001
0010
0001
0000
1010
0000
0100
0001
0010
0100
0010
0000
1001
0100
0001
0000
,
2000
0100
3020
0030
0102
0000
0013
0000
0101
1000
0010
0100
0001
1000
0001
0000
,
0100
0010
0100
0000
1000
0001
1000
0000
0011
0100
0011
1000
0010
0100
0001
1000
,
0010
0100
2000
0000
3021
0000
0130
0010
,
1001
0100
0010
0001
0100
1000
0100
0010
,
2002
0000
0000
3003
2020
0000
0000
3030
,
0202
0000
0000
0303
0022
0000
0000
0033
,
0110
1000
0100
0001
0002
0000
0000
0000
,
2023
0000
0000
0000
0000
0000
0000
3000
,
0200
0000
0000
0000
,
0000
0000
0000
0000
,
0000
0000
0330
0000
;

//---------------dance-single - ----------------
#NOTES:
     dance-single:
     :
     Medium:
     7:
     0.469,0.590,0.194,0.283,0.036,346.000,24.000,35.000,0.000,0.000:
0000
0000
0000
0000
,
0000
0000
0000
0000
,
0000
0000
0000
0000
,
2000
0000
0000
3100
0000
0000
0000
0000
,
0002
0000
0000
0103
0000
0000
0000
0000
,
0020
0000
0000
0130
0000
0000
0000
0000
,
2000
3001
0002
0013
,
2000
0000
0000
3100
0000
0000
0000
0000
,
0002
0000
0000
0103
0000
0000
0000
0000
,
2000
0000
0000
3010
0000
0000
0000
0000
,
0220
0000
0000
0000
0000
0000
0000
0330
,
1000
0001
0100
0001
,
1000
0100
1000
0001
,
0100
0010
1000
0100
,
0010
0001
0100
0010
,
1000
0100
1000
0000
0100
0000
0010
0000
,
0001
0100
0001
0000
0100
0000
0010
0000
,
1000
0001
0100
0010
,
2000
0000
0000
0001
3001
0000
0110
0000
,
0001
0001
0010
0010
0100
1000
0010
0000
,
1000
1000
0010
0010
0100
0001
0010
0000
,
0100
0100
1000
1000
0001
0100
0001
0000
,
0010
0010
0001
0001
1000
0010
0100
0100
,
0001
0001
0010
0001
1000
0100
0100
0000
,
1000
1000
0010
1000
0001
0100
0100
0010
,
1001
0000
0000
0101
0000
0000
0101
0000
1001
0000
0000
1100
0000
0000
1100
0000
,
1010
0000
0000
0110
0000
0000
0110
0000
1001
0000
0000
0000
2002
0000
3003
0000
,
0001
0000
0100
0000
0001
0000
0100
0000
0010
0000
0000
0010
0000
0000
0000
0000
,
1000
0000
0100
0000
1000
0000
0100
0000
0010
0000
0000
0010
0000
0000
0000
0000
,
1000
0000
0100
0000
0001
0000
0100
0000
1000
0000
0000
0001
0000
0000
1000
0000
,
0010
0101
0010
1100
,
0001
0000
0010
0000
0001
0000
0010
0000
0100
0000
0000
0100
0000
0000
0000
0000
,
1000
0000
0010
0000
1000
0000
0010
0000
0100
0000
0000
0100
0000
0000
0000
0000
,
0001
0000
0010
0000
1000
0000
0010
0000
0001
0000
0000
1000
0000
0000
0001
0000
,
0100
1010
0100
0011
,
0100
1000
0100
1000
0001
0100
0001
0100
,
0010
1000
0010
1000
0001
0010
0001
0010
,
0200
0000
1000
0300
0010
0001
1000
0100
,
0010
0001
0100
0010
1000
0010
0100
0001
,
2000
0000
3001
0100
0001
0000
0101
0000
,
2001
0000
3100
0010
0100
0000
1001
0000
,
0100
0010
0100
0010
1000
0001
1000
0000
,
0100
0010
0100
0010
0001
1000
0001
0000
,
1000
0000
1000
0100
0010
0100
1000
0000
,
0001
0000
0001
0100
0010
0100
0001
0000
,
1000
0100
0010
0100
0001
0100
0010
0100
,
0010
1000
0010
0100
0010
0001
0100
0010
,
1000
0000
1000
0100
1000
0100
1000
0010
,
0100
0000
0001
0100
0001
0100
0001
0010
,
0100
1000
0001
0100
0001
1000
0001
0100
,
1001
0000
0000
0000
,
0100
0100
0020
1030
0100
0100
0020
0031
,
1000
1000
0002
0103
0001
0001
2000
3100
,
0010
0001
1000
0001
0100
0001
0010
0100
,
1000
0010
0100
0010
0001
0010
0100
0001
,
2000
3100
0010
0100
2000
3010
0001
0010
,
0200
0301
0010
0001
2000
3100
0001
0010
,
1000
0100
0010
0001
0001
0010
0100
1000
,
0001
0100
1000
0100
0001
0010
0100
1000
,
0020
0000
0130
0000
1000
0010
0100
0001
,
0020
0000
0130
0000
1000
0001
0100
0010
,
2000
3100
0002
0103
,
2002
0000
0000
3003
0202
0000
0000
0303
,
1100
0010
0100
0001
0020
0000
0000
0000
,
0230
0000
0000
0000
,
2300
0000
0000
0000
,
0000
3000
0000
0000
;

//---------------dance-single - ----------------
#NOTES:
     dance-single:
     :
     Easy:
     3:
     0.256,0.267,0.105,0.130,0.000,192.000,13.000,16.000,0.000,0.000:
0000
0000
0000
0000
,
0000
0000
0000
0000
,
0000
0000
0000
0000
,
1000
1000
0000
0000
,
0001
0001
0000
0000
,
1000
1000
0000
0000
,
0010
0000
0100
0000
,
0001
0010
0000
0000
,
1000
0010
0000
0000
,
0001
0100
0000
0000
,
2002
0000
3003
0000
,
0100
0100
1000
0000
,
0100
0100
0001
0000
,
0010
0001
1000
0000
,
0100
1000
0001
1000
,
0010
0010
0100
0000
,
0001
0001
0010
0000
,
1000
0100
1000
0000
,
0001
0100
0020
0030
,
1001
0000
0100
1000
,
0100
0000
0010
0001
,
0010
0000
0100
1000
,
0001
0000
0010
0001
,
1000
0000
0001
0100
,
0001
0000
1000
0100
,
1000
0000
0010
0000
,
0100
0100
0001
1000
,
2001
0000
3010
0000
,
0002
0000
0013
0000
,
0100
0001
1000
0100
,
0010
0010
0100
0010
,
1002
0000
0013
0000
,
2000
0000
3100
0000
,
0001
0100
0001
1000
,
0100
0100
0010
0001
,
1001
0100
0001
0010
,
0100
1000
0001
1000
,
0100
0110
1000
0001
,
0100
0110
1000
0001
,
0100
0010
0100
0010
,
1000
0100
1000
0001
,
0100
1000
0100
0010
,
0001
0100
0001
0010
,
0100
1100
0001
1000
,
0001
0011
0100
0010
,
1000
0001
0100
0001
,
1000
0100
0010
0100
,
1000
1001
0100
1000
,
0001
1001
0100
0001
,
1000
0010
0100
0001
,
2000
0000
0000
3000
,
0001
0001
1000
1000
,
0100
0100
0010
0010
,
0001
0100
1000
0100
,
0001
1000
0100
0010
,
1000
1000
0001
0001
,
0100
0100
0010
0010
,
1000
0100
0001
0010
,
0100
0010
1000
0001
,
0200
0000
0310
0000
,
2000
0000
3100
0000
,
0002
0000
1003
0000
,
0010
0000
0100
0000
,
2002
0000
3003
0000
,
0220
0000
0300
0000
,
2030
0000
0000
0000
,
3000
0000
0000
0000
;
