#TITLE:sirens;
#SUBTITLE:;
#ARTIST:zebdal;
#TITLETRANSLIT:;
#SUBTITLETRANSLIT:;
#ARTISTTRANSLIT:;
#CREDIT:;
#BANNER:minigamez-bann.gif;
#BACKGROUND:sirens-bg.JPG;
#LYRICSPATH:;
#CDTITLE:;
#MUSIC:ktkm22.mp3;
#OFFSET:0.000;
#SAMPLESTART:100.000;
#SAMPLELENGTH:12.000;
#SELECTABLE:YES;
#BPMS:0.000=168.000;
#STOPS:;
#BGCHANGES:;
// cache tags:
#FIRSTBEAT:0.000;
#LASTBEAT:721.500;
#SONGFILENAME:Songs/toune 3/sirens/ktkm22.sm;
#HASMUSIC:1;
#HASBANNER:1;
#MUSICLENGTH:259.526;
// end cache tags

//---------------dance-single - ----------------
#NOTES:
     dance-single:
     :
     Challenge:
     13:
     1.000,1.000,1.000,0.027,1.000,1912.000,587.000,7.000,0.000,0.000:
0100
0010
0100
0010
0100
0010
0100
0010
,
0100
0000
0010
0000
0100
0000
0010
0000
0100
0000
0010
0000
0100
0000
0010
1000
,
0000
0001
1000
0001
1000
0001
1000
0001
,
1000
0000
0001
0000
1000
0000
0001
0000
1000
0000
0001
0000
1000
0000
0001
0100
,
0000
0010
0100
0010
0100
0010
0100
0010
,
0100
0000
0010
0000
0100
0000
0010
0000
0100
0000
0010
0000
0100
0000
0010
1000
,
0000
0001
1000
0001
1000
0001
1000
0001
,
1000
0000
0001
0000
1000
0000
0001
0000
1000
0000
0001
0000
1000
0000
0001
0100
,
1000
0001
0010
1000
0001
0010
0100
0001
,
0010
0100
0001
0010
1000
0001
0100
0010
,
1000
0001
0010
1000
0001
0010
0100
0001
,
0010
0100
0001
0010
1000
0001
0100
0010
,
1000
0001
0010
1000
0001
0010
0100
0001
,
0010
0100
0001
0010
1000
0001
0100
0010
,
1000
0001
0010
1000
0001
0010
0100
0001
,
0010
0100
0001
0010
1000
0001
0100
0010
,
0001
0010
0100
0010
0100
1000
0001
0010
0100
0010
0001
1000
0100
0010
0001
1000
,
0100
0010
1000
0001
0100
0010
0100
1000
0001
0100
0010
0100
1000
0001
0100
0010
,
0001
0100
0001
0100
0001
0100
0001
0010
1000
0010
1000
0010
1000
0010
0100
0001
,
0010
0100
1000
0100
0010
1000
0100
0001
0100
0010
0100
1000
0100
0010
0001
0010
,
0100
0010
0100
0001
1000
0100
0010
1000
0001
0100
0010
0100
1000
0001
0100
0010
,
0100
1000
0100
0010
0001
1000
0100
0010
0001
0100
0010
0100
1000
0001
0010
0100
,
1000
0001
0010
0100
0010
0100
1000
0100
0010
0001
0100
0010
0100
1000
0100
0010
,
0001
0100
0010
0100
1000
0001
0100
0010
2000
0000
3200
0000
0320
0000
0032
0000
,
1003
0100
0010
0000
0100
0000
0001
0000
0100
0000
0010
0000
1000
0000
0010
0100
,
1000
0100
0010
0000
0100
0000
0001
0000
0010
0000
0100
0000
1000
0000
0010
0001
,
0010
0100
1000
0000
0100
0000
1000
0000
0100
0000
0010
0000
0001
0000
0100
0001
,
0100
0010
1000
0000
0001
0000
0010
0001
0100
1000
0100
0000
0001
0000
0100
1000
,
0010
0001
0010
0000
1000
0000
0001
0000
1000
0000
0010
0000
1000
0000
0010
0001
,
0010
1000
0100
0000
0010
0000
1000
0000
0001
0000
0010
0000
0100
0000
0010
1000
,
0001
0100
0001
0000
0100
0000
1000
0000
0010
0000
0001
0000
0100
0000
1000
0001
,
0010
1000
0100
0000
0001
0000
1000
0100
0001
0010
0100
0000
1000
0000
0010
1000
,
0100
1000
0001
0000
0100
0000
0010
0000
0001
0000
0100
0000
1000
0000
0100
0010
,
0100
0001
1000
0000
0001
0000
0100
0000
0010
0000
0001
0000
1000
0000
0010
0001
,
0010
1000
0001
0000
0100
0000
0001
0000
1000
0000
0010
0000
0001
0000
0100
0010
,
1000
0001
0100
0000
0001
0000
0010
0001
1000
0100
0001
0000
0010
0000
1000
0100
,
0001
0010
0100
0000
1000
0000
0001
0000
0010
0000
0100
0000
1000
0000
0010
0001
,
0100
0001
0010
0000
1000
0000
0100
0000
1000
0000
0001
0000
1000
0000
0100
0001
,
0010
0001
0100
0000
1000
0000
0010
0000
1000
0000
0010
0000
1000
0000
0010
1000
,
0010
1000
0010
0000
0001
0000
0100
1000
0010
0100
1000
0000
0100
0000
0010
0100
,
0011
0000
0110
0000
0110
0000
1100
0000
0011
0000
1100
0011
0000
1100
0011
0000
,
1010
0000
1100
0000
1100
0000
1010
0000
0101
0000
1010
0101
0000
1010
0101
0000
,
0101
0000
0110
0000
0110
0000
0101
0000
1010
0000
0101
1010
0000
0101
1010
0000
,
1100
0000
0011
0000
0011
0000
0110
0000
1001
0000
0110
1001
0000
0110
1001
0000
,
0101
0000
1100
0000
1100
0000
0101
0000
1010
0000
0101
1010
0000
0101
1010
0000
,
0011
0000
1100
0000
1100
0000
1010
0000
0101
0000
1010
0101
0000
1010
0101
0000
,
0110
0000
1001
0000
1001
0000
0110
0000
1001
0000
0110
1001
0000
0110
1001
0000
,
1100
0000
0011
0000
0011
0000
1010
0000
0101
0000
1010
0101
0000
1010
0101
0000
,
0110
1000
0010
0001
0100
1000
0010
0001
0100
1000
0010
0001
0100
1000
0010
0001
,
0110
0001
0010
0001
0010
0001
0010
0001
0100
1000
0100
1000
0100
1000
0100
1000
,
0110
1000
0001
0100
0010
1000
0100
0010
0001
0100
0010
0100
0001
0100
1000
0100
,
0011
0100
0001
0010
0100
0010
0100
0010
0100
0010
0100
0010
1000
0010
0100
1000
,
0101
1000
0100
0010
0001
1000
0001
0010
0100
0001
0010
0100
1000
0001
1000
0001
,
1010
0001
0100
1000
0010
0100
0010
1000
0100
0010
1000
0010
0100
1000
0001
0010
,
0101
0010
1000
0100
0001
0010
0100
1000
0100
0001
0100
1000
0010
0001
0010
1000
,
0101
0010
1000
0001
1000
0100
0001
0010
1000
0100
0010
0001
0100
0001
0010
0100
,
1010
0000
0101
0000
0101
0000
0110
0000
1001
0000
0110
1001
0000
1001
0110
0000
,
0110
0000
0011
0000
0011
0000
1010
0000
0101
0000
1010
0101
0000
0101
1010
0000
,
1100
0000
0011
0000
0011
0000
1100
0000
0011
0000
1100
0011
0000
0011
1100
0000
,
0101
0000
1010
0000
1010
0000
1001
0000
0110
0000
1001
0110
0000
0110
1001
0000
,
1100
0000
0011
0000
0011
0000
1010
0000
0101
0000
1010
0101
0000
0101
1010
0000
,
1010
0000
0101
0000
0101
0000
0110
0000
1001
0000
0110
1001
0000
1001
0110
0000
,
0110
0000
0011
0000
0011
0000
1010
0000
0101
0000
1010
0101
0000
0101
1010
0000
,
1100
0000
0011
0000
0011
0000
1100
0000
0011
0000
1100
0011
0000
0011
1100
0000
,
1000
0001
1000
0001
1000
0001
1000
0001
,
1000
0000
0001
0000
1000
0000
0001
0000
1000
0000
0001
0000
0000
0011
0000
1100
,
0000
0001
1000
0001
1000
0001
1000
0001
,
1000
0000
0001
0000
1000
0000
0001
0000
1000
0000
0001
0000
0000
0011
0000
1100
,
0000
0001
1000
0001
1000
0001
1000
0001
,
1000
0000
0001
0000
1000
0000
0001
0000
1000
0000
0001
0000
0000
0011
0000
1100
,
0000
0001
1000
0001
1000
0001
1000
0001
,
2002
0000
0000
0000
0000
0000
0000
0000
3003
0000
0000
0000
1000
0100
0010
0001
,
1000
0001
0010
1000
0001
0010
0100
0001
,
0010
0100
0001
0010
1000
0001
0100
0010
,
1000
0001
0010
1000
0001
0010
0100
0001
,
0010
0100
0001
0010
1000
0001
0100
0010
,
1000
0001
0010
1000
0001
0010
0100
0001
,
0010
0100
0001
0010
1000
0001
0100
0010
,
1000
0001
0010
1000
0001
0010
0100
0001
,
0010
0100
0001
0010
1000
0001
0100
0010
,
0100
1000
0100
0010
0001
0010
1000
0100
0010
0001
0010
0100
0001
1000
0100
0010
,
0001
0100
0010
0100
0001
0100
0001
0010
0100
0010
1000
0010
0100
1000
0100
1000
,
0010
1000
0001
1000
0100
0010
0100
0001
0100
1000
0100
0010
0001
1000
0100
0010
,
1000
0001
1000
0001
0100
1000
0010
0001
0100
0010
1000
0001
0100
0010
1000
0001
,
0100
0010
0001
0010
0100
0010
1000
0010
1000
0010
1000
0100
0010
1000
0100
1000
,
0001
1000
0010
1000
0100
0001
0100
0001
0010
0100
0010
1000
0010
0100
1000
0100
,
1000
0010
1000
0001
1000
0100
0010
0100
0001
0100
1000
0100
0010
0001
1000
0100
,
0010
1000
0001
1000
0001
0100
0001
0100
0001
0100
0001
0100
0001
0010
1000
0010
,
1000
0010
1000
0010
0100
0001
0010
0100
1000
0100
0010
1000
0100
0001
0100
0010
,
0100
1000
0100
0010
0001
0010
0100
0010
0100
0001
1000
0100
0010
1000
0001
0100
,
0010
0100
1000
0001
0100
0010
0100
1000
0100
0010
0001
1000
0100
0010
0001
0100
,
0010
0100
1000
0001
0010
0100
1000
0001
0010
0100
0010
0100
1000
0100
0010
0001
,
0100
0010
0100
1000
0100
0010
1000
0010
1000
0001
0010
0100
0010
0001
0010
0001
,
1000
0010
1000
0100
1000
0010
0100
0001
0100
0010
0100
1000
0100
0001
0010
0001
,
0010
0100
1000
0001
0100
0010
0100
1000
0010
0001
0100
0001
0010
0100
1000
0001
,
0100
0010
0001
0010
0100
1000
0010
0100
0001
0100
1000
0100
0001
1000
0100
0010
,
1001
0000
0011
0000
0011
0000
0110
0000
1001
0000
0110
1001
0000
0110
1001
0000
,
1010
0000
0101
0000
0101
0000
1100
0000
0011
0000
1100
0011
0000
1100
0011
0000
,
1100
0000
1010
0000
1010
0000
0110
0000
1001
0000
0110
1001
0000
0110
1001
0000
,
1010
0000
1001
0000
1001
0000
1100
0000
0011
0000
1100
0011
0000
1100
0011
0000
,
0011
0000
0110
0000
0110
0000
0101
0000
1010
0000
0101
1010
0000
0101
1010
0000
,
0110
0000
0101
0000
0101
0000
1001
0000
0110
0000
1001
0110
0000
1001
0110
0000
,
1100
0000
0101
0000
0101
0000
1100
0000
0011
0000
1100
0011
0000
1100
0011
0000
,
1001
0000
0101
0000
0101
0000
0101
0000
1010
0000
0101
1010
0000
0101
1010
0000
,
0011
0000
1010
0000
1010
0000
0110
0000
1001
0000
0110
1001
0000
0110
1001
0000
,
1100
0000
1010
0000
1010
0000
0011
0000
1100
0000
0011
1100
0000
0011
1100
0000
,
1001
0000
0110
0000
0110
0000
1010
0000
0101
0000
1010
0101
0000
1010
0101
0000
,
0110
0000
0011
0000
0011
0000
0110
0000
1001
0000
0110
1001
0000
0110
1001
0000
,
0011
0000
0110
0000
0110
0000
1001
0000
0110
0000
1001
0110
0000
1001
0110
0000
,
1100
0000
0011
0000
0011
0000
1100
0000
0011
0000
1100
0011
0000
1100
0011
0000
,
0110
0000
0011
0000
0011
0000
1010
0000
0101
0000
1010
0101
0000
1010
0101
0000
,
0011
0000
1100
0000
1100
0000
1010
0000
0101
0000
1010
0101
0000
1010
0101
0000
,
0110
0000
0101
0000
0101
0000
1100
0000
0011
0000
1100
0011
0000
1100
0011
0000
,
1100
0000
0101
0000
0101
0000
0011
0000
1100
0000
0011
1100
0000
0011
1100
0000
,
1010
0000
1001
0000
1001
0000
0011
0000
1100
0000
0011
1100
0000
0011
1100
0000
,
0110
0000
1100
0000
1100
0000
0110
0000
1001
0000
0110
1001
0000
0110
1001
0000
,
1001
0000
1010
0000
1010
0000
1001
0000
0110
0000
1001
0110
0000
1001
0110
0000
,
0110
0000
1100
0000
1100
0000
0110
0000
1001
0000
0110
1001
0000
0110
1001
0000
,
0101
0000
1010
0000
1010
0000
1001
0000
0110
0000
1001
0110
0000
0101
0000
0110
,
0000
1100
0000
0101
0000
0000
0000
1001
0000
0000
0101
0000
0000
1100
0000
0110
,
0000
1100
0000
1100
0000
1001
0000
0110
0000
1001
0110
0000
1001
0110
0000
0101
,
0000
1001
0000
1001
0000
0101
0000
1010
0000
0101
1010
0000
0101
1010
0000
1010
,
0000
1100
0000
1100
0000
0101
0000
1010
0000
0101
1010
0000
0101
1010
0000
0110
,
0000
1001
0000
1001
0000
1100
0000
0011
0000
1100
0011
0000
1100
0011
0000
1010
,
0000
1001
0000
1001
0000
1010
0000
0101
0000
1010
0101
0000
1010
0101
0000
0110
,
0000
1001
0000
1001
0000
0101
0000
1010
0000
0101
1010
0000
0101
1010
0000
1001
,
0000
0011
0000
0011
0000
1100
0000
0011
0000
1100
0011
0000
1100
0011
0000
1001
,
0000
0110
0000
0110
0000
0101
0000
1010
0000
0101
1010
0000
0101
1010
0000
1100
,
0000
1100
0000
1100
0000
1001
0000
0110
0000
1001
0110
0000
1001
0110
0000
0101
,
0000
1001
0000
1001
0000
0101
0000
1010
0000
0101
1010
0000
0101
1010
0000
0101
,
0000
1100
0000
1100
0000
1010
0000
0101
0000
1010
0101
0000
1010
0101
0000
1001
,
0000
0110
0000
0110
0000
1100
0000
0011
0000
1100
0011
0000
1100
0011
0000
0101
,
0000
1001
0000
1001
0000
1010
0000
0101
0000
1010
0101
0000
1010
0101
0000
0110
,
0000
1001
0000
1001
0000
0101
0000
1010
0000
0101
1010
0000
0101
1010
0000
1001
,
0000
0011
0000
0011
0000
1100
0000
0011
0000
1100
0011
0000
1100
0011
0000
1001
,
0000
0110
0000
0110
0000
0101
0000
1010
0000
0101
1010
0000
0101
1010
0000
0100
,
0010
0001
0000
0010
0000
0010
0000
0001
0000
0010
0000
1000
0000
0001
1000
0100
,
0001
0010
0000
0100
0000
0010
0000
0100
0000
0001
0000
0010
0000
0100
1000
0100
,
1000
0100
0000
0001
0000
0100
0000
0010
0000
1000
0000
0100
0000
0010
0100
0001
,
0010
0100
0000
0100
0000
0001
0010
1000
0100
0001
0000
1000
0000
0100
0001
0010
,
1000
0001
0000
0100
0000
0010
0000
1000
0000
1000
0000
0100
0000
0001
1000
0010
,
0001
0010
0000
0001
0000
0010
0000
0100
0000
1000
0000
0100
0000
0010
1000
0010
,
0100
0010
0000
0001
0000
0100
0000
0001
0000
0010
0000
0001
0000
0100
0010
1000
,
0001
0010
0000
0100
0000
0001
1000
0010
1000
0100
0000
0001
0000
0010
1000
0001
,
0100
0010
0000
0001
0000
0100
0000
0010
0000
0100
0000
1000
0000
0001
0100
0001
,
0010
0100
0000
0010
0000
1000
0000
0010
0000
0100
0000
0010
0000
0100
0001
0100
,
1000
0010
0000
1000
0000
0001
0000
1000
0000
0001
0000
0100
0000
0010
1000
0100
,
1000
0010
0000
0100
0000
1000
0010
0100
0010
0001
0000
0100
0000
1000
0010
0001
,
0100
0010
0000
0001
0000
0010
0000
0001
0000
0010
0000
1000
0000
0010
0100
1000
,
0010
0001
0000
0100
0000
1000
0000
0100
0000
0001
0000
0100
0000
0010
0001
1000
,
0100
0001
0000
1000
0000
0010
0000
0001
0000
1000
0000
0010
0000
1000
0010
1000
,
0001
1000
0000
0010
0000
0100
0010
1000
0001
0100
0000
0010
0000
0001
0100
0001
,
1000
0100
0001
0100
0010
0001
1000
0100
0001
1000
0001
0010
1000
0100
0001
1000
,
0100
0010
0001
0010
0100
1000
0100
1000
0001
1000
0100
1000
0100
0001
1000
0010
,
0100
0001
0010
0100
0001
0010
1000
0001
0010
0100
0010
0001
1000
0001
0100
0010
,
1000
0001
1000
0100
1000
0010
0100
0001
0010
0001
1000
0100
1000
0100
0001
0100
,
0000
0010
0000
0100
0000
0010
0000
0100
0000
0010
0000
0100
0000
0010
0000
0100
,
0000
0010
0000
0100
0000
0010
0000
0100
0000
0010
0000
0100
0000
0010
1000
0000
,
0000
0001
0000
1000
0000
0001
0000
1000
0000
0001
0000
1000
0000
0001
0000
1000
,
0000
0001
0000
1000
0000
0001
0000
1000
0000
0001
0000
1000
0000
0001
0010
0100
,
1000
0010
0000
0100
0000
0001
0000
0010
0000
0001
0000
0010
0000
1000
0100
0010
,
0001
0010
0000
0001
0000
0100
0000
1000
0000
0010
0000
1000
0000
0100
1000
0010
,
0100
0010
0000
0001
0000
0100
0000
0001
0000
0100
0000
0010
0000
0001
0010
1000
,
0100
0010
0000
0100
0000
1000
0001
0100
0010
0100
0000
0010
0000
1000
0010
0100
,
0001
0010
0000
1000
0000
0001
0000
0010
0000
0100
0000
1000
0000
0100
0010
1000
,
0010
0001
0000
0100
0000
0001
0000
0010
0000
0001
0000
1000
0000
0001
0010
0001
,
1000
0100
0000
0010
0000
0001
0000
0100
0000
0010
0000
1000
0000
0100
0001
0100
,
0001
0010
0000
0100
0000
1000
0001
0010
0100
0001
0000
0010
0000
0001
0011
0000
,
0110
0000
0110
0000
1100
0000
0011
0000
1100
0011
0000
1100
0011
0000
1010
0000
,
1100
0000
1100
0000
1010
0000
0101
0000
1010
0101
0000
1010
0101
0000
0101
0000
,
0110
0000
0110
0000
0101
0000
1010
0000
0101
1010
0000
0101
1010
0000
1100
0000
,
0011
0000
0011
0000
0110
0000
1001
0000
0110
1001
0000
0110
1001
0000
0101
0000
,
1100
0000
1100
0000
0101
0000
1010
0000
0101
1010
0000
0101
1010
0000
0011
0000
,
1100
0000
1100
0000
1010
0000
0101
0000
1010
0101
0000
1010
0101
0000
0110
0000
,
1001
0000
1001
0000
0110
0000
1001
0000
0110
1001
0000
0110
1001
0000
1100
0000
,
0011
0000
0011
0000
1010
0000
0101
0000
1010
0101
0000
1010
0101
0000
1000
0100
,
0010
0001
1000
0100
0010
0001
1000
0100
0010
0001
1000
0100
0010
0001
1000
0001
,
1000
0001
1000
0001
1000
0001
0010
0100
0010
0100
0010
0100
0010
0100
0001
0010
,
0100
1000
0001
0010
0100
1000
0001
0010
0100
1000
0001
0010
0100
1000
0001
1000
,
0001
1000
0001
1000
0001
1000
0100
0010
0100
0010
0100
0010
0100
0010
0200
0000
,
0000
0000
0000
0300
0000
0000
0000
0000
;
