#TITLE:Lucky Star BGM;
#SUBTITLE:;
#ARTIST:Black Man;
#TITLETRANSLIT:;
#SUBTITLETRANSLIT:;
#ARTISTTRANSLIT:;
#CREDIT:owenviau1;
#BANNER:BN.PNG;
#BACKGROUND:BG.PNG;
#LYRICSPATH:;
#CDTITLE:../ov1_title.png;
#MUSIC:Lucky Star BGM - BLACK MAN [Extended].mp3;
#OFFSET:-1.871;
#SAMPLESTART:133.468;
#SAMPLELENGTH:29.999;
#SELECTABLE:YES;
#DISPLAYBPM:144.000;
#BPMS:0.000=144.000;
#STOPS:;
#BGCHANGES:;
// cache tags:
#FIRSTBEAT:0.000;
#LASTBEAT:782.000;
#SONGFILENAME:Songs/owenviau1 Simfiles 5/Lucky Star BGM - [owenviau1] v1.3/Lucky Star BGM.sm;
#HASMUSIC:1;
#HASBANNER:1;
#MUSICLENGTH:333.400;
// end cache tags

//---------------dance-single - ----------------
#NOTES:
     dance-single:
     :
     Hard:
     9:
     0.668,0.674,0.174,0.015,0.045,1491.000,58.000,5.000,0.000,1.000:
1000
0001
0100
0001
1000
0100
1000
0010
,
0100
0001
1000
0001
0010
0001
1000
0010
,
0100
0001
0010
0100
1000
0010
1000
0100
,
0010
0001
0100
0010
1000
0001
0010
0100
,
1000
0001
0100
0001
1000
0010
0001
0010
,
0100
1000
0010
0100
0010
0001
0100
0010
,
1000
0001
0010
0100
1000
0010
0100
0001
,
1000
0001
0010
0001
0100
0010
1000
0000
,
1001
0100
0010
1000
0001
0100
0010
1000
,
0100
0010
0001
0100
0010
1000
0100
1000
,
0001
0100
0010
1000
0100
0010
0001
1000
,
0001
0100
0010
1000
0010
0100
0001
0010
,
0100
1000
0010
0100
0001
1000
0001
0010
,
0001
0100
0010
1000
0100
0010
0001
0100
,
0010
1000
0100
1000
0001
0100
0010
1000
,
0001
0000
0100
0000
0010
1000
0001
0000
,
1001
0100
0010
1000
0001
0010
0001
1000
,
0100
0010
0001
1000
0010
0100
0001
0010
,
0100
1000
0010
1000
0100
0010
0001
0100
,
0010
1000
0010
0100
0001
0010
0100
1000
,
0010
0100
0001
1000
0001
0010
0001
0100
,
0010
1000
0100
0010
0001
0100
0001
1000
,
0100
1000
0010
0100
0001
1000
0001
0010
,
0001
0100
0010
1000
0001
1000
0100
0010
,
0101
0001
1000
0100
1000
0001
0010
0100
,
1000
0010
0100
0001
1000
0001
0010
0001
,
1000
0010
0100
0001
0010
0100
1000
0001
,
0100
0010
1000
0100
0010
0001
0100
0010
,
1000
0001
1000
0001
0100
0001
0010
0001
,
1000
0100
1000
0010
0100
0001
1000
0001
,
0010
0001
0100
0010
1000
0001
0010
0100
,
1000
0010
0100
0001
1000
0001
0010
0100
,
2000
0000
0000
0000
,
0000
0000
0000
0000
0000
3001
1000
0001
,
0100
1000
0001
0100
0001
1000
0010
1000
,
0001
0100
0010
1000
0100
1000
0001
0010
,
0001
1000
0100
0010
0001
1000
0010
0100
,
0001
0010
0100
1000
0010
0100
0001
0010
,
0001
1000
0001
0010
0100
1000
0010
0100
,
0001
1000
0001
0010
0001
1000
0010
0100
,
0001
0010
0100
1000
0010
1000
0001
0010
,
0100
1000
0010
0100
0001
1000
0001
0010
,
0001
1000
0010
0100
0001
0010
0100
1000
,
0010
1000
0001
0100
0001
1000
0100
0010
,
0001
1000
0001
0010
0001
0100
0010
1000
,
0100
1000
0010
0100
0001
1000
0100
0010
,
1001
1000
0001
0100
0010
1000
0001
0010
,
0100
1000
0010
0100
0001
1000
0001
0010
,
0001
0100
0010
1000
0100
0010
0001
1000
,
0010
0100
0001
0010
0100
1000
0010
0100
,
0001
1000
0001
0010
0001
0100
0010
1000
,
0100
1000
0001
0100
0010
1000
0100
0010
,
0001
1000
0010
0100
0001
0010
0100
1000
,
0010
0100
0001
1000
0001
0010
0001
1000
,
0110
0001
0010
1000
0001
0010
1000
0100
,
1000
0001
1000
0010
0100
0001
0010
0100
,
1000
0010
0100
0001
1000
0001
0010
0001
,
0100
0010
1000
0100
1000
0001
0100
0010
,
1000
0100
0010
0001
1000
0010
0100
0001
,
0010
0100
1000
0010
0100
0001
1000
0001
,
0010
0001
0100
0010
1000
0001
0010
0100
,
1000
1000
1000
2000
0000
0000
0000
0000
,
0000
0000
0000
3010
,
0100
0000
0001
0010
0100
1000
0100
0010
,
1000
0100
1000
0000
0001
0000
1000
0000
0100
0000
0010
0000
0001
0000
1000
0000
,
0001
0000
0010
0100
1000
0001
0100
0010
,
1000
0001
1000
0000
0100
0000
0010
0000
0001
0000
1000
0000
0001
0000
0100
0000
,
0010
0000
0010
0001
1000
0100
0010
0001
,
1000
0010
1000
0000
0100
0000
0010
0000
0001
0000
1000
0000
0001
0000
0100
0000
,
0001
0000
0010
0100
0001
1000
0100
0010
,
0001
0100
0001
0000
1000
0000
0001
0000
0010
0000
0100
0000
1000
0000
0000
0000
,
1001
1000
0001
0010
0001
1000
0010
0100
,
0001
0010
0100
1000
0010
1000
0001
0010
,
0100
1000
0010
0100
0001
1000
0001
0010
,
0100
1000
0010
0100
0001
0010
0100
1000
,
0101
0010
1000
0100
0010
0001
0100
0001
,
1100
1000
0010
0100
0001
1000
0100
0010
,
0001
1000
0010
0100
0001
1000
0100
0010
,
0001
0100
0001
0000
1000
0000
0010
0000
0100
0000
0001
0000
1000
0000
0000
0000
,
1001
0100
0010
0001
0100
0001
1000
0010
,
0100
0001
0010
0100
1000
0010
0100
0001
,
0010
0100
1000
0001
0100
0010
1000
0100
,
0010
0001
0100
0010
1000
0001
0010
0001
,
1000
0100
1000
0010
0100
0001
0010
0100
,
1000
0001
0100
0010
1000
0001
0010
0001
,
1000
0010
0100
0001
1000
0001
0010
0100
,
1010
0000
0001
0101
0000
0110
0000
1100
,
1001
0001
1000
0010
0100
0001
0010
0100
,
1000
0010
0100
0001
1000
0010
0100
0001
,
0010
0100
1000
0010
1000
0001
0010
0001
,
0100
0010
1000
0001
0100
0010
1000
0100
,
0010
0001
1000
0010
0100
0001
0010
0100
,
1000
0010
0100
0001
1000
0001
0010
0001
,
0100
0010
1000
0100
1000
0001
0100
0010
,
1000
0001
1000
0000
0001
0000
1000
0000
0100
0000
0010
0000
0001
0000
0000
0000
,
1001
0010
0100
0001
0010
0100
1000
0010
,
0100
0001
1000
0001
0100
0010
1000
0100
,
1000
0010
0100
0001
0010
0100
1000
0010
,
0100
0001
1000
0001
0010
0001
0100
0010
,
1000
0100
1000
0001
0100
0010
1000
0100
,
0010
0001
0100
0010
1000
0100
1000
0001
,
0100
0001
1000
0100
0010
0001
0100
0010
,
1000
0100
1000
0010
0100
0001
1000
0100
,
0011
0001
1000
0100
0010
0001
0100
0010
,
1000
0010
0100
0001
0100
0010
1000
0100
,
0010
0001
0100
0010
1000
0001
1000
0100
,
1000
0010
0100
0001
0010
0001
1000
0010
,
0100
0001
0010
0100
1000
0010
1000
0001
,
0100
0010
1000
0100
0010
0001
0100
0001
,
0010
0100
1000
0010
0100
0001
0010
0100
,
1000
0010
0100
0001
0010
0001
1000
0010
,
0101
1000
0001
0100
0010
1000
0100
1000
,
0010
0100
0001
0010
0001
1000
0010
0100
,
0001
0010
0100
1000
0010
0100
0001
0100
,
0010
1000
0010
0100
0001
0010
0100
1000
,
0010
0100
0001
1000
0001
0010
0001
0100
,
0010
1000
0100
0010
0001
0100
0010
1000
,
0001
1000
0100
1000
0010
0100
0001
0010
,
0100
1000
0010
0100
0001
1000
0001
0100
,
0110
0110
0110
0110
0000
0001
0010
1000
,
1100
1100
1100
1100
0000
0001
0100
0010
,
0101
0101
0101
0101
0000
1000
0001
0010
,
0100
0000
1000
0000
0001
0000
1000
0010
1000
0000
0001
0000
0100
0000
0010
0000
,
1001
1001
1001
1001
0000
1000
0010
0100
,
0011
0011
0011
0011
0000
1000
0001
1000
,
1010
1010
1010
1010
0000
0001
0010
0100
,
1000
0000
0001
0000
0010
0000
0001
0000
1000
0000
0000
0010
0000
0000
0100
0000
,
0002
2003
0000
0000
0000
0000
0000
0000
,
3101
0000
0001
0010
0100
1000
0100
0010
,
1000
0100
1000
0000
0001
0000
1000
0000
0100
0000
0010
0000
0001
0000
1000
0000
,
0001
0000
0010
0100
1000
0001
0100
0010
,
1000
0001
1000
0000
0100
0000
0010
0000
0001
0000
1000
0000
0001
0000
0100
0000
,
0010
0000
0010
0001
1000
0100
0010
0001
,
1000
0010
1000
0000
0100
0000
0010
0000
0001
0000
1000
0000
0001
0000
0100
0000
,
0001
0000
0010
0100
0001
1000
0100
0010
,
0001
0100
0001
0000
1000
0000
0001
0000
0010
0000
0100
0000
1000
0000
0000
0000
,
1001
0000
0001
0010
0001
1000
0010
0100
,
0001
1000
0001
0000
0100
0000
1000
0000
0010
0000
1000
0000
0001
0000
0010
0000
,
0100
0000
0010
0100
0001
1000
0001
0010
,
0100
1000
0100
0000
0010
0000
0100
0000
0001
0000
0010
0000
0100
0000
1000
0000
,
0101
0001
1000
0100
0010
0001
0100
0001
,
1100
1000
0010
0100
0001
1000
0100
0010
,
0001
0000
0000
1000
0000
0000
0001
0000
0000
1000
0000
0000
0001
0000
0000
1000
0000
0000
0004
0000
4000
0000
0003
0000
3001
0000
0000
1000
0000
0000
0001
0000
0000
1000
0000
0000
0001
0000
0000
1000
0000
0000
0004
0000
4000
0000
0000
0000
,
0000
0000
0000
0000
,
3113
0000
0000
0000
0000
0000
0000
0000
1000
0100
1000
0000
0001
0000
1000
0000
,
1001
0100
0010
0001
0100
0001
1000
0010
,
0100
0001
0010
0100
1000
0010
0100
0001
,
0010
0100
1000
0001
0100
0010
1000
0100
,
0010
0001
0100
0010
1000
0001
0010
0001
,
1000
0100
1000
0010
0100
0001
0010
0100
,
1000
0001
0100
0010
1000
0001
0010
0001
,
1000
0010
0100
0001
1000
0001
0010
0100
,
0010
0001
0100
0010
1000
0001
0010
0000
,
1001
0001
1000
0010
0100
0001
0010
0100
,
1000
0010
0100
0001
1000
0010
0100
0001
,
0010
0100
1000
0010
1000
0001
0010
0001
,
0100
0010
1000
0001
0100
0010
1000
0100
,
0010
0001
1000
0010
0100
0001
0010
0100
,
1000
0010
0100
0001
1000
0001
0010
0001
,
0100
0010
1000
0100
1000
0001
0100
0010
,
1000
0001
1000
0000
0001
0000
1000
0000
0100
0000
0010
0000
0001
0000
1000
0000
,
1001
0001
1000
0001
0100
0001
1000
0010
,
0100
0001
0010
0100
1000
0010
0100
0001
,
0010
0100
1000
0001
0100
0010
1000
0100
,
0010
0001
0100
0010
1000
0001
0010
0001
,
1000
0100
1000
0010
0100
0001
0010
0100
,
0001
0010
0100
1000
0001
0010
0100
1000
,
0001
0000
0000
1000
0000
0000
0001
0000
0000
1000
0000
0000
0001
0000
0000
1000
0000
0000
0004
0000
4000
0000
0003
0000
3001
0000
0000
1000
0000
0000
0001
0000
0000
1000
0000
0000
0001
0000
0000
1000
0000
0000
0004
0000
4000
0000
0000
0000
,
0000
0000
0000
0000
,
3113
0001
1000
0010
0100
0001
0010
0100
,
1000
0010
0100
0001
1000
0010
0100
0001
,
0010
0100
1000
0010
1000
0001
0010
0001
,
0100
0010
1000
0001
0100
0010
1000
0100
,
0010
0001
1000
0010
0100
0001
0010
0100
,
1000
0010
0100
0001
1000
0001
0010
0001
,
0100
0010
1000
0100
1000
0001
0100
0010
,
1000
0001
0100
1000
0100
0010
0001
1000
,
1001
0100
0010
1000
0001
0010
0001
1000
,
0100
0010
0001
1000
0010
0100
0001
0010
,
0100
1000
0010
1000
0100
0010
0001
0100
,
0010
1000
0010
0100
0001
0010
0100
1000
,
0010
0100
0001
1000
0001
0010
0001
0100
,
0010
1000
0100
0010
0001
0100
0001
1000
,
0100
1000
0010
0100
0001
1000
0001
0010
,
0101
0100
1000
1100
0001
1001
0100
0101
,
1001
0010
1000
0100
1000
0001
0010
0100
,
1000
0010
0100
0001
1000
0001
0010
0001
,
1000
0010
0100
0001
0010
0100
1000
0001
,
0100
0010
1000
0100
0010
0001
0100
0010
,
1000
0001
0010
0100
1000
0001
0010
0001
,
1000
0100
1000
0010
0100
0001
1000
0001
,
0010
0001
0100
0010
1000
0001
0010
0100
,
1000
0010
0100
0001
1000
0001
0010
0100
,
2000
0000
0000
0000
,
0000
0000
0000
0000
,
0000
0000
3000
0000
,
0000
0000
0000
0000
,
0000
0000
0000
0000
,
0000
0000
0000
0000
;

//---------------dance-single - ----------------
#NOTES:
     dance-single:
     :
     Challenge:
     12:
     1.000,1.000,1.000,0.036,0.556,1876.000,582.000,12.000,0.000,4.000:
1001
0000
1000
0010
0100
0000
0001
1000
0010
0000
1000
0001
0100
0000
0010
1000
,
0100
0000
0001
0100
0010
0000
1000
0100
0010
0000
0001
0010
0100
0000
1000
0010
,
0100
0000
0001
0100
0010
0000
1000
0100
1000
0000
0010
0100
0010
0000
0001
0100
,
0001
0000
0010
0001
0010
0000
1000
0001
0100
0000
0100
0001
1000
0000
1000
0010
,
0100
0000
0100
0010
0001
0000
1000
0010
0100
0000
0001
0100
0010
0000
1000
0001
,
0100
0000
1000
0100
0010
0000
0100
0010
0001
0000
0010
0100
1000
0000
0001
0100
,
0010
0000
1000
0001
0010
0000
1000
0001
0100
0000
0010
1000
0001
0000
0100
0001
,
0010
0000
0100
1000
0001
0000
1000
0100
1001
0000
0110
1000
0001
0000
0100
0001
,
1010
0000
0001
0100
0010
0000
1000
0010
0100
0000
0001
0100
0010
0000
1000
0001
,
0100
0000
0010
1000
0001
0000
0100
0010
1000
0000
0001
0100
0010
0000
1000
0010
,
0100
0000
0001
0010
0100
0000
1000
0100
0010
0000
1000
0001
0100
0000
1000
0001
,
0010
0000
1000
0001
0010
0000
0100
0010
0001
0000
1000
0010
0100
0000
0001
0010
,
1001
0000
1000
0010
0100
0000
0001
0100
0010
0000
1000
0001
0100
0000
0010
0001
,
1100
0110
0011
0101
0110
1010
1001
0110
,
1000
0000
0000
0001
0000
0000
0010
0000
0000
0100
0000
0000
1000
0000
0000
0010
0000
0000
1000
0000
0100
0000
0010
0000
0001
0000
0000
0010
0000
0000
0100
0000
0000
1000
0000
0000
0001
0000
0000
0100
0000
0000
0010
0000
1000
0000
0001
0000
,
0010
0000
1000
0100
0010
0000
0001
0010
0100
1000
0010
0100
0001
1000
0010
0000
,
1001
0000
1000
0010
0100
0000
0001
1000
0010
0000
1000
0001
0100
0000
0010
1000
,
0100
0000
0001
0100
0010
0000
1000
0100
0010
0000
0001
0010
0100
0000
1000
0010
,
0100
0000
0001
0100
0010
0000
1000
0100
1000
0000
0010
0100
0010
0000
0001
0100
,
0001
0000
0010
0001
0010
0000
1000
0001
0100
0000
0100
0001
1000
0000
1000
0010
,
0100
0000
0100
0010
0001
0000
1000
0010
0100
0000
0001
0100
0010
0000
1000
0001
,
0100
0000
1000
0100
0010
0000
0100
0010
0001
0000
0010
0100
1000
0000
0001
0100
,
0010
0000
1000
0001
0010
0000
1000
0001
0100
0000
0010
1000
0001
0000
0100
0001
,
0010
0000
0100
1000
0001
0000
1000
0100
1001
0000
0110
1000
0001
0000
0100
0001
,
1010
0000
0001
0100
0010
0000
1000
0010
0100
0000
0001
0100
0010
0000
1000
0001
,
0100
0000
0010
1000
0001
0000
0100
0010
1000
0000
0001
0100
0010
0000
1000
0010
,
0100
0000
0001
0010
0100
0000
1000
0100
0010
0000
1000
0001
0100
0000
1000
0001
,
0010
0000
1000
0001
0010
0000
0100
0010
0001
0000
1000
0010
0100
0000
0001
0010
,
0001
0000
1000
0010
0100
0000
0001
0100
0010
0000
1000
0001
0100
0000
0010
1000
,
0001
0000
0100
0010
0001
0000
1000
0010
0100
0000
0001
0100
0010
0000
1000
0001
,
0100
0000
0010
1000
0001
0000
0100
0010
1000
0000
0001
0100
0010
0000
1000
0010
,
1000
0000
0100
0010
0100
0000
0001
0100
0001
0000
1000
0001
1000
0000
0010
0100
,
2002
0000
0000
0000
,
0000
0000
0000
0000
0000
3113
1001
1100
,
0110
0010
1001
0110
0001
1100
0110
0101
,
1001
0010
0101
0011
0010
1100
1001
0101
,
0011
0110
1001
1100
0110
1001
0100
0011
,
1010
0110
0001
0010
0100
1001
1010
1100
,
0101
0010
1100
0110
0001
1100
0110
0101
,
1001
0010
0101
0011
0010
1100
1001
0101
,
0011
0110
1001
1100
0110
1001
0100
0110
,
1001
1100
0010
0100
0001
1000
0100
0001
,
1001
0110
1001
1001
0100
1010
0001
1100
,
0110
0011
1001
0011
1000
0101
0010
1100
,
0110
0101
1001
0110
1000
0011
0100
1010
,
1001
0100
1000
0001
0100
1010
0110
0101
,
1001
0010
1001
0110
0001
1100
0110
0101
,
1001
0010
0101
0011
0010
1100
1001
0101
,
0011
0110
1001
1100
0110
1001
0100
0011
,
1010
0110
0001
0010
0100
1001
1010
1100
,
0101
0010
1100
0110
0001
1100
0110
0101
,
1001
0010
0101
0011
0010
1100
1001
0101
,
0011
0110
1001
1100
0110
1001
0100
0110
,
1001
1100
0010
0100
0001
1000
0100
0001
,
1100
1000
0011
1000
0110
0010
1001
0010
,
1100
0010
1001
0100
0011
1000
0110
0100
,
1001
0001
0110
1000
0011
0001
1100
0001
,
0110
0001
1100
1000
0011
0010
0101
0010
,
1001
0001
0110
0001
1100
0010
0101
0010
,
1001
1000
0110
0001
1100
1000
0011
1000
,
0101
0010
1001
1000
0110
0001
1100
0001
,
0110
1001
0110
2002
0000
0000
0000
0000
,
0000
0000
0000
3223
,
1331
0100
1100
0110
0011
0101
0110
1010
,
0001
0100
0010
0000
1001
0000
0010
0000
1100
0000
0010
0000
0110
0000
0001
0000
,
1010
0100
0011
0110
1100
1010
1001
0110
,
1000
0001
0100
0000
1010
0000
0100
0000
0011
0000
1000
0000
1001
0000
0100
0000
,
1010
0001
1001
0101
0011
1100
1010
1001
,
0100
0010
1000
0000
0101
0000
1000
0000
1100
0000
0001
0000
0110
0000
1000
0000
,
0011
1000
0101
0110
1100
1010
1001
0110
,
1000
0001
0100
0000
1010
0000
0100
0000
0011
0000
1000
0000
1001
0000
0100
0000
,
0011
1000
1100
0001
0110
1000
1001
0010
,
0101
1000
0011
1000
1100
0001
0110
0001
,
1010
0100
0101
1000
1010
0100
1001
0100
,
0110
0001
1100
0001
0011
0100
0101
1000
,
0011
0100
1010
0001
1100
0010
1001
0100
,
0110
0001
1100
0001
0110
1001
1100
0101
,
1000
0000
0000
0001
0000
0000
0010
0000
0000
0100
0000
0000
1000
0000
0000
0010
0000
0000
1000
0000
0100
0000
0010
0000
0001
0000
0000
0010
0000
0000
0100
0000
0000
1000
0000
0000
0001
0000
0000
0100
0000
0000
0010
0000
1000
0000
0001
0000
,
0010
1000
0001
0000
1010
0000
0110
0000
0101
0000
1001
0000
0110
0000
0000
0000
,
1001
0100
0011
1000
1001
0100
0011
1000
,
1100
0001
0110
1000
1001
0010
0101
1000
,
0011
1000
1100
0001
0110
0001
1010
0100
,
0101
1000
1010
0100
1001
0100
0110
0001
,
1100
0001
0011
0100
0101
1000
0011
0100
,
1010
0001
1100
0010
1001
0100
0110
0001
,
1100
0001
0110
0100
1001
0010
1100
0010
,
0001
1000
0010
0000
0001
0000
1010
0000
0000
0000
1001
0000
0110
0000
0100
0000
,
1001
0010
0110
0001
1010
0001
0110
0001
,
1100
1000
0011
1000
0101
0010
1001
0010
,
1100
0001
0110
1000
0101
0010
1100
0010
,
0101
0100
1010
0100
1001
0001
0110
0001
,
1100
0001
0110
0100
1001
1000
0011
1000
,
0101
0010
1001
1000
0110
0001
1010
0100
,
0011
1000
0101
0100
1010
0100
1001
0001
,
0110
1000
0011
0001
1100
0001
0110
0100
,
1001
0000
1000
0010
0100
0000
0001
1000
0010
0000
1000
0001
0100
0000
0010
1000
,
0100
0000
0001
0100
0010
0000
1000
0100
0010
0000
0001
0010
0100
0000
1000
0010
,
0100
0000
0001
0100
0010
0000
1000
0100
1000
0000
0010
0100
0010
0000
0001
0100
,
0001
0000
0010
0001
0010
0000
1000
0001
0100
0000
0100
0001
1000
0000
1000
0010
,
0100
0000
0100
0010
0001
0000
1000
0010
0100
0000
0001
0100
0010
0000
1000
0001
,
0100
0000
1000
0100
0010
0000
0100
0010
0001
0000
0010
0100
1000
0000
0001
0100
,
0010
0000
1000
0001
0010
0000
1000
0001
0100
0000
0010
1000
0001
0000
0100
0001
,
0010
0000
0100
1000
0001
0000
1000
0100
1001
0000
0110
1000
0001
0000
0100
0001
,
1010
0000
1000
0010
0100
0000
0001
1000
0010
0000
1000
0001
0100
0000
0010
1000
,
0100
0000
0001
0100
0010
0000
1000
0100
0010
0000
0001
0010
0100
0000
1000
0010
,
0100
0000
0001
0100
0010
0000
1000
0100
1000
0000
0010
0100
0010
0000
0001
0100
,
0001
0000
0010
0001
0010
0000
1000
0001
0100
0000
0100
0001
1000
0000
1000
0010
,
0100
0000
0100
0010
0001
0000
1000
0010
0100
0000
0001
0100
0010
0000
1000
0001
,
0100
0000
1000
0100
0010
0000
0100
0010
0001
0000
0010
0100
1000
0000
0001
0100
,
0010
0000
1000
0001
0010
0000
1000
0001
0100
0000
0010
1000
0001
0000
0100
0001
,
0010
0000
1000
0100
0010
0000
0001
0010
0100
0000
1000
0001
0010
0000
0100
0000
,
1001
0100
0011
1000
1001
0100
0011
1000
,
1100
0001
0110
1000
1001
0010
0101
1000
,
0011
1000
1100
0001
0110
0001
1010
0100
,
0101
1000
1010
0100
1001
0100
0110
0001
,
1100
0001
0011
0100
0101
1000
0011
0100
,
1010
0001
1100
0010
1001
0100
0110
0001
,
1100
0001
0110
0100
1001
0010
1100
0010
,
1001
0100
1010
0010
0101
0010
1100
0010
,
1001
0110
1001
0110
0000
1100
0001
0010
,
1100
0011
1100
0011
0000
1001
0100
0010
,
0101
1010
0101
1010
0000
0011
1000
0101
,
1010
0000
0100
0000
0011
0000
1000
0100
0010
0000
0001
0000
1100
0000
0010
0000
,
1001
1100
0110
0011
0000
1001
0010
1000
,
0110
0011
1001
0110
0000
1100
0001
0010
,
0101
1001
1010
0110
0000
1100
0001
0010
,
1001
0100
0011
0100
1010
0001
0110
1000
,
0002
2000
0000
0000
0000
0000
0000
0000
,
3113
0001
1100
0110
0011
0101
0110
1010
,
0001
0100
0010
0000
1001
0000
0010
0000
1100
0000
0010
0000
0110
0000
0001
0000
,
1010
0100
0011
0110
1100
1010
1001
0110
,
1000
0001
0100
0000
1010
0000
0100
0000
0011
0000
1000
0000
1001
0000
0100
0000
,
1010
0001
1001
0101
0011
1100
1010
1001
,
0100
0010
1000
0000
0101
0000
1000
0000
1100
0000
0001
0000
0110
0000
1000
0000
,
0011
1000
0101
0110
1100
1010
1001
0110
,
1000
0001
0100
0000
1010
0000
0100
0000
0011
0000
1000
0000
1001
0000
0100
0000
,
1010
0001
1100
0110
0011
0101
0110
1010
,
0001
0100
0010
0000
1001
0000
0010
0000
1100
0000
0010
0000
0110
0000
0001
0000
,
1010
0100
0011
0110
1100
1010
1001
0110
,
1000
0001
0100
0000
1010
0000
0100
0000
0011
0000
1000
0000
1001
0000
0100
0000
,
1001
0011
0110
1010
1001
0101
0110
1010
,
1001
1100
0110
0011
1001
0101
0011
0110
,
1000
0000
0000
0001
0000
0000
0010
0000
0000
0100
0000
0000
1000
0000
0000
0010
0000
0000
1000
0000
0100
0000
0010
0000
0001
0000
0000
0010
0000
0000
0100
0000
0000
1000
0000
0000
0001
0000
0000
0100
0000
0000
0010
0000
1000
0000
0001
0000
,
0010
0100
1000
0010
1000
0100
0010
0001
0100
0001
0100
0010
1000
0010
1000
0100
0010
0001
0010
0100
1000
0010
1000
0001
,
1010
0000
0100
0000
0010
0000
1000
0000
0001
0010
0100
0000
1001
0000
0011
0000
,
0110
0001
1100
0110
0011
0101
0110
1010
,
0001
0100
0010
0000
1001
0000
0010
0000
1100
0000
0010
0000
0110
0000
0001
0000
,
1010
0100
0011
0110
1100
1010
1001
0110
,
1000
0001
0100
0000
1010
0000
0100
0000
0011
0000
1000
0000
1001
0000
0100
0000
,
1010
0001
1001
0101
0011
1100
1010
1001
,
0100
0010
1000
0000
0101
0000
1000
0000
1100
0000
0001
0000
0110
0000
1000
0000
,
0011
1000
0101
0110
1100
1010
1001
0110
,
1000
0001
0100
0000
1010
0000
0100
0000
0011
0000
1100
0000
1001
0000
0100
0000
,
1010
0001
1100
0110
0011
0101
0110
1010
,
0001
0100
0010
0000
1001
0000
0010
0000
1100
0000
0010
0000
0110
0000
0001
0000
,
1010
0100
0011
0110
1100
1010
1001
0110
,
1000
0001
0100
0000
1010
0000
0100
0000
0011
0000
1000
0000
1001
0000
0100
0000
,
1010
0001
1001
0101
0011
1100
1010
1001
,
0100
0010
1000
0000
0101
0000
1000
0000
1100
0000
0001
0000
0110
0000
1000
0000
,
0011
1000
0101
0110
1100
1010
1001
0110
,
1000
0001
0100
0000
1010
0000
1100
0000
0011
0000
1100
0000
1001
0000
0100
0000
,
1001
0010
1100
0110
0011
0101
0110
1010
,
0001
0100
0010
0000
1001
0000
0010
0000
1100
0000
0010
0000
0110
0000
0001
0000
,
1010
0100
0011
0110
1100
1010
1001
0110
,
1000
0001
0100
0000
1010
0000
0100
0000
0011
0000
1000
0000
1001
0000
0100
0000
,
1010
0001
1001
0101
0011
1100
1010
1001
,
0110
1001
1100
0110
0011
0101
1010
0101
,
1000
0000
0000
0001
0000
0000
0010
0000
0000
0100
0000
0000
1000
0000
0000
0010
0000
0000
1000
0000
0100
0000
0010
0000
0001
0000
0000
0010
0000
0000
0100
0000
0000
1000
0000
0000
0001
0000
0000
0100
0000
0000
0010
0000
1000
0000
0001
0000
,
0010
0100
1000
0010
1000
0100
0010
0001
0100
0001
0100
0010
1000
0010
1000
0100
0010
0001
0010
0100
1000
0010
1000
0001
,
1010
0000
0001
1000
0100
0000
0001
1000
0010
0000
1000
0001
0100
0000
0010
1000
,
0100
0000
0001
0100
0010
0000
1000
0100
0010
0000
0001
0010
0100
0000
1000
0010
,
0100
0000
0001
0100
0010
0000
1000
0100
1000
0000
0010
0100
0010
0000
0001
0100
,
0001
0000
0010
0001
0010
0000
1000
0001
0100
0000
0100
0001
1000
0000
1000
0010
,
0100
0000
0100
0010
0001
0000
1000
0010
0100
0000
0001
0100
0010
0000
1000
0001
,
0100
0000
1000
0100
0010
0000
0100
0010
0001
0000
0010
0100
1000
0000
0001
0100
,
0010
0000
1000
0001
0010
0000
1000
0001
0100
0000
0010
1000
0001
0000
0100
0001
,
0010
0000
0100
1000
0001
0000
1000
0100
1001
0000
0110
1000
0001
0000
0100
0001
,
1010
0000
0001
0100
0010
0000
1000
0010
0100
0000
0001
0100
0010
0000
1000
0001
,
0100
0000
0010
1000
0001
0000
0100
0010
1000
0000
0001
0100
0010
0000
1000
0010
,
0100
0000
0001
0010
0100
0000
1000
0100
0010
0000
1000
0001
0100
0000
1000
0001
,
0010
0000
1000
0001
0010
0000
0100
0010
0001
0000
1000
0010
0100
0000
0001
1000
,
0010
0000
1000
0010
0100
0000
0001
0100
0010
0000
1000
0001
0100
0000
0010
0001
,
1000
0000
0100
0010
0001
0000
0010
0100
1000
0000
0001
0100
0010
0000
1000
0001
,
0100
0000
1000
0001
0010
0000
0100
0010
0001
0000
1000
0001
0100
0000
1000
0001
,
0110
0000
1000
0100
0010
0000
1001
0000
0100
0000
1010
0000
0001
0000
0110
0000
,
1001
0000
0001
1000
0100
0000
0001
1000
0010
0000
1000
0001
0100
0000
0010
1000
,
0100
0000
0001
0100
0010
0000
1000
0100
0010
0000
0001
0010
0100
0000
1000
0010
,
0100
0000
0001
0100
0010
0000
1000
0100
1000
0000
0010
0100
0010
0000
0001
0100
,
0001
0000
0010
0001
0010
0000
1000
0001
0100
0000
0100
0001
1000
0000
1000
0010
,
0100
0000
0100
0010
0001
0000
1000
0010
0100
0000
0001
0100
0010
0000
1000
0001
,
0100
0000
1000
0100
0010
0000
0100
0010
0001
0000
0010
0100
1000
0000
0001
0100
,
0010
0000
1000
0001
0010
0000
1000
0001
0100
0000
0010
1000
0001
0000
0100
0001
,
0220
0000
0000
0000
0330
0000
0000
0000
1000
0100
0010
0001
1000
0000
0100
0000
,
2002
0000
0000
0000
,
0000
0000
0000
0000
,
0000
0000
3003
0000
,
0000
0000
0000
0000
,
0000
0000
0000
0000
,
0000
0000
0000
0000
;
