#TITLE:Valestine Castle;
#SUBTITLE:Ys III (1989);
#ARTIST:Falcom Sound Team JDK;
#TITLETRANSLIT:;
#SUBTITLETRANSLIT:;
#ARTISTTRANSLIT:;
#CREDIT:;
#BANNER:Valestine Castle.png;
#BACKGROUND:Valestine Castle-bg.png;
#LYRICSPATH:;
#CDTITLE:!macTitle.png;
#MUSIC:Valestine Castle.mp3;
#OFFSET:-0.470;
#SAMPLESTART:81.900;
#SAMPLELENGTH:12.000;
#SELECTABLE:YES;
#BPMS:0.000=111.950;
#STOPS:;
#BGCHANGES:;
// cache tags:
#FIRSTBEAT:0.000;
#LASTBEAT:200.000;
#SONGFILENAME:Songs/VGMP 3/Valestine Castle (MacGravel)/Valestine Castle.sm;
#HASMUSIC:1;
#HASBANNER:1;
#MUSICLENGTH:111.960;
// end cache tags

//---------------dance-single - ----------------
#NOTES:
     dance-single:
     :
     Hard:
     11:
     1.000,1.000,1.000,1.000,1.000,643.000,165.000,133.000,0.000,2.000:

1000
0001
1000
0110
0000
0000
0011
0000
1000
0001
1000
0110
0000
0100
0011
0000
,
0001
0000
0011
0000
0010
0000
0011
0000
0100
0000
0011
0100
1000
0100
0011
0000
,
1000
0001
1000
0110
0000
0000
0011
0000
1000
0001
1000
0110
0000
0100
0011
0000
,
0001
0000
0011
0000
0010
0000
0011
0000
0100
0000
0011
0100
1000
0100
0011
0000
,
0100
0000
0011
0000
1000
0100
0010
0001
0000
0000
0101
1000
0010
1000
0100
1000
,
0010
0000
0101
0000
1000
0100
0010
0001
0000
1000
0101
1000
0010
1000
0100
1000
,
0010
0000
0101
0000
1000
0100
0010
0001
0000
0000
0101
1000
0010
1000
0100
1000
,
0010
0000
1100
0001
0000
0100
0001
0100
0010
0000
1001
0000
0100
1000
0010
1000
,
0001
0000
0110
0000
0000
1000
0100
0001
0010
0000
0101
0010
1000
0010
0101
0000
,
0001
0000
1010
0000
0100
1000
0011
0000
1000
0000
0101
1000
0000
1000
0011
0000
,
1000
0000
0101
0000
0000
1000
0100
0010
0001
0000
0110
0000
0000
1000
0100
0001
,
0010
0000
0000
0000
1001
0000
0000
0000
0000
0000
0000
0000
1001
0000
0100
0000
0010
0000
0000
0000
1100
0000
0001
0000
0000
0000
0001
0000
0200
0300
0020
0030
,
0002
0000
0000
0000
1000
0000
0000
0000
0003
0000
0020
0030
0200
0300
0020
0030
2000
0000
0000
0000
0001
0000
3000
0000
0200
0000
0300
0000
0200
0300
0020
0030
,
0002
0000
0000
0000
1000
0000
0000
0000
0003
0000
0020
0030
0200
0300
0020
0030
2000
0000
0000
0000
0001
0000
3000
0000
0200
0000
0300
0000
0200
0300
0020
0030
,
0002
0000
0000
0000
1000
0000
0000
0000
0003
0000
0020
0030
0200
0300
0020
0030
2000
0000
0000
0000
0001
0000
3000
0000
0200
0000
0000
0000
2300
0000
0000
0000
,
3020
0000
0000
0000
0100
0000
0000
0000
0000
0000
0000
0000
0130
0000
0020
0230
0302
0000
0000
0000
0000
0000
0000
0000
0000
0000
2003
3000
0200
0300
0020
0030
,
0002
0000
0000
0000
1000
0000
0000
0000
0003
0000
0020
0030
0200
0300
0020
0030
2000
0000
0000
0000
0001
0000
3000
0000
0200
0000
0300
0000
0200
0300
0020
0030
,
0002
0000
0000
0000
1000
0000
0000
0000
0003
0000
0020
0030
0200
0300
0020
0030
2000
0000
0000
0000
0001
0000
3000
0000
0200
0000
0300
0000
0200
0300
0020
0030
,
0002
0000
0000
0000
1000
0000
0000
0000
0003
0000
0020
0030
0200
0300
0020
0030
2000
0000
0000
0000
0001
0000
3000
0000
0200
0000
0000
0000
2300
0000
0000
0000
,
3200
0000
0010
0000
0000
0000
0010
0010
0320
0001
0001
0100
0000
0001
0001
0100
,
1030
0100
0010
0001
0000
0010
0001
0010
0100
1000
0011
1000
0001
1000
0110
1000
,
0001
1000
0011
1000
0100
1000
0011
1000
0010
0100
1001
0100
0010
1000
0011
1000
,
0100
1000
0011
1000
0001
1000
0110
1000
0010
1000
0110
1000
0010
1000
0011
1000
,
0010
0100
1001
0100
0010
0100
1001
0100
0001
0100
1001
0100
0010
0100
1001
0100
,
1000
0100
0010
0001
0000
0010
0001
0010
0100
1000
0011
1000
0001
1000
0110
1000
,
0001
1000
0011
1000
0100
1000
0011
1000
0010
0100
1001
0100
0010
1000
0011
1000
,
0100
1000
0011
1000
0001
1000
0110
1000
0010
1000
0110
1000
0010
1000
0011
1000
,
0010
0100
1001
0100
0010
0100
1001
0100
0001
0100
1001
0100
0010
0100
1001
0100
,
1000
0000
0000
0000
0110
0000
0000
0000
0000
0000
1000
0000
0100
0000
0010
0000
0001
0000
0000
0000
0110
0000
0000
0000
0000
0000
2000
3000
0200
0300
0020
0030
,
0002
0000
2000
3003
0020
0100
2000
3030
0200
0000
0002
0313
2000
0010
0002
3003
,
0001
0000
1010
0000
0000
0100
0010
0001
0010
0000
1001
0100
0000
0100
0010
0001
,
0100
0000
0000
0000
0011
0000
0000
0000
0000
0000
1000
0000
0100
0000
0010
0000
1000
0000
0000
0000
0101
0000
0000
1000
0101
0000
0101
0000
0101
0000
0000
0000
,
0001
0000
0110
0000
0000
1000
0100
0010
0001
0000
1100
0001
0000
0001
1100
0000
,
0010
0000
0101
0000
0000
1000
0010
0100
0010
0000
1001
0010
1001
1001
1001
1001
,
0011
0011
0011
0011
0000
0011
1001
0011
0000
0011
1001
0011
1100
0000
1100
0000
,
0011
0000
0011
0000
0011
0000
0011
0000
0000
0000
0011
0000
1001
0000
0011
0000
0000
0000
0011
0000
1001
0000
0011
0000
0001
0010
0100
1000
0001
0010
0100
1000
,
0011
0011
0011
0011
0000
0011
1001
0011
0000
0011
1001
0011
1100
0000
1100
0000
,
0011
0011
0011
0011
0000
0011
1001
0011
1001
0011
0000
0011
1100
0000
2100
0000
,
3101
0010
0000
0001
0000
0010
0000
0001
0000
0010
0000
0001
0001
0100
1010
0000
,
0001
0000
0010
0000
1100
0000
0001
0000
0000
0000
0010
0000
1100
0000
0001
0000
0000
0000
0010
0000
1100
0000
0001
0000
0001
0010
0100
1000
0001
0010
0100
1000
,
0002
0023
0230
2300
3002
0023
0230
2300
3002
0023
0230
2300
3002
0023
0230
2300
3002
0023
0230
2300
3002
0023
0230
2300
3002
0023
0230
2300
3002
0023
0230
2300
,
3001
0010
1100
0001
0000
0010
1100
0001
0100
0010
1100
0001
0001
0100
1010
0000
,
0001
0010
1100
0001
0000
0010
1100
0001
0000
0010
1100
0001
0001
0100
1010
0000
,
0001
0000
0010
0000
1100
0000
0001
0000
0000
0000
0010
0000
1100
0000
0001
0000
0000
0000
0010
0000
1100
0000
0001
0000
0001
0010
0100
1000
0001
0010
0100
1000
,
0001
0000
0010
0000
1100
0000
0001
0000
0000
0000
0010
0000
1100
0000
0001
0000
0000
0000
0010
0000
0102
0003
0020
0030
2000
3000
0000
0000
0102
0003
0020
0030
,
2000
3000
0000
0000
0102
0003
0020
0030
2000
3200
0320
0032
2003
3200
0320
0032
0023
0032
0023
0032
0023
0032
0023
0032
0023
0230
2300
3002
0023
0230
2300
3002
,
0013
0001
1000
0110
0000
0000
0011
0000
1000
0001
1000
0110
0000
0100
0011
0000
,
0001
0000
0011
0000
0010
0000
0011
0000
0100
0000
0011
0100
1000
0100
0011
0000
,
1000
0001
1000
0110
0000
0000
0011
0000
1000
0001
1000
0110
0000
0100
0011
0000
,
0001
0000
0011
0000
0010
0000
0011
0000
0100
0000
0011
0100
1000
0100
0011
0000
,
0100
0000
0000
0000
;
