#TITLE:Rain of A Thousand Flames;
#SUBTITLE:;
#ARTIST:Rhapsody;
#TITLETRANSLIT:;
#SUBTITLETRANSLIT:;
#ARTISTTRANSLIT:;
#CREDIT:Arvin;
#BANNER:../bn-Rhapsody.png;
#BACKGROUND:../Rhapsody-bg.png;
#LYRICSPATH:;
#CDTITLE:;
#MUSIC:01 - Rain Of A Thousand Flames.ogg;
#OFFSET:0.889;
#SAMPLESTART:33.253;
#SAMPLELENGTH:12.000;
#SELECTABLE:YES;
#BPMS:0.000=215.000;
#STOPS:;
#BGCHANGES:;
// cache tags:
#FIRSTBEAT:4.000;
#LASTBEAT:784.000;
#SONGFILENAME:Songs/Rhapsody of Fire/Rain of a Thousand Flames - [Arvin]/rainthousand.sm;
#HASMUSIC:1;
#HASBANNER:1;
#MUSICLENGTH:224.000;
// end cache tags

//---------------dance-single - ----------------
#NOTES:
     dance-single:
     :
     Challenge:
     16:
     1.000,1.000,0.491,0.705,1.000,1759.000,110.000,158.000,73.000,3.000:

0000
0000
0000
0000
,
1001
2MM2
0000
3003
,
1010
2M2M
0000
3030
,
0101
2MM2
0000
3003
,
2M10
0000
0000
0000
,
32MM
0000
0000
0000
,
M321
0000
0000
0000
,
0M32
0000
0000
0000
0000
0000
0000
0000
0000
0000
0000
0000
0103
0010
0100
0010
,
1000
0001
0010
0001
1000
0000
0001
0100
0010
1000
0001
0000
0100
0001
1000
0010
,
0100
0000
0000
0000
0101
0000
0000
0000
0001
1000
0100
0010
0001
0000
1000
0100
,
0010
0100
1000
0000
0001
0100
0001
1000
0010
0000
1000
0000
0001
0000
0011
0000
,
0010
0000
0100
0000
1100
0000
1000
0000
0001
0100
0001
0100
0010
0000
1000
0001
,
1000
0001
0010
0000
0001
1000
0100
0010
0001
0000
0000
0000
0011
0000
0000
0000
,
0010
0001
0010
0001
1000
0000
0100
1000
0100
1000
0001
0000
0100
0010
1000
0001
,
1000
0001
1000
1001
0001
0010
0110
0100
,
1100
1000
0001
0101
0100
0010
1010
1000
,
2002
3003
0001
0202
0303
0100
M22M
0000
,
M00M
0000
0000
0000
M00M
0000
0330
0000
0100
0001
1000
0100
1000
0001
0010
0001
,
1000
0100
0010
0001
0100
0000
0001
0000
0100
0000
0010
0000
1000
0001
0100
0010
,
1000
0010
1000
0100
1000
0100
1100
1000
,
0100
0010
0001
0010
0100
1000
1100
0100
,
1000
0000
0010
0000
1000
0000
0001
0000
0100
0000
0001
0000
1000
0001
0010
0001
,
1000
0100
0010
0001
0100
0000
0001
0000
0100
0000
0010
0000
1000
0001
0100
0010
,
1000
0001
0010
0000
0100
0000
1000
0000
0100
0000
0010
0000
0011
0000
0000
0000
,
M001
1001
100M
1010
,
0040
0000
0000
0000
2030
0000
0000
0000
0000
0000
0000
0000
3001
1000
0100
1000
,
0001
0010
0100
1000
0010
0000
1000
0000
0010
0000
0100
0000
0001
1000
0010
0100
,
0001
1000
0001
0000
1000
0000
0010
0000
1000
0000
0010
0000
1010
0000
1000
0000
,
0010
0100
0001
0100
0010
1000
1010
0010
,
1000
0000
0100
0000
1000
0000
0001
0000
0010
0000
0001
0000
1000
0001
0100
0001
,
1000
0010
0100
0001
0010
0000
0001
0000
0010
0000
0100
0000
1000
0001
0010
0100
,
1000
0001
0100
0000
0010
0000
1000
0000
0010
0000
0100
0000
0101
0000
0000
0000
,
M001
1001
0M01
0101
,
0400
0000
0302
0000
0000
0000
1003
0100
,
1100
1000
0001
0100
0110
0010
1000
0001
,
1001
1000
0100
0010
0011
0001
2000
0000
,
0000
0000
3200
0000
0000
0000
0000
0000
0320
0000
0000
0000
0031
1000
0001
0000
,
0000
0000
0010
0100
001M
0000
0000
0000
0002
0000
2003
0000
3010
0000
0100
0000
,
0110
0010
1000
0001
1001
1000
0100
0010
,
0110
0100
1000
0001
1001
1000
0020
0000
,
0000
0000
0230
0000
0000
0000
0000
0000
0320
0000
0000
0000
1030
0001
1000
0000
,
0000
0000
0010
0100
M010
0000
0000
0000
1000
0100
0010
0001
0100
0001
0100
0001
,
0100
0001
0100
0001
1000
0010
1000
0010
1000
0010
1000
0010
0100
0001
0100
0001
,
0100
0001
0100
0001
1000
0100
1000
0100
1000
0100
1000
0100
0010
0001
1000
0001
,
1000
0010
0100
0010
1000
0001
0010
0001
0100
0010
1000
0000
2020
0000
0000
0000
,
0M0M
0000
0000
0000
0000
0000
0000
0000
0000
0000
0000
0000
0000
0000
0000
0000
0000
0000
0000
0000
0000
0000
0000
0000
0000
0000
0000
0000
0000
0000
0000
0000
0000
0000
0000
0000
0000
0000
0000
0000
0000
0000
0000
0000
0030
0000
0000
0000
0020
0000
0000
0000
0000
0000
0000
0000
0000
0000
0000
0000
0000
0000
0000
0000
0000
0000
0000
0000
0000
0000
0000
0000
0000
0000
0000
0000
0000
0000
0000
0000
0000
0000
0000
0000
0000
0000
0000
0000
0000
0000
0000
0000
3000
0000
0000
0000
2000
0000
0000
0000
0000
0000
0000
0000
0000
0000
0000
0000
0000
0000
0000
0000
0000
0000
0000
0000
0000
0000
0000
0000
0000
0000
0000
0000
0000
0000
0000
0000
0000
0000
0000
0000
0000
0000
0000
0000
0000
0000
3030
0000
0000
0000
0000
0000
2002
0000
0000
0000
0000
0000
0000
0000
0000
0000
0000
0000
0000
0000
0000
0000
0000
0000
0000
0000
0000
0000
0000
0000
0000
0000
0000
0000
0000
0000
0000
0000
0000
0000
0000
0000
0000
0000
0000
0000
0000
0000
0000
0000
0000
0000
0000
0000
,
0MM0
0000
0000
0000
0000
0000
0000
0003
0002
0000
0000
0000
0000
0000
0000
3000
2000
0000
0000
0000
0000
0000
0000
3003
2200
0000
0000
0000
0000
0000
0000
0000
,
0000
0000
0000
0000
0000
0000
0000
0300
02M0
0000
0000
0000
0000
0000
0000
0000
0000
0000
0000
0000
0000
0000
0000
3300
0220
0000
0000
0000
0000
0000
0000
0000
,
0000
0000
0000
0000
0000
0000
0000
0030
0020
0000
0000
0000
0000
0000
0000
0000
0000
0000
0000
0000
0000
0000
0000
0330
0022
0000
0000
0000
0000
0000
0000
0000
,
0000
0000
0000
0000
0000
0000
0000
0003
0002
0000
0000
0000
0000
0000
0000
0030
2000
0000
0000
0000
0000
0000
0000
3003
2020
0000
0000
0000
0000
0000
0000
0000
,
0000
0000
0000
0000
0000
0000
0000
0000
0000
0000
0000
0000
0000
0000
0000
0000
0000
0000
0000
0000
0000
0000
0000
3030
2MM2
0000
0000
0000
0000
0000
0000
0000
,
0000
0000
0000
0000
0000
0000
0000
3000
2000
0000
0000
0000
0000
0000
0000
0003
0200
0000
0000
0000
0000
0000
0000
3300
21MM
0000
0000
0000
0000
0000
0000
0000
,
0000
0000
0000
0000
0000
0000
3001
0100
0010
1000
0001
1000
0001
0010
0100
1000
,
0001
0010
0001
1000
0010
0100
0010
1000
0001
0010
0100
1000
0001
0010
0100
0010
,
0001
1000
0001
0100
0010
1000
0100
0010
0001
0010
0100
1000
0001
1000
0100
0010
,
0100
0010
0001
1000
0001
0010
0100
1000
0001
0010
0001
1000
0010
1000
0001
0100
,
0010
0100
0001
1000
0100
0010
0001
1000
0001
0010
0100
1000
0010
0100
0001
1000
,
0100
1000
0001
0010
0100
1000
0001
1000
0001
0100
0001
1000
0010
0100
0010
1000
,
0100
0010
0001
0100
0010
1000
0100
0010
0001
1000
0001
1000
0001
0100
0010
0100
,
0001
1000
0100
0010
0001
0010
0100
1000
0001
0100
0001
1000
0001
0010
0100
1000
,
0001
0000
0000
0010
0000
0000
0001
0000
0000
1000
0000
0000
0100
0000
0000
0010
0000
0000
0001
0000
0000
1000
0000
0000
0001
0000
0000
1000
0000
0000
0001
0000
0000
1000
0000
0000
0001
0000
0000
0000
0010
0000
0000
0000
0001
0000
0000
0000
,
0010
0100
1000
0010
0100
0010
1000
0100
0010
0001
1000
0001
,
1000
0010
0100
0010
1000
0100
0010
0001
1000
0001
0010
0001
,
0010
0100
1000
0010
0100
0001
0010
0100
1000
0001
0100
0001
,
1000
0010
1000
2M2M
0000
3030
0020
0000
0000
1030
0100
1000
,
0100
0010
0001
0100
0010
0100
0001
0010
0100
1000
0001
1000
,
0001
0100
0010
0100
0001
0010
0100
1000
0001
1000
0100
1000
,
0100
0010
0001
0100
0010
1000
0100
0010
0001
1000
0010
1000
,
0001
0000
0000
0000
0100
0000
0000
0000
0001
0000
0000
0000
2000
0000
0000
0000
0000
0000
3001
0000
0000
0100
0000
0000
0010
0000
0000
0100
0000
0000
0001
0000
0000
1000
0000
0000
0001
0000
0000
1000
0000
0000
0010
0000
0000
1000
0000
0000
,
0001
0100
0010
1000
0100
0000
1000
0000
0100
0000
0010
0000
0001
1000
0100
0010
,
0001
1000
0010
0000
1000
0000
0100
0000
1000
0000
0100
0000
1100
0000
1000
0000
,
0100
0010
0001
0010
0100
1000
1100
0100
,
1000
0000
0010
0000
1000
0000
0001
0000
0100
0000
0001
0000
1000
0001
0010
0001
,
1000
0100
0010
0001
0100
0000
0001
0000
0100
0000
0010
0000
1000
0001
0100
0010
,
1000
0001
0010
0000
0100
0000
1000
0000
0100
0000
0010
0000
0001
0000
0000
0000
,
100M
1001
10M0
0010
,
4000
0000
0000
0000
3002
0000
0000
0000
0000
0000
0000
0000
1003
0001
0100
0001
,
1000
0010
0100
0001
0010
0000
0001
0000
0010
0000
0100
0000
1000
0001
0010
0100
,
1000
0001
0100
0000
0001
0000
0010
0000
0001
0000
0010
0000
0011
0000
0001
0000
,
0010
0100
1000
0100
0010
0001
0011
0010
,
0001
0000
0100
0000
0001
0000
1000
0000
0010
0000
1000
0000
0001
1000
0100
1000
,
0001
0010
0100
1000
0010
0000
1000
0000
0010
0000
0100
0000
0001
1000
0010
0100
,
0001
1000
0100
0000
0010
0000
0001
0000
0010
0000
0100
0000
1100
0000
0000
0000
,
100M
1001
1M00
1100
,
0400
0000
2300
0000
0000
0000
3001
0010
,
0011
0001
1000
0010
0110
0100
0001
1000
,
1001
0001
0010
0100
1100
1000
0002
0000
,
0000
0000
0023
0000
0000
0000
0000
0000
0230
0000
0000
0000
1300
0001
1000
0000
,
0000
0000
0100
0010
M100
0000
0000
0000
2000
0000
3002
0000
0103
0000
0010
0000
,
0110
0100
0001
1000
1001
0001
0010
0100
,
0110
0010
0001
1000
1001
0001
0200
0000
,
0000
0000
0320
0000
0000
0000
0000
0000
0230
0000
0000
0000
0301
1000
0001
0000
,
0000
0000
0100
0010
010M
0000
0000
0000
0001
0010
0100
1000
0010
1000
0010
1000
,
0010
1000
0010
1000
0001
0100
0001
0100
0001
0100
0001
0100
0010
1000
0010
1000
,
0010
1000
0010
1000
0001
0010
0001
0010
0001
0010
0001
0010
0100
1000
0001
1000
,
0001
0100
0010
0100
0001
1000
0100
1000
0010
0100
0001
0000
0202
0000
0000
0000
,
M0M0
0000
0000
0000
0000
0000
0000
0000
0000
0000
0000
0000
0000
0000
0000
0000
0000
0000
0000
0000
0000
0000
0000
0000
0000
0000
0000
0000
0000
0000
0000
0000
0000
0000
0000
0000
0000
0000
0000
0000
0000
0000
0000
0000
0300
0000
0000
0000
0200
0000
0000
0000
0000
0000
0000
0000
0000
0000
0000
0000
0000
0000
0000
0000
0000
0000
0000
0000
0000
0000
0000
0000
0000
0000
0000
0000
0000
0000
0000
0000
0000
0000
0000
0000
0000
0000
0000
0000
0000
0000
0000
0000
0003
0000
0000
0000
0002
0000
0000
0000
0000
0000
0000
0000
0000
0000
0000
0000
0000
0000
0000
0000
0000
0000
0000
0000
0000
0000
0000
0000
0000
0000
0000
0000
0000
0000
0000
0000
0000
0000
0000
0000
0000
0000
0000
0000
0000
0000
0303
0000
0000
0000
0000
0000
2002
0000
0000
0000
0000
0000
0000
0000
0000
0000
0000
0000
0000
0000
0000
0000
0000
0000
0000
0000
0000
0000
0000
0000
0000
0000
0000
0000
0000
0000
0000
0000
0000
0000
0000
0000
0000
0000
0000
0000
0000
0000
0000
0000
0000
0000
0000
0000
,
0MM0
0000
0000
0000
0000
0000
0000
3000
2000
0000
0000
0000
0000
0000
0000
0003
0002
0000
0000
0000
0000
0000
0000
3003
0022
0000
0000
0000
0000
0000
0000
0000
,
0000
0000
0000
0000
0000
0000
0000
0030
0M20
0000
0000
0000
0000
0000
0000
0000
0000
0000
0000
0000
0000
0000
0000
0033
0220
0000
0000
0000
0000
0000
0000
0000
,
0000
0000
0000
0000
0000
0000
0000
0300
0200
0000
0000
0000
0000
0000
0000
0000
0000
0000
0000
0000
0000
0000
0000
0330
2200
0000
0000
0000
0000
0000
0000
0000
,
0000
0000
0000
0000
0000
0000
0000
3000
2000
0000
0000
0000
0000
0000
0000
0300
0002
0000
0000
0000
0000
0000
0000
3003
0202
0000
0000
0000
0000
0000
0000
0000
,
0000
0000
0000
0000
0000
0000
0000
0000
0000
0000
0000
0000
0000
0000
0000
0000
0000
0000
0000
0000
0000
0000
0000
0303
2MM2
0000
0000
0000
0000
0000
0000
0000
,
0000
0000
0000
0000
0000
0000
0000
0003
0002
0000
0000
0000
0000
0000
0000
3000
0020
0000
0000
0000
0000
0000
0000
0033
MM21
0000
0000
0000
0000
0000
0000
0000
,
0000
0000
0000
0000
0000
0000
0000
0000
0031
1000
0010
1000
0001
0100
0010
1000
,
0001
0100
0001
1000
0100
0010
0100
1000
0001
0100
0010
1000
0001
0100
0010
0100
,
0001
1000
0001
0010
0100
1000
0010
0100
0001
0100
0010
1000
0001
1000
0010
0100
,
0010
0100
0001
1000
0001
0100
0010
1000
0001
0100
0001
1000
0100
1000
0001
0010
,
0100
0010
0001
1000
0010
0100
0001
1000
0001
0100
0010
1000
0100
0010
0001
1000
,
0010
1000
0001
0100
0010
1000
0001
1000
0001
0010
0001
1000
0100
0010
0100
1000
,
0010
0100
0001
0010
0100
1000
0010
0100
0001
1000
0001
1000
0001
0010
0100
0010
,
0001
1000
0010
0100
0001
0100
0010
1000
0001
0010
0001
1000
0001
0100
0010
1000
,
0001
0100
0001
1000
0010
0100
0001
1000
0001
1000
0001
1000
0001
0000
0000
0000
,
0001
0100
0002
0000
2003
0000
3100
0000
,
0110
0010
0011
0001
,
1000
0001
1000
0000
0100
0000
0010
0010
,
0001
1000
0001
0100
0001
0010
0001
0010
,
0100
2000
0000
0000
3002
0000
0203
0000
,
0000
0320
0000
0000
2030
0000
3200
0000
,
0000
0320
0000
0000
0032
0000
1003
1000
,
0100
0000
1000
0000
0001
0000
1000
0000
0010
0000
1000
0001
1000
0000
0100
0000
,
0010
0000
0001
0000
1000
0001
1000
0010
1000
0010
0100
0001
0100
0010
1000
0100
,
0010
0001
1000
0001
0010
0100
1000
0010
0100
0001
0010
0100
1000
0001
1000
0001
,
0100
0001
1000
0010
1000
0001
0100
0001
0010
0100
1000
0010
1000
0010
0100
0001
,
0100
0001
1000
0100
0010
0001
0010
0001
1000
0010
0100
0001
0100
0010
1000
0001
,
1000
0100
0010
0001
0010
0100
1000
0001
1000
0010
0100
0010
1000
0001
0010
0001
,
0100
0010
1000
0100
1000
0100
0010
0001
0010
0001
1000
0010
0100
0001
0100
0001
,
1000
0100
0010
0001
0010
0100
1000
0001
1000
0010
0100
0001
0100
0010
1000
0001
,
1000
0100
0010
0100
1000
0001
0100
0001
0010
0100
1000
0010
1000
0010
0100
0001
,
0100
0001
1000
0100
0010
0001
0010
0001
1000
0100
0010
0001
2000
0000
0000
0000
,
0000
0000
0000
3002
,
0000
0000
0000
0000
0000
0000
0000
0000
0000
1003
0100
1000
,
0010
1000
0001
0100
0001
1000
0010
1000
0001
0010
0001
0100
,
0010
1000
0100
0010
0001
1000
0001
0010
0100
1000
0100
1000
,
0100
1000
0001
1000
0010
1000
0100
1000
0010
1000
0001
1000
,
0001
0010
0001
0100
0001
1000
0001
0100
0001
0020
0000
0000
,
0000
0000
0000
0230
0000
0000
0000
0000
0000
0000
0000
0000
2300
0000
0000
0000
0000
0000
3001
0000
0010
0000
0100
0000
,
1000
0100
0010
0001
1000
0010
1000
0001
0100
0010
1000
0100
,
0010
0000
0000
0000
0001
0000
0000
0000
1000
0000
0000
0000
0001
0000
0000
0000
0010
0000
0000
0000
0100
0000
0000
0000
1000
0000
0000
0000
0001
0000
0000
0000
1000
0000
0000
0000
0001
0000
0000
0010
0000
0000
0100
0000
0000
0000
0000
0000
,
1000
0010
0100
0000
0001
0000
0010
0000
0100
0000
0010
0000
0001
0100
0010
0000
,
1000
0000
0000
0010
0000
0000
0100
0000
0000
0000
0000
0000
0001
0000
0000
0000
0000
0000
1000
0000
0000
0100
0000
0000
1000
0000
0000
0000
0000
0000
0001
0000
0000
0000
0000
0000
1000
0000
0000
0000
0100
0000
0000
0000
1000
0000
0000
0000
,
0010
0100
0001
0010
0100
1000
0001
0010
0100
1000
0001
1000
,
0001
0000
0100
0000
0001
0000
0100
0000
0010
0000
1000
0000
0001
0000
0100
0000
0001
0000
1000
0000
0000
0100
0000
0000
,
0010
0001
0010
0100
1000
0001
0010
0100
,
1000
0001
0100
0010
1000
0100
0110
0010
,
0001
1001
0000
2000
0000
3001
0010
0100
,
1000
1010
0000
0010
0200
0000
0301
1000
,
0001
0101
0000
0200
0000
0310
1000
0100
,
0010
0011
0000
0001
2000
0000
3011
0010
,
0001
1001
0000
2000
0000
3001
0010
0100
,
1000
1010
0000
0010
0200
0000
0301
1000
,
0001
0101
0000
0200
0000
0310
1000
0100
,
0010
0000
0011
0000
0000
0000
0001
0000
2000
0000
0000
0000
3001
0010
0001
0100
,
0010
0100
0001
1000
0001
0010
0100
1000
0100
0010
0001
1000
0001
0100
0010
1000
,
0100
0010
0001
1000
0010
1000
0001
0010
0100
1000
0001
0010
0001
0100
0010
1000
,
0100
0010
0001
1000
0010
1000
0010
0100
0020
0000
0000
0000
1030
0010
1000
0100
,
0010
0001
1000
0010
0100
0010
1000
0000
0200
0000
0000
0000
1300
0100
0010
0001
,
1000
0001
0010
0100
0010
0001
0010
0001
0200
0000
0000
0000
0301
0010
0001
1000
,
0001
0100
0010
0100
0001
0010
0100
0000
2000
0000
3001
0010
0100
1000
0001
1000
,
0010
1000
0010
0100
0001
0100
0010
1000
0100
0010
0001
1000
0001
0010
0100
1000
,
0010
0100
0001
1000
0100
0010
0001
1000
0001
0010
0100
1000
0001
0010
0001
0100
,
0001
1000
0010
1000
0100
1000
0010
1000
0010
0100
0010
0100
0010
1000
0010
0100
,
0010
1000
0100
0010
0100
0010
0100
1000
0100
0010
0100
1000
0002
0000
0000
0000
,
1003
1010
0000
0001
0011
0010
0100
1000
,
1001
0000
0001
0011
0000
1000
0202
0000
,
0000
0000
0000
0000
0000
0000
0000
0303
,
2020
0000
0000
0000
0000
0000
0000
0000
0000
0000
0000
0000
0000
0000
0000
0000
0000
0000
0000
0000
0000
0000
0000
0000
0000
0000
0000
0000
0000
0000
0000
0000
0000
0000
0000
0000
0000
0000
0000
0000
0000
0000
0000
0000
0000
0000
0000
0000
0M0M
0000
0000
0000
0000
0000
0000
0000
0000
0000
0000
0000
0000
0000
0000
0000
0000
0000
0000
0000
0000
0000
0000
0000
0000
0000
0000
0000
0000
0000
0000
0000
0000
0000
0000
0000
0000
0000
0000
0000
0000
0000
0000
0000
0030
0000
0000
0000
0020
0000
0000
0000
0000
0000
0000
0000
0000
0000
0000
0000
0000
0000
0000
0000
0000
0000
0000
0000
0000
0000
0000
0000
0000
0000
0000
0000
0000
0000
0000
0000
0000
0000
0000
0000
0000
0000
0000
0000
0000
0000
0000
0000
3000
0000
0000
0000
2000
0000
0000
0000
0000
0000
0000
0000
0000
0000
0000
0000
0000
0000
0000
0000
0000
0000
0000
0000
0000
0000
0000
0000
0000
0000
0000
0000
0000
0000
0000
0000
0000
0000
0000
0000
0000
0000
0000
0000
0000
0000
3030
0000
0000
0000
0000
0000
,
2002
0000
0000
0000
0000
0000
0000
0000
0MM0
0000
0000
0000
0000
0000
0000
0003
0002
0000
0000
0000
0000
0000
0000
3000
2000
0000
0000
0000
0000
0000
0000
3003
,
2200
0000
0000
0000
0000
0000
0000
0000
0000
0000
0000
0000
0000
0000
0000
0300
02M0
0000
0000
0000
0000
0000
0000
0000
0000
0000
0000
0000
0000
0000
0000
3300
,
0220
0000
0000
0000
0000
0000
0000
0000
0000
0000
0000
0000
0000
0000
0000
0030
0020
0000
0000
0000
0000
0000
0000
0000
0000
0000
0000
0000
0000
0000
0000
0330
,
0022
0000
0000
0000
0000
0000
0000
0000
0000
0000
0000
0000
0000
0000
0000
0003
0002
0000
0000
0000
0000
0000
0000
0030
2000
0000
0000
0000
0000
0000
0000
3003
,
2020
0000
0000
0000
0000
0000
0000
0000
0000
0000
0000
0000
0000
0000
0000
0000
0000
0000
0000
0000
0000
0000
0000
0000
0000
0000
0000
0000
0000
0000
0000
3030
,
2MM2
0000
0000
0000
0000
0000
0000
0000
0000
0000
0000
0000
0000
0000
0000
3000
2000
0000
0000
0000
0000
0000
0000
0003
0200
0000
0000
0000
0000
0000
0000
3300
,
12MM
0000
0000
0000
0000
0000
0000
0000
0310
0001
1000
0100
0010
0001
1000
0001
,
1000
0100
0010
0001
1000
0100
1000
0001
0100
0010
0100
0001
1000
0100
0010
0001
,
1000
0100
0010
0100
1000
0001
1000
0010
0100
0001
0010
0100
1000
0100
0010
0001
,
1000
0001
0010
0100
0010
0100
1000
0001
1000
0100
0010
0001
1000
0100
1000
0001
,
0100
0001
1000
0010
0100
0010
1000
0001
0010
0100
1000
0001
1000
0100
0010
0001
,
0100
0010
1000
0001
0010
0001
1000
0100
0010
0001
1000
0001
1000
0010
1000
0001
,
0100
0010
0100
0001
0010
0100
1000
0010
0100
0001
0010
0100
1000
0001
1000
0001
,
1000
0010
0100
0010
1000
0001
0010
0100
1000
0100
0010
0001
1000
0010
1000
0001
,
1000
0100
0010
0001
1000
0100
1000
0001
0010
0100
1000
0001
1000
0001
1000
0001
,
1000
0100
1000
0100
0010
0001
0100
0010
0100
0001
0010
0100
,
1000
0001
1000
0001
0100
0010
0100
0001
0010
0100
1000
0001
,
1000
0100
1000
0100
0010
0001
0100
0010
1000
0100
0010
0001
,
1000
0000
0010
0000
1000
0000
0001
0000
0100
0000
0001
0000
M2M2
0000
0000
0303
0000
0000
0200
0000
0000
0000
0000
0000
,
0301
0010
0001
0010
0100
1000
0010
0100
0010
1000
0100
0010
,
0001
1000
0001
1000
0010
0100
0010
1000
0100
0010
0001
1000
,
0001
0010
0001
0010
0100
1000
0010
0100
0001
0010
0100
1000
,
0001
0000
0100
0000
0001
0000
1000
0000
0010
0000
1000
0000
0004
0000
0000
M000
0000
0000
0000
0000
0000
0M00
0000
0000
,
1003
2MM2
0000
3003
,
0101
M2M2
0000
0303
,
1010
2MM2
0000
3003
,
01M2
0000
0000
0000
,
MM23
0000
0000
0000
,
123M
0000
0000
0000
,
23M0
0000
0000
3000
,
1001
0000
0000
0000
;
