#TITLE:The Legend of Maxx 300 Unlimited.(period);
#SUBTITLE:;
#ARTIST:SpinSir;
#TITLETRANSLIT:;
#SUBTITLETRANSLIT:;
#ARTISTTRANSLIT:;
#CREDIT:;
#BANNER:banner.bmp;
#BACKGROUND:DDR background.bmp;
#LYRICSPATH:;
#CDTITLE:./CDTITLES/DANCE DANCE REVOLUTION 2ND MIX.PNG;
#MUSIC:the legend of  maxX 300 unlimited. (period).mp3;
#OFFSET:-7.236;
#SAMPLESTART:82.875;
#SAMPLELENGTH:12.000;
#SELECTABLE:YES;
#DISPLAYBPM:300.000;
#BPMS:0.000=100.000,6.000=300.000,88.500=299.980,89.000=279.980,116.000=300.000,148.000=200.000,149.000=190.000,150.000=180.000,196.000=299.999,264.500=332.999;
#STOPS:;
#BGCHANGES:6.000=Spark1.avi=1.000=0=0=1,
37.000=Spikes1.avi=1.000=0=0=1,
49.333=Spikes1.avi=1.000=0=0=1,
49.500=Spikes2.avi=1.000=0=0=1,
81.000=Spikes3.avi=1.000=0=0=1,
89.000=Spiral3.avi=1.000=0=0=1,
116.000=Spikes3.avi=1.000=0=0=1,
150.000=Thunder1.avi=0.500=0=0=1,
196.000=Spikes3.avi=1.000=0=0=1,
255.500=History1.avi=1.000=0=0=1,
264.500=Symbols1.avi=1.000=0=0=1,
291.500=Text13.avi=1.000=0=0=1,
328.500=DDR3.avi=1.000=0=0=1,
338.000=DDR2.avi=1.000=0=0=1,
354.000=DDR1.avi=1.000=0=0=1,
360.000=Cyber1.avi=0.000=0=0=1,
368.000=Gradius1.avi=1.000=0=0=1,
373.500=Geometry1.avi=1.000=0=0=1,
390.500=Spikes3.avi=2.000=0=0=1,
437.000=AM 3p-BG.bmp=1.000=0=0=1,
682.000=DDR background.bmp=1.000=0=0=1,
99999=-nosongbg-=1.000=0=0=0 // don't automatically add -songbackground-
;
// cache tags:
#FIRSTBEAT:0.000;
#LASTBEAT:682.000;
#SONGFILENAME:Songs/newbie/legend of max original/AM-3P.sm;
#HASMUSIC:1;
#HASBANNER:1;
#MUSICLENGTH:119.173;
// end cache tags

//---------------dance-single - ----------------
#NOTES:
     dance-single:
     :
     Easy:
     6:
     0.440,1.000,0.487,0.168,0.000,289.000,58.000,20.000,0.000,0.000:
0000
0000
0000
0000
,
0000
0000
0001
0100
,
0010
1000
0000
0001
,
0100
0010
1000
0000
,
0001
0000
0010
1000
,
0000
0001
0100
0010
,
1000
0000
0001
0100
,
0010
1000
0000
0001
,
0100
1010
0000
0000
,
0000
1001
1001
0001
,
1000
1001
1001
1001
,
1001
1001
1001
1001
,
1001
1001
1000
0010
,
1000
0010
1000
0010
,
1000
1010
0001
1000
,
0001
0100
0001
0010
,
0000
0100
0010
1000
,
0000
1000
0100
0010
,
0001
0100
0000
1000
,
0010
0001
0010
1100
,
0010
0000
1010
0000
,
1010
0000
0001
0101
,
2000
0000
0000
3020
,
0000
0200
0030
0000
,
0002
0300
0000
0203
,
0000
0000
0000
0000
,
0320
0000
0000
0000
,
0000
2030
0000
0000
,
0000
3002
0000
0003
,
1000
0100
1000
0001
,
0010
1000
0001
0010
,
0100
0001
0010
0100
,
0001
0010
0100
1000
,
0001
0100
1000
0001
,
0100
1000
0100
0001
,
0100
0100
0100
0100
,
0100
0100
0100
0100
,
0100
0000
0100
0000
0001
0010
0100
1000
,
0000
0001
0000
0010
0000
0100
0000
0000
,
0001
0200
1300
0001
,
0100
1000
0001
0000
,
0010
0000
0100
0000
,
0000
0000
0010
0000
,
0010
0000
0010
0000
,
0000
0000
0100
0000
,
1000
0000
0100
0000
,
0001
0000
0010
0000
,
0100
0000
1000
0000
,
0001
0000
0100
0000
,
1000
0002
1003
0001
,
1000
0001
1000
0001
,
1000
0001
0100
0001
,
0100
0001
0010
0001
,
0100
0001
0100
0010
,
0100
0010
1000
0100
,
1000
0000
0000
0000
,
0001
0010
0001
0100
,
0001
1000
0001
0100
,
0001
0010
0001
0000
,
0001
0010
0001
0000
1000
0000
0100
0000
,
0001
0010
2000
3000
,
0100
0000
0010
0000
,
0001
0000
0010
0000
,
0100
0000
0000
0000
,
1001
0101
0000
0110
,
1010
0000
0000
1010
,
0110
0000
0001
0010
,
0001
0100
0001
1000
,
0001
0100
0001
0010
,
0001
0010
0001
0100
,
0001
0100
0001
0100
,
0001
0100
0001
0100
,
1000
0001
0010
0200
,
0000
0000
0000
0300
,
0001
0010
0100
1000
,
0001
0100
1000
0201
,
0302
0203
0302
0003
,
0000
0000
0000
0000
,
0000
0000
0000
0000
,
0001
0010
0001
0010
0001
0010
0001
0010
,
0000
0000
0000
0000
,
0000
0000
0000
0000
,
0220
0000
0000
0000
,
0000
0000
0000
0000
,
0000
0330
1001
1001
,
0000
1001
0000
0000
1001
0000
1001
0000
,
0000
0000
0000
0000
,
0000
0000
0000
0000
,
0000
0000
0000
0011
0000
1010
0000
0000
,
0011
0000
0000
1010
0000
0011
0001
0000
,
0000
0000
0000
0000
,
0000
0000
0000
2000
,
0000
0001
0000
0000
0001
0000
0000
0000
,
3000
1000
0000
1001
,
0000
1001
0000
0000
0000
0000
0000
1001
,
0000
0000
1001
0000
0000
0000
0000
1001
,
0000
0000
1001
0000
0000
1001
0000
0000
,
1001
0000
1001
0000
0000
0000
0000
0010
,
0000
0000
0010
1000
,
0010
1000
0010
1000
,
0001
2000
0000
0000
,
0000
0000
0000
0000
0000
0000
0000
3000
,
0000
1000
1000
0000
,
0000
0000
0000
0000
,
0011
0000
0011
0000
0000
0011
0000
0000
,
0011
0000
0000
0011
0000
0000
0011
0000
,
0000
0101
0101
0101
,
0101
0000
0000
0101
0101
0000
0000
0000
,
0011
0011
0001
0000
,
0000
0000
0000
0000
,
0000
0000
0000
0000
,
0000
0000
0000
0000
,
0000
0000
0000
0000
,
0000
0000
0000
0000
,
0000
0000
0000
0000
,
0000
0000
0000
0000
,
0000
0000
0000
0000
,
0000
0000
0000
0000
,
0000
0000
0000
0000
,
0000
0000
0000
0000
,
0000
0000
0000
0000
,
0000
0000
0000
0000
,
0000
0000
0000
0000
,
0000
0000
0000
0000
,
0000
0000
0000
0000
,
0000
0000
0000
0000
,
0000
0000
0000
0000
,
0000
0000
0000
0000
,
0000
0000
0000
0000
,
0000
0000
0000
0000
,
0000
0000
0000
0000
,
0000
0000
0000
0000
,
0000
0000
0000
0000
,
0000
0000
0000
0000
,
0000
0000
0000
0000
,
0000
0000
0000
0000
,
0000
0000
0000
0000
,
0000
0000
0000
0000
,
0000
0000
0000
0000
,
0000
0000
0000
0000
,
0000
0000
0000
0000
,
0000
0000
0000
0000
,
0000
0000
0000
0000
,
0000
0000
0000
0000
,
0000
0000
0000
0000
,
0000
0000
0000
0000
,
0000
0000
0000
0000
,
0000
0000
0000
0000
,
0000
0000
0000
0000
,
0000
0000
0000
0000
,
0000
0000
0000
0000
,
0000
0000
0000
0000
,
0000
0000
0000
0000
,
0000
0000
0000
0000
,
0000
0000
0000
0000
,
0000
0000
0000
0000
,
0000
0000
0000
0000
,
0000
0000
0000
0000
,
0000
0000
0000
0000
,
0000
0000
0000
0000
,
0000
0000
0000
0000
,
0000
0000
0000
0000
,
0000
0000
0000
0000
,
0000
0000
0000
0000
,
0000
0000
0000
0000
,
0000
0000
0000
0000
,
0000
0000
0000
0000
,
0000
0000
0000
0000
,
0000
0000
0000
0000
,
0000
0000
0000
0000
,
0000
0000
1000
0000
;

//---------------dance-single - Why do you need?----------------
#NOTES:
     dance-single:
     Why do you need?:
     Hard:
     10:
     0.762,0.801,0.252,0.260,0.042,575.000,30.000,31.000,0.000,0.000:
0000
0000
0000
0000
,
0000
0000
0001
0100
,
0010
1000
0000
0010
1000
0000
0100
0000
,
0010
0001
0000
0010
0001
0000
0100
0000
,
0010
1000
0000
0010
1000
0000
1000
0000
,
1000
0000
0100
1000
,
0001
0010
0000
0001
0010
0000
1000
0000
,
0001
0100
0000
0001
0100
0000
1000
0000
,
0001
0010
0000
0001
0010
0000
0010
0000
,
0010
0000
0000
1001
0000
0110
0000
1100
,
0000
0011
0000
0110
0000
1100
0000
0101
,
0000
1010
0000
1001
0000
0110
0000
1100
,
0000
1010
0000
0000
0010
0000
0010
0000
,
0010
0000
0010
0000
0001
0010
0001
0010
,
0001
0010
0001
0100
1000
0100
1000
0100
,
1000
0100
1000
0000
0000
1001
0000
0000
,
1000
0001
0010
0100
1000
0001
0100
0010
,
0001
0010
0001
1000
,
0001
0100
0010
0000
,
0000
0000
0000
0000
,
0000
0000
0100
0001
0100
0000
1000
0010
,
1000
0000
0001
0010
0001
0000
1000
0010
,
1000
0000
2000
0001
3000
0002
0100
0003
,
0200
0010
0300
0020
1000
0000
1000
0000
,
1000
0000
0030
0000
0002
1000
0003
2000
,
0010
3000
0020
0100
0030
0200
0001
0000
,
0001
0000
0301
0000
0020
0001
0030
0002
,
0100
0003
0200
0010
0300
0020
2000
0030
,
0001
3001
0000
0000
,
0100
1000
0100
0000
0100
1000
0100
0000
,
1000
0010
1000
0000
1000
0010
1000
0000
,
0001
0100
0001
0000
0001
0100
0001
0000
,
1000
0010
1000
0000
1000
0010
1000
0000
,
0100
0010
0100
0000
0010
0100
0010
0000
,
0010
1000
0010
0000
0001
0100
0001
0000
,
0100
1000
0100
0000
1000
0010
1000
0000
,
0010
0001
0010
0000
0001
0100
0001
0000
,
0000
0000
0000
0000
0000
0000
1000
0100
,
0001
0010
1000
1000
0010
0001
0100
1000
,
0010
0001
0100
0010
1000
0010
0100
0001
,
0010
0100
0001
1000
0001
0100
0010
0001
,
0010
1000
0100
0001
0010
1000
0100
0001
,
0010
0100
1000
0010
0100
0001
1000
0010
,
0100
0001
0010
0001
0100
1000
0010
0001
,
0100
0001
1000
0100
0001
0100
1000
0001
,
0010
0100
0001
1000
0001
0100
1000
0100
,
0001
0010
1000
0010
0001
0100
1000
0100
,
0001
1000
0100
0000
2002
0000
0000
0000
,
0000
0000
0000
0000
,
3003
0000
0002
1000
0003
0000
2000
0001
,
3000
0020
0100
0030
0000
0000
0010
0100
,
0010
0100
0010
0100
0010
0100
0001
0000
,
0010
0000
0100
0000
0001
0010
0001
0010
,
0001
0010
0001
0010
1000
0000
0100
0000
,
0001
0000
0010
0000
1000
0100
1000
0100
,
1000
0100
1000
0100
0010
0000
0001
0000
,
0010
0000
0010
0100
0010
0100
0010
0100
,
0010
0100
0010
0100
0010
0000
0001
0000
,
1000
0000
0001
0010
0001
0010
0001
0100
,
0001
0100
0001
1000
0001
1000
0001
0000
,
1000
0100
1000
0100
1000
0100
0010
0100
,
0010
0100
0010
0100
0000
0000
0000
0000
,
0001
0010
0001
0100
1000
0100
0010
1000
,
0100
0001
0010
0000
0100
0001
1000
0000
,
1100
0000
1001
0000
0000
0000
0010
0001
,
0000
0101
0000
0000
0101
0000
0001
0010
,
0000
1010
0000
0000
1000
0000
0100
0000
,
0010
0000
0001
0010
0001
0000
0010
0000
,
0100
0000
1000
0000
0100
0010
0100
0010
,
0100
0000
0001
1000
0000
0001
1000
0000
,
0001
1000
0000
0001
1000
0000
0001
0000
,
0010
0000
0100
1000
0100
0000
0001
0000
,
1000
0000
0010
0000
0100
0000
1000
0010
,
1000
0100
0010
1000
0010
0001
0000
0000
,
0020
0130
2000
3001
,
1000
0000
0100
0000
0001
0000
0100
1000
,
0100
0001
1010
0110
,
0000
0000
0000
0000
0010
0001
0010
0000
,
0100
0000
0100
0001
0100
0000
0010
0000
,
0010
0100
0010
0000
0000
0000
1000
0010
,
1000
0000
0010
0100
0010
0000
0010
0100
,
0010
1000
0001
0010
0100
0000
1000
0000
,
0200
0000
0010
0000
0000
0010
0000
0000
0010
0000
0000
0010
,
0000
0000
0010
0000
0000
0010
0000
0000
0010
0000
0000
0010
,
0300
0000
0000
1000
0010
0000
0011
0000
,
0000
0110
0000
0001
1000
0000
0022
0033
,
0000
0000
0001
1000
0001
0000
0001
0010
,
0000
0100
0000
0100
1000
0100
0001
0010
,
0001
0100
0000
0010
0001
0000
1001
0000
,
0000
0101
0000
1000
0001
0000
0011
0000
,
0001
0000
0000
2002
,
0000
0000
0000
3003
,
1000
0010
0001
0100
0002
0000
0000
0000
,
0003
0000
0001
1000
0010
1000
0001
0000
,
0001
0010
0100
0010
1000
0001
0020
0000
,
0100
0000
0130
0000
0000
1000
0001
1000
,
0001
1000
0001
0000
0000
0110
0000
0000
,
0001
1000
0001
1000
0001
1000
0001
0010
,
0100
1000
0001
1000
0001
1000
0000
0000
,
0001
1000
0001
0100
0010
0100
0010
0100
,
0010
0000
0000
0000
0001
1000
0010
1000
,
0001
0000
0100
1000
0100
0000
0002
0100
,
0003
0100
1000
0000
0010
0001
0010
0000
,
1000
0010
1000
0000
0010
0001
0010
0000
,
0010
1000
0010
0000
0001
0010
1000
0001
,
0100
0001
1000
0010
0100
0001
1000
0001
,
0100
1000
0001
0100
1000
0001
0100
0001
,
0100
0001
0100
0001
0100
1000
0100
1000
,
0100
0000
0000
1000
0000
0000
0002
0000
0000
0000
0000
0000
0000
0000
0000
0000
0000
0000
1000
0000
0000
0000
1000
0000
,
0003
1000
0000
2002
0000
0000
0000
0000
0000
0000
0000
0000
,
0000
0000
0000
0000
,
0000
0000
0000
0000
,
0000
3003
0000
0000
;

//---------------dance-single - Copied from----------------
#NOTES:
     dance-single:
     Copied from:
     Medium:
     9:
     0.598,0.825,0.403,0.252,0.000,421.000,48.000,30.000,0.000,0.000:
0000
0000
0000
0000
,
0000
0000
0001
0010
,
0001
0010
0001
0100
,
0001
0100
0001
1000
,
0001
1000
0001
0010
,
0100
0000
0000
0000
0000
0000
0001
0010
,
0000
0010
0100
0000
0100
0000
1000
0000
,
0100
0010
0001
0010
,
0100
0000
0001
0000
0010
0001
0000
0001
,
0010
0000
0000
0011
0000
0011
0000
0011
,
0000
0011
0000
0011
0000
0011
0000
0011
,
0000
0011
0000
0011
0000
0011
0000
0011
,
0000
0011
0000
0010
0001
0010
0001
0010
,
0001
0000
0000
1000
0100
1000
0000
0001
,
0010
0001
0000
0100
0010
0100
0000
0000
,
0002
0013
0100
2002
,
3003
0010
0000
0100
,
1000
0001
0010
0100
,
0001
0010
0001
0100
,
0001
1000
0001
0100
,
0000
0000
0001
0010
0001
0000
0100
1000
,
0100
0000
0000
0000
,
0000
0000
2000
0000
3000
0002
0000
0003
,
0200
0000
0300
0020
0000
0000
0000
0000
,
0000
0000
0030
0000
0002
0000
0003
2000
,
0000
3000
0020
0000
0030
0200
0000
0000
,
0000
0000
0300
0000
0020
0000
0030
0002
,
0000
0003
0200
0000
0320
0000
2000
0000
,
0030
3001
0000
0000
,
0001
0010
0100
0010
,
0001
0010
0100
1000
,
0010
0001
0100
1000
,
0002
0013
0001
0010
,
0001
0100
0001
0100
,
0010
0100
1000
0100
,
0010
0100
0010
1000
,
0010
0100
0001
0010
,
0001
0010
0001
0100
,
0001
0000
0202
0000
,
0303
0000
0001
0010
0001
0010
0001
0010
,
0001
0010
0001
0010
0000
0100
1000
0100
,
1000
0100
0010
0100
0010
0100
0010
0001
,
0010
0001
0010
0000
0000
0000
0000
0000
,
0000
0011
0000
1100
0000
0011
0000
0110
,
0000
1100
0000
0110
0000
0011
0000
0000
,
0011
0110
1100
0110
,
0011
0000
1100
0000
0011
0000
0000
2002
,
0000
0000
0000
0000
,
0000
0000
0000
0000
,
3003
0000
0001
0010
0001
0010
0001
0010
,
0001
0010
0001
0000
0000
0000
0001
0000
,
1000
0001
1000
0001
,
0100
0001
0100
0001
,
0010
0001
0010
0000
,
0001
0020
0130
0001
,
0020
0130
0001
0020
,
0130
0001
0020
0130
,
0000
0000
0000
0000
0001
0010
0001
0000
,
0100
1000
0100
0000
0010
0100
0010
0000
,
0010
0001
0010
0000
0000
0000
0001
0000
,
0010
0100
0001
0020
,
0130
0001
0010
0100
,
0001
0010
0100
1100
,
0000
0110
0001
1000
,
1100
0000
1001
0000
0000
0000
0000
0001
,
0000
0101
0000
0000
0101
0000
0000
0110
,
0000
1010
0000
0000
1000
0000
0100
0000
,
0010
0000
0001
0010
0001
0000
0010
0000
,
0100
0000
1000
0000
0100
0010
0100
0010
,
0100
0001
0100
0001
,
0100
0001
1000
0001
,
0010
0000
0100
1000
0100
0000
0010
0000
,
0001
0000
0010
0000
0100
0000
1000
0100
,
1000
0100
0010
0001
0010
0001
0000
0000
,
0010
0100
1000
0001
,
0010
0010
0010
0010
,
0100
1000
0100
0100
,
0010
0010
0010
0010
,
0100
0100
0100
0010
,
0010
0010
0100
1000
,
0100
0010
0001
0010
,
1000
0000
0001
0010
0100
0000
1000
0000
,
0000
0220
0000
0000
0000
0000
0000
0000
,
0000
0000
0000
0000
,
0330
0000
1010
0011
,
0000
0110
0000
0000
1001
0000
1010
0000
,
0000
1000
0000
0001
0000
1000
0000
0100
,
0000
0010
0000
0001
0000
0010
0000
0100
,
0000
1000
0000
0000
0011
0000
1001
0000
,
0000
0101
0000
0000
1001
0000
0011
0000
,
0001
0000
0000
1000
0000
0000
0000
0001
,
0000
0000
0000
0000
,
1000
0010
1000
0000
,
0000
0001
0100
0001
,
0000
1000
0010
0010
,
1000
0010
0100
0001
,
0100
0010
1000
0010
,
0100
0001
0100
0010
,
1000
0010
0001
0001
,
1000
0001
0100
1000
,
0100
1000
0001
1000
,
0010
0001
0001
0100
,
0000
0100
0100
0000
,
0010
0000
0100
0000
0001
0000
1000
0100
,
0001
0010
0200
1300
0001
0010
0100
1000
,
0001
0010
1000
0001
0010
0100
1000
0001
,
0010
1000
0002
0103
0001
0010
0001
0010
,
0100
0001
0100
1000
0001
0100
0001
0010
,
1000
0001
1000
0100
0001
0010
1000
0100
,
0001
0100
1000
0000
0000
0000
0000
0000
;

//---------------dance-single - ----------------
#NOTES:
     dance-single:
     :
     Challenge:
     10:
     0.990,1.000,0.243,0.352,0.222,755.000,29.000,42.000,0.000,0.000:
0010
0100
0010
0100
0010
0100
0010
0100
0010
0100
0010
0100
0010
0100
0010
0100
,
0010
0100
0010
0100
0010
0100
0010
0000
0001
0000
0000
0000
0100
0000
0000
0000
,
0010
1000
0000
0010
1000
0000
0100
0000
,
0010
0001
0000
0010
0001
0000
0100
0000
,
0010
1000
0000
0010
1000
0000
1000
0000
,
1000
0000
0100
1000
,
0001
0010
0000
0001
0010
0000
1000
0000
,
0001
0100
0000
0001
0100
0000
1000
0000
,
0001
0010
0000
0001
0010
0000
0010
0000
,
0010
0000
0000
0000
0001
0000
0000
0000
0000
0010
0000
0000
0000
0000
0100
1000
,
0000
0000
0000
1000
0100
0000
0000
0000
0100
0010
0000
0000
0000
0010
0000
0000
,
0000
0000
0100
1000
0100
0010
0001
1000
,
0001
0100
0001
0020
2030
3020
0032
0203
,
1300
0010
0001
0110
1000
0100
0001
0100
,
1000
0100
0011
0000
0000
1000
0100
0001
,
0100
1000
0100
0001
0010
1000
0010
0001
,
0010
1000
0010
0001
0010
1000
0100
0001
,
0010
1000
0100
0001
0101
0010
0001
0010
,
0100
0001
0010
0100
1002
0203
0300
1002
,
0003
0100
0010
1000
0001
0010
0100
1000
,
0100
0001
0010
1000
0001
0100
0010
0001
,
0100
0010
0001
0200
0301
1000
0001
0100
,
0001
0010
2001
0000
3000
1002
0000
0003
,
0210
0000
0300
0021
0000
0000
1000
0000
,
1000
0000
0030
0000
1002
0000
0003
2010
,
0000
3000
0021
0000
0030
1200
0000
0000
,
0001
0000
0301
0000
1020
0000
0030
1002
,
0000
0003
1200
0000
0300
0021
0000
2030
,
0001
0001
0001
0001
0001
0001
0001
0001
,
3001
1000
0100
0001
0100
1000
0100
0001
,
0010
2000
3010
0001
0010
0100
1000
0100
,
0010
0001
1000
0001
1000
0001
0100
0001
,
0100
0001
0010
0001
0010
0010
0002
0013
,
0100
0001
0010
0100
0001
0010
0100
1000
,
0001
0100
0010
1000
0001
0100
0010
0001
,
1000
0001
0010
0001
0010
0001
0100
0001
,
0100
0002
0103
0001
1000
0001
1000
0001
,
0000
0000
0000
0000
0000
0000
0000
0000
0000
0000
0010
0000
0000
0000
0000
0000
0000
0000
0000
0000
0000
0000
0000
0000
0000
0000
0000
0000
0000
0000
0000
0000
0000
0000
0000
0000
0001
0000
0000
0010
0000
0000
0000
0000
0000
0000
0000
0000
,
0010
0001
0000
0000
0001
0010
0000
0000
0010
0100
0000
0000
0100
0010
0000
0000
,
0010
1000
0000
0000
1000
0010
0000
0000
0000
0000
0000
0000
0001
0010
0100
0000
,
0000
0000
0000
0000
1000
0100
0001
0000
0000
0000
0000
0000
0001
0100
1000
0100
,
0000
0000
0001
0010
1000
0001
0100
0001
,
1000
0010
0100
1000
0010
0001
0010
0100
,
0010
1000
0001
0100
0000
0010
1000
0100
,
0001
0100
1000
0100
0010
0001
0010
0001
,
0100
0001
0100
0001
0100
0001
1000
0001
,
1000
0001
1000
0001
0100
0001
0100
0001
,
0010
0200
1300
0001
0100
0020
1030
0001
,
0010
0100
0010
0002
0013
0100
1000
0010
,
0001
0010
0100
0010
0001
0010
0100
0010
,
0001
0010
0100
0010
0001
0010
0100
0010
,
0001
0010
0100
0010
0001
0010
0100
0010
,
0001
0000
0001
1000
0100
0000
0001
0100
,
1000
0000
0100
0010
0001
0000
0100
1000
,
0100
0000
0001
0010
0001
0000
0200
1300
,
0100
0000
0001
0010
0001
1000
0010
1000
,
0000
0001
0010
0001
0000
1000
0010
1000
,
0000
0001
0010
0001
0000
0010
0100
0010
,
0100
0010
0100
2000
3100
0001
0010
0100
,
0001
0010
0001
0100
0001
1000
0001
0100
,
0001
0110
0000
0000
0002
0013
0100
1000
,
0100
0001
0100
1000
0010
0001
0010
0100
,
0010
1000
0100
1000
0100
0010
0100
0010
,
0001
0010
0001
0010
0100
1000
0100
0010
,
0100
1000
0010
1000
0010
0001
0010
0100
,
0010
0100
1000
0100
1000
0100
0010
0001
,
0010
0100
1000
0100
0010
0001
0010
0100
,
0010
0100
0002
0010
0000
0013
0000
0000
,
2000
0100
0000
0100
3020
0001
0000
0001
,
0030
0100
0000
0100
2000
0000
0000
0100
,
0000
3100
0020
0000
0030
0001
0000
0001
,
0020
0000
0000
0130
0000
0100
0000
0000
,
0001
0100
1000
0010
0100
0001
0010
0100
,
1000
0010
0001
0020
0130
1000
0001
0100
,
0010
0000
0020
0030
1000
0100
0001
0010
,
1000
0100
0000
0001
0010
0000
1000
0100
,
0000
0000
0001
0000
0010
0000
0100
0100
,
0010
0001
0010
1000
0001
0100
0010
0001
,
0010
0100
0001
1000
0100
0010
0001
1000
,
0100
0010
0001
0010
0001
0100
0001
0100
,
0001
1000
0001
1000
0001
1000
0010
1000
,
0010
1000
0100
1000
0100
1000
0010
1000
,
0010
1000
0001
1000
0001
1000
0010
1000
,
0010
0100
0010
0001
0100
1000
0010
0000
,
0000
0000
0000
0000
,
0000
0000
0000
0000
0000
0000
0001
0010
,
0100
0001
1000
0001
0100
0001
0010
0001
,
0100
1000
0001
0100
0001
0010
1000
0001
,
0010
0100
0001
0010
0001
0010
0001
0010
,
0001
0010
0001
0010
0001
0010
0100
0010
,
0100
0010
0100
0010
0100
0010
0100
1000
,
0100
1000
0100
1000
0000
0010
0000
0001
,
0000
0001
0010
0001
0100
1000
0001
0010
,
0100
1000
0002
0013
0200
0301
0100
1001
,
0100
1000
0001
0100
1000
0100
0001
0010
,
0100
1000
0001
0010
0100
1000
0001
0010
,
0100
1000
0100
0010
0001
0001
0010
0100
,
0010
0001
0010
0100
0010
0001
0010
1000
,
0100
0010
1000
0000
1010
0000
1010
0000
,
1010
0000
1010
0000
0001
0010
0002
0013
,
0001
0010
0001
0010
0001
0010
0001
0010
,
0000
0011
0000
0000
0001
0010
0000
0001
,
0010
0000
0001
0010
0000
0001
0010
0000
,
0001
0010
0001
0010
0001
0010
0001
0010
,
0001
0010
0000
1001
0000
0000
1001
0000
,
1001
1001
1001
1000
,
0100
1000
0100
1000
0100
1000
0100
1000
0100
1000
0100
1000
0100
1000
0100
1000
,
0100
1000
0100
1000
0100
1000
0100
1000
0100
1000
0100
1000
0100
1000
0100
1000
,
0100
1000
0100
1000
0100
1000
0100
1000
0100
1000
0100
1000
0100
1000
0100
1000
,
0000
0000
0000
0000
,
0000
0000
0000
0000
,
0000
0000
0000
0000
,
0000
0000
0000
0000
,
0000
0000
0000
0000
,
0000
0000
0000
0000
,
0000
0000
0000
0000
,
0000
0000
0000
0000
,
0000
0000
0000
0000
0000
0100
0000
0000
0000
0000
0000
0000
0000
0000
0000
0000
;

//---------------dance-single - Copied from----------------
#NOTES:
     dance-single:
     Copied from:
     Beginner:
     1:
     0.286,0.418,0.327,0.076,0.000,191.000,39.000,9.000,0.000,0.000:
0000
0000
0000
0000
,
0000
0000
1000
0000
,
0000
0000
0001
0000
,
0000
1000
0000
0000
,
0000
0010
0010
0010
,
0000
0001
0000
0000
,
0000
1000
0000
0000
,
0000
0001
0000
0000
,
0000
1000
1000
1000
,
0000
0010
0000
0100
,
0000
0010
0000
0100
,
0000
0010
0000
0100
,
0000
0001
1000
0010
,
0000
0010
0000
0100
,
0001
0001
0010
0100
,
0000
0010
1000
0000
,
0100
0010
0000
0000
,
0000
1001
0000
0001
,
0000
0101
0000
0001
,
0000
1001
0000
1000
,
0000
1010
0000
0010
,
0000
0110
0000
0001
,
0000
0101
0000
0001
,
0000
1000
1010
0000
,
0000
0010
0000
0020
,
0000
0000
0000
0000
,
0000
0032
0000
0000
,
0000
2003
0000
0000
,
3000
0200
0000
0300
,
0010
0000
0001
0000
,
1000
0000
0100
0000
,
0010
0001
0000
0000
,
1000
0010
0000
0100
,
0000
0001
0000
1000
,
0000
0010
0000
0000
,
1000
0010
0000
0000
,
1000
0000
0000
2020
,
0000
0000
3030
0010
,
0000
0010
0001
0000
,
1000
0000
0110
0000
,
0001
1000
0000
0001
,
1000
0000
0001
0000
,
1000
0010
0000
1000
,
0000
0100
0001
0000
,
0010
0000
1000
0000
,
0010
0100
0000
0001
,
0000
0000
1000
0000
,
0001
0010
0000
0100
,
0000
0010
0000
0000
,
1000
0000
0100
0000
,
1000
0000
0001
0000
,
0100
0000
0001
0000
,
0010
0000
0100
0000
,
0000
0000
0100
0100
,
0000
0000
0100
0000
,
0000
0000
0100
0000
,
0000
0010
0000
0100
,
0000
0010
0000
0100
,
0000
0010
0000
1000
,
0010
0000
1000
0000
,
0010
0000
0100
0000
,
0010
0000
0001
0000
,
0010
0000
0100
0010
,
0000
1000
0000
1010
,
0000
1010
0000
0101
,
0000
0101
0000
0001
,
1001
0000
0000
0000
,
0000
0000
0000
1010
,
0000
0101
0000
0001
,
0010
1100
0000
1010
,
0000
0101
0000
0000
,
0000
0000
0000
0110
,
0000
1001
0000
0010
,
0000
1000
0000
0010
,
0000
1000
0000
0010
,
0000
1000
0010
0000
,
1000
0000
0000
0010
,
0000
0001
0000
0010
,
0000
0001
0000
0100
,
0000
0010
0000
1000
,
0000
0010
0000
1000
,
0010
0000
0000
1000
,
0000
2000
0000
0000
,
0000
0000
0000
0000
,
0000
3000
0001
0001
,
0000
0000
0001
0000
,
0001
0000
1000
0000
,
1000
0000
0001
0000
,
0001
0000
1000
0000
,
1000
0000
0010
0000
,
0000
0010
0000
0100
,
0000
0000
0000
1001
,
0000
0000
0000
0000
,
1010
0000
0000
0000
,
0101
0000
0000
0011
,
0000
1100
0000
1010
,
0000
0000
0101
0011
,
0000
1100
0000
1010
,
0000
0101
0000
0000
,
0000
0000
0000
0000
,
0011
0000
0100
0000
,
0000
0000
0000
0000
,
0000
1010
0100
0000
,
0000
0000
0000
0000
,
0011
0000
0100
0000
,
0000
1010
0000
0100
,
0000
0011
0000
0100
,
0000
1010
0000
0100
,
0000
2002
0000
0000
,
0000
0000
0000
0000
,
0000
0000
0000
3003
;

//---------------dance-double - Copied from Why do y----------------
#NOTES:
     dance-double:
     Copied from Why do y:
     Challenge:
     10:
     0.748,0.779,0.369,0.151,0.008,562.000,44.000,18.000,0.000,0.000:
00000000
00000000
00000000
00000000
,
00000000
00000000
00010000
01000000
,
00100000
10000000
00000000
00100000
10000000
00000000
01000000
00000000
,
00100000
00010000
00000000
00100000
00010000
00000000
01000000
00000000
,
00100000
10000000
00000000
00100000
10000000
00000000
10000000
00000000
,
10000000
00000000
01000000
10000000
,
00010000
00100000
00000000
00010000
00100000
00000000
10000000
00000000
,
00010000
01000000
00000000
00010000
01000000
00000000
10000000
00000000
,
00010000
00100000
00000000
00010000
00100000
00000000
00100000
00000000
,
00100000
00000000
00000000
00110000
00000000
01010000
00000000
10010000
,
00000000
01010000
00000000
10010000
00000000
01010000
00000000
00110000
,
00000000
01010000
00000000
10010000
00000000
01010000
00000000
00110000
,
00000000
10100000
00000000
11000000
00010000
00100000
00010000
01000000
,
00010000
10000000
00010000
00000000
10100000
00000000
11000000
00000000
,
01100000
10100000
10010000
01010000
,
01100000
00010000
00100000
01000000
,
00010000
00100000
01000000
10000000
,
00010000
00100000
01000000
10000000
,
00010000
00100000
01000000
10000000
,
00010000
00100000
01000000
10000000
,
00010000
00000000
01000000
00010000
01000000
00000000
01000000
00010000
,
01000000
00000000
00010000
00100000
00010000
00000000
00010000
00100000
,
00010000
00000000
20000000
00010000
30000000
00020000
01000000
00030000
,
02000000
00100000
03000000
00200000
10000000
00000000
10000000
00000000
,
10000000
00000000
00300000
00000000
00020000
10000000
00030000
20000000
,
00100000
30000000
00200000
01000000
00300000
02000000
00010000
00000000
,
00010000
00000000
03010000
00000000
00200000
00010000
00300000
00020000
,
01000000
00030000
02000000
00100000
03000000
00200000
20000000
00300000
,
00010000
30010000
00000000
00000000
,
00010000
01000000
10000000
00000000
01000000
10000000
01000000
00000000
,
10000000
00100000
10000000
00000000
00100000
00010000
00100000
00000000
,
00010000
01000000
00010000
00000000
01000000
10000000
01000000
00000000
,
10000000
00100000
10000000
00000000
00100000
00010000
00100000
00000000
,
01000000
10000000
01000000
00000000
10000000
00100000
10000000
00000000
,
00100000
00010000
00100000
00000000
00010000
01000000
00010000
00000000
,
01000000
10000000
01000000
00000000
10000000
00100000
10000000
00000000
,
00100000
00010000
00100000
00000000
00010000
01000000
00010000
00000000
,
00000000
00000000
00000000
00000000
00000000
00000000
10000000
01000000
,
00010000
00100000
10000000
10000000
00100000
00010000
01000000
10000000
,
00100000
00010000
01000000
00010000
10000000
00010000
01000000
00010000
,
00100000
01000000
00010000
10000000
00010000
01000000
00000000
00000000
,
00100000
10000000
01000000
00010000
00100000
10000000
01000000
00010000
,
00100000
01000000
10000000
00010000
01000000
00010000
10000000
00010000
,
01000000
00010000
00100000
01000000
10000000
00010000
00100000
01000000
,
10000000
00010000
00100000
01000000
10000000
01000000
00100000
00010000
,
00100000
01000000
00010000
10000000
00010000
01000000
01000000
01000000
,
01000000
00100000
10000000
00100000
00010000
00100000
10000000
00100000
,
00010000
00100000
10000000
00000000
20020000
00000000
00000000
00000000
,
00000000
00000000
00000000
00000000
,
30030000
00010000
00100000
10000000
,
00010000
01000000
00100000
10000000
,
01000000
00010000
10000000
00010000
,
00100000
00010000
01000000
00010000
,
10000000
00010000
00100000
10000000
,
00010000
00000000
00100000
00000000
01000000
00000000
00100000
00010000
,
00100000
00000000
01000000
10000000
01000000
00000000
01000000
00000000
,
00100000
00000000
00010000
00100000
00010000
00000000
10000000
00010000
,
10000000
00100000
10000000
01000000
10000000
00100000
10000000
00010000
,
10000000
00100000
10000000
01000000
10000000
00010000
10000000
01000000
,
10000000
00100000
10000000
00010000
10000000
00100000
10000000
00010000
,
10000000
01000000
10000000
00100000
10000000
00010000
10000000
00010000
,
10000000
00100000
10000000
01000000
10000000
00100000
11000000
00000000
,
00010000
00100000
01000000
10000000
,
00010000
00100000
01000000
10000000
,
11000000
00000000
10010000
00000000
00000000
00000000
00000000
00010000
,
00000000
01010000
00000000
00000000
01010000
00000000
00000000
01100000
,
00000000
10100000
00000000
00000000
10000000
00000000
01000000
00000000
,
00100000
00000000
00010000
00100000
00010000
00000000
00100000
00000000
,
01000000
00000000
10000000
00000000
01000000
00100000
01000000
00100000
,
01000000
00010000
10000000
00010000
,
00000000
10000000
00010000
00000000
10000000
00000000
00010000
00000000
,
00100000
00000000
01000000
10000000
01000000
00000000
00100000
00000000
,
00010000
00000000
00100000
00000000
01000000
00000000
10000000
00100000
,
10000000
01000000
00100000
10000000
00100000
00010000
00000000
00000000
,
00100000
01000000
10000000
00010000
,
10000000
00000000
01000000
00000000
00010000
00000000
01000000
10000000
,
01000000
00000000
10000000
00000000
01000000
00100000
01000000
00000000
,
00100000
00010000
00100000
00000000
00100000
00010000
00100000
00000000
,
01000000
10000000
01000000
00000000
01000000
00000000
00100000
00010000
,
00100000
00000000
00100000
00010000
01000000
00000000
10000000
00100000
,
01000000
00000000
00100000
01000000
00010000
00000000
00100000
01000000
,
10000000
00010000
00010000
00100000
01000000
02000000
13000000
00000000
,
00000000
02200000
00000000
00000000
00000000
00000000
00000000
00000000
,
00000000
00000000
00000000
00000000
,
03300000
00000000
10100000
00110000
,
00000000
01100000
00000000
00000000
10010000
00000000
10100000
00000000
,
00000000
10000000
00000000
00010000
00000000
10000000
00000000
01000000
,
00000000
00100000
00000000
00010000
00000000
00100000
00000000
01000000
,
00000000
10000000
00000000
00000000
00110000
00000000
10010000
00000000
,
00000000
01010000
00000000
00000000
10010000
00000000
00110000
00000000
,
00010000
00000000
00000000
10000000
00000000
00000000
00000000
00010000
,
00000000
00000000
00000000
00000000
,
10000000
01000000
00100000
01000000
10000000
00000000
00000000
00000000
,
00000000
00000000
00010000
10000000
01000000
00100000
00010000
00000000
,
00000000
00000000
10000000
00010000
00100000
01000000
00100000
00010000
,
10000000
01000000
00100000
00010000
01000000
10000000
00010000
00100000
,
01000000
10000000
00100000
00010000
10000000
00010000
00100000
00010000
,
01000000
00100000
00010000
10000000
01000000
00010000
00100000
01000000
,
10000000
00010000
00100000
01000000
00010000
00100000
00010000
01000000
,
10000000
00100000
00010000
10000000
01000000
00100000
10000000
00000000
,
01000000
00010000
10000000
00100000
00010000
01000000
10000000
00010000
,
00100000
10000000
00010000
10000000
00010000
00100000
01000000
00100000
,
00000000
00100000
01000000
00000000
01000000
00100000
00000000
00010000
,
00100000
10000000
01000000
00000000
00010000
00100000
01000000
00000000
,
10010000
00000000
01010000
00000000
10010000
00100000
01000000
00010000
,
00100000
00000000
11000000
00010000
01000000
00000000
10000000
01000000
,
00010000
01000000
10000000
01000000
00010000
00000000
00100000
00010000
,
10000000
00010000
01000000
00100000
10000000
00100000
00010000
01000000
,
10000000
00000000
00000000
00010000
00000000
00000000
00100000
00000000
00000000
00010000
00000000
00000000
10000000
00000000
00000000
01000000
00000000
00000000
10000000
00000000
00000000
00000000
10000000
00000000
,
00000000
10000000
00000000
10010000
00000000
00000000
00000000
00000000
00000000
00000000
00000000
00000000
;

//---------------dance-double - Copied from Why do y----------------
#NOTES:
     dance-double:
     Copied from Why do y:
     Hard:
     10:
     0.748,0.779,0.369,0.151,0.008,562.000,44.000,18.000,0.000,0.000:
00000000
00000000
00000000
00000000
,
00000000
00000000
00010000
01000000
,
00100000
10000000
00000000
00100000
10000000
00000000
01000000
00000000
,
00100000
00010000
00000000
00100000
00010000
00000000
01000000
00000000
,
00100000
10000000
00000000
00100000
10000000
00000000
10000000
00000000
,
10000000
00000000
01000000
10000000
,
00010000
00100000
00000000
00010000
00100000
00000000
10000000
00000000
,
00010000
01000000
00000000
00010000
01000000
00000000
10000000
00000000
,
00010000
00100000
00000000
00010000
00100000
00000000
00100000
00000000
,
00100000
00000000
00000000
00110000
00000000
01010000
00000000
10010000
,
00000000
01010000
00000000
10010000
00000000
01010000
00000000
00110000
,
00000000
01010000
00000000
10010000
00000000
01010000
00000000
00110000
,
00000000
10100000
00000000
11000000
00010000
00100000
00010000
01000000
,
00010000
10000000
00010000
00000000
10100000
00000000
11000000
00000000
,
01100000
10100000
10010000
01010000
,
01100000
00010000
00100000
01000000
,
00010000
00100000
01000000
10000000
,
00010000
00100000
01000000
10000000
,
00010000
00100000
01000000
10000000
,
00010000
00100000
01000000
10000000
,
00010000
00000000
01000000
00010000
01000000
00000000
01000000
00010000
,
01000000
00000000
00010000
00100000
00010000
00000000
00010000
00100000
,
00010000
00000000
20000000
00010000
30000000
00020000
01000000
00030000
,
02000000
00100000
03000000
00200000
10000000
00000000
10000000
00000000
,
10000000
00000000
00300000
00000000
00020000
10000000
00030000
20000000
,
00100000
30000000
00200000
01000000
00300000
02000000
00010000
00000000
,
00010000
00000000
03010000
00000000
00200000
00010000
00300000
00020000
,
01000000
00030000
02000000
00100000
03000000
00200000
20000000
00300000
,
00010000
30010000
00000000
00000000
,
00010000
01000000
10000000
00000000
01000000
10000000
01000000
00000000
,
10000000
00100000
10000000
00000000
00100000
00010000
00100000
00000000
,
00010000
01000000
00010000
00000000
01000000
10000000
01000000
00000000
,
10000000
00100000
10000000
00000000
00100000
00010000
00100000
00000000
,
01000000
10000000
01000000
00000000
10000000
00100000
10000000
00000000
,
00100000
00010000
00100000
00000000
00010000
01000000
00010000
00000000
,
01000000
10000000
01000000
00000000
10000000
00100000
10000000
00000000
,
00100000
00010000
00100000
00000000
00010000
01000000
00010000
00000000
,
00000000
00000000
00000000
00000000
00000000
00000000
10000000
01000000
,
00010000
00100000
10000000
10000000
00100000
00010000
01000000
10000000
,
00100000
00010000
01000000
00010000
10000000
00010000
01000000
00010000
,
00100000
01000000
00010000
10000000
00010000
01000000
00000000
00000000
,
00100000
10000000
01000000
00010000
00100000
10000000
01000000
00010000
,
00100000
01000000
10000000
00010000
01000000
00010000
10000000
00010000
,
01000000
00010000
00100000
01000000
10000000
00010000
00100000
01000000
,
10000000
00010000
00100000
01000000
10000000
01000000
00100000
00010000
,
00100000
01000000
00010000
10000000
00010000
01000000
01000000
01000000
,
01000000
00100000
10000000
00100000
00010000
00100000
10000000
00100000
,
00010000
00100000
10000000
00000000
20020000
00000000
00000000
00000000
,
00000000
00000000
00000000
00000000
,
30030000
00010000
00100000
10000000
,
00010000
01000000
00100000
10000000
,
01000000
00010000
10000000
00010000
,
00100000
00010000
01000000
00010000
,
10000000
00010000
00100000
10000000
,
00010000
00000000
00100000
00000000
01000000
00000000
00100000
00010000
,
00100000
00000000
01000000
10000000
01000000
00000000
01000000
00000000
,
00100000
00000000
00010000
00100000
00010000
00000000
10000000
00010000
,
10000000
00100000
10000000
01000000
10000000
00100000
10000000
00010000
,
10000000
00100000
10000000
01000000
10000000
00010000
10000000
01000000
,
10000000
00100000
10000000
00010000
10000000
00100000
10000000
00010000
,
10000000
01000000
10000000
00100000
10000000
00010000
10000000
00010000
,
10000000
00100000
10000000
01000000
10000000
00100000
11000000
00000000
,
00010000
00100000
01000000
10000000
,
00010000
00100000
01000000
10000000
,
11000000
00000000
10010000
00000000
00000000
00000000
00000000
00010000
,
00000000
01010000
00000000
00000000
01010000
00000000
00000000
01100000
,
00000000
10100000
00000000
00000000
10000000
00000000
01000000
00000000
,
00100000
00000000
00010000
00100000
00010000
00000000
00100000
00000000
,
01000000
00000000
10000000
00000000
01000000
00100000
01000000
00100000
,
01000000
00010000
10000000
00010000
,
00000000
10000000
00010000
00000000
10000000
00000000
00010000
00000000
,
00100000
00000000
01000000
10000000
01000000
00000000
00100000
00000000
,
00010000
00000000
00100000
00000000
01000000
00000000
10000000
00100000
,
10000000
01000000
00100000
10000000
00100000
00010000
00000000
00000000
,
00100000
01000000
10000000
00010000
,
10000000
00000000
01000000
00000000
00010000
00000000
01000000
10000000
,
01000000
00000000
10000000
00000000
01000000
00100000
01000000
00000000
,
00100000
00010000
00100000
00000000
00100000
00010000
00100000
00000000
,
01000000
10000000
01000000
00000000
01000000
00000000
00100000
00010000
,
00100000
00000000
00100000
00010000
01000000
00000000
10000000
00100000
,
01000000
00000000
00100000
01000000
00010000
00000000
00100000
01000000
,
10000000
00010000
00010000
00100000
01000000
02000000
13000000
00000000
,
00000000
02200000
00000000
00000000
00000000
00000000
00000000
00000000
,
00000000
00000000
00000000
00000000
,
03300000
00000000
10100000
00110000
,
00000000
01100000
00000000
00000000
10010000
00000000
10100000
00000000
,
00000000
10000000
00000000
00010000
00000000
10000000
00000000
01000000
,
00000000
00100000
00000000
00010000
00000000
00100000
00000000
01000000
,
00000000
10000000
00000000
00000000
00110000
00000000
10010000
00000000
,
00000000
01010000
00000000
00000000
10010000
00000000
00110000
00000000
,
00010000
00000000
00000000
10000000
00000000
00000000
00000000
00010000
,
00000000
00000000
00000000
00000000
,
10000000
01000000
00100000
01000000
10000000
00000000
00000000
00000000
,
00000000
00000000
00010000
10000000
01000000
00100000
00010000
00000000
,
00000000
00000000
10000000
00010000
00100000
01000000
00100000
00010000
,
10000000
01000000
00100000
00010000
01000000
10000000
00010000
00100000
,
01000000
10000000
00100000
00010000
10000000
00010000
00100000
00010000
,
01000000
00100000
00010000
10000000
01000000
00010000
00100000
01000000
,
10000000
00010000
00100000
01000000
00010000
00100000
00010000
01000000
,
10000000
00100000
00010000
10000000
01000000
00100000
10000000
00000000
,
01000000
00010000
10000000
00100000
00010000
01000000
10000000
00010000
,
00100000
10000000
00010000
10000000
00010000
00100000
01000000
00100000
,
00000000
00100000
01000000
00000000
01000000
00100000
00000000
00010000
,
00100000
10000000
01000000
00000000
00010000
00100000
01000000
00000000
,
10010000
00000000
01010000
00000000
10010000
00100000
01000000
00010000
,
00100000
00000000
11000000
00010000
01000000
00000000
10000000
01000000
,
00010000
01000000
10000000
01000000
00010000
00000000
00100000
00010000
,
10000000
00010000
01000000
00100000
10000000
00100000
00010000
01000000
,
10000000
00000000
00000000
00010000
00000000
00000000
00100000
00000000
00000000
00010000
00000000
00000000
10000000
00000000
00000000
01000000
00000000
00000000
10000000
00000000
00000000
00000000
10000000
00000000
,
00000000
10000000
00000000
10010000
00000000
00000000
00000000
00000000
00000000
00000000
00000000
00000000
;
