#TITLE:e-motion 2003;
#SUBTITLE:~romantic extra~;
#ARTIST:e.o.s. remixed by dj TAKA;
#TITLETRANSLIT:;
#SUBTITLETRANSLIT:;
#ARTISTTRANSLIT:;
#CREDIT:;
#BANNER:E-Motion 2003 (Romantic Extra).png;
#BACKGROUND:E-Motion 2003 (Romantic Extra)-bg.png;
#LYRICSPATH:;
#CDTITLE:!toph-cdtitle.png;
#MUSIC:E-Motion 2003 (Romantic Extra).mp3;
#OFFSET:-0.411;
#SAMPLESTART:45.600;
#SAMPLELENGTH:14.000;
#SELECTABLE:YES;
#BPMS:0.000=145.010,63.000=125.000,63.250=90.000,63.500=70.000,63.750=30.000,64.000=22.500,64.500=58.400,65.750=145.010;
#STOPS:;
#BGCHANGES:;
// cache tags:
#FIRSTBEAT:31.000;
#LASTBEAT:294.000;
#SONGFILENAME:Songs/Keyboard Collaboration II/Toph - E-Motion 2003 (Romantic Extra)/E-Motion 2003 (Romantic Extra).sm;
#HASMUSIC:1;
#HASBANNER:1;
#MUSICLENGTH:134.373;
// end cache tags

//---------------dance-single - ----------------
#NOTES:
     dance-single:
     :
     Hard:
     11:
     0.890,0.930,0.811,0.007,1.000,727.000,109.000,1.000,0.000,0.000:  // measure 1
0000
0000
0000
0000
,  // measure 2
0000
0000
0000
0000
,  // measure 3
0000
0000
0000
0000
,  // measure 4
0000
0000
0000
0000
,  // measure 5
0000
0000
0000
0000
,  // measure 6
0000
0000
0000
0000
,  // measure 7
0000
0000
0000
0000
,  // measure 8
0000
0000
0000
1100
,  // measure 9
0101
0000
0000
0000
0100
0010
1000
0001
0010
0000
0000
0100
0000
0000
1000
0000
,  // measure 10
1010
0100
0010
0101
0000
0000
1010
0000
,  // measure 11
1100
0000
0000
0010
0001
0100
0010
1000
0001
0010
0100
1000
,  // measure 12
0101
0000
0010
0000
1000
0000
0001
0000
0011
0000
0000
0110
0000
0000
1100
0000
,  // measure 13
1001
0100
0010
1001
0000
0000
0110
0000
,  // measure 14
1000
0101
0000
0010
1000
0100
0010
0001
,  // measure 15
1010
0000
0000
0101
0101
0000
1000
0100
,  // measure 16
0110
0000
0000
0011
0100
0000
1100
0000
,  // measure 17
0000
0000
0020
0000
0000
0000
0030
0000
1001
0000
0000
0100
0000
0000
0010
0000
,  // measure 18
0001
0100
0001
1000
0000
0010
0100
0010
1000
0100
0000
0010
0000
0000
0001
0000
,  // measure 19
0010
0001
0010
0100
0000
0010
0001
1000
0010
0100
0000
0001
0000
1000
0100
1000
,  // measure 20
0001
0000
0100
0010
0000
1000
0100
0010
0001
0100
0000
0010
0000
1000
0100
1000
,  // measure 21
0001
0000
0100
0010
0000
1000
0101
1000
0011
0000
0000
0001
0000
0000
0100
0000
,  // measure 22
0010
1000
0010
0100
0000
0001
0010
0001
1000
0100
0000
0010
0000
0000
0001
0000
,  // measure 23
0100
0010
0100
0001
0000
1000
0100
1000
0010
0100
0000
0001
0000
0001
1000
0100
,  // measure 24
0010
0000
0001
0100
0000
0010
1000
0100
0010
0001
0000
1000
0000
0010
1000
0010
,  // measure 25
0100
0000
0001
1000
0000
0100
0010
0001
1100
0000
0010
0000
0101
0000
0010
1000
,  // measure 26
0001
0010
0100
0000
1100
0000
0010
0100
1001
0000
0000
0100
1000
0000
0010
0000
,  // measure 27
0101
1000
0001
1000
0010
0100
0001
1000
0011
0100
0000
0010
0001
0000
0010
0000
,  // measure 28
1100
0001
0100
0010
1000
0100
1000
0010
0101
1000
0000
0001
0100
0001
0010
0001
,  // measure 29
1100
0000
0001
0100
0010
1000
0100
0010
1001
0100
0000
0010
0100
1000
0010
0100
,  // measure 30
1001
0000
0000
0010
0100
0001
0100
0010
1100
0000
0000
0001
1000
0000
0010
0000
,  // measure 31
1100
0010
0001
0100
0010
1000
0001
0010
1100
0001
0000
0001
0100
0000
0010
0000
,  // measure 32
1100
0001
0100
0010
1000
0100
0010
0001
1010
0100
0000
0010
0100
0001
1000
0100
,  // measure 33
0011
0000
1000
0100
0010
0001
0100
0010
1001
0100
0000
0001
1000
0100
1000
0010
,  // measure 34
1001
0000
0000
0001
1000
0100
0010
0100
1001
0000
0000
0100
1000
0000
0100
0000
,  // measure 35
1001
0100
0010
1000
0001
0010
0100
1000
0101
0010
0000
1000
0100
0000
0010
0000
,  // measure 36
0101
1000
0010
0100
0001
0010
0100
1000
0101
0010
0000
1000
0001
0100
0010
0100
,  // measure 37
1001
0000
0001
0010
0100
1000
0010
0100
0011
1000
0000
0001
0100
0010
1000
0001
,  // measure 38
1100
0000
0000
0010
0001
0100
0010
1000
0101
0000
0000
1000
0001
0000
0100
0000
,  // measure 39
1010
0001
0010
0100
1000
0010
0100
0001
1100
0010
0000
0001
0100
0000
0010
0000
,  // measure 40
1100
0001
0100
0010
1000
0100
0010
0001
1000
0001
1000
0001
1000
0001
1000
0001
,  // measure 41
1000
0001
1000
0001
1000
0001
1000
0001
1000
0100
0010
0100
1000
0010
0100
0001
,  // measure 42
0010
0100
0010
0001
0100
0010
1000
0001
0110
0000
0000
0000
1001
0100
0010
0001
,  // measure 43
1010
0000
0000
0100
0001
0000
1000
0000
0110
0000
0001
0000
1100
0000
0010
0000
,  // measure 44
0100
0000
0000
0001
0000
0000
1010
0000
0000
0100
0000
0000
1001
0000
0000
0000
0000
0000
0011
0000
0100
0000
1000
0000
,  // measure 45
0101
0000
0010
0000
1000
0000
0110
0000
0001
0000
1000
0000
0101
0000
0000
0010
0000
0000
1100
0000
0000
0001
0000
0000
,  // measure 46
0110
0000
0000
1000
0001
0000
0100
0000
1001
0000
0100
0000
1010
0000
0001
0000
,  // measure 47
1000
0000
0011
0000
1100
0010
1000
0100
,  // measure 48
0011
0100
1010
0001
0110
0000
0010
1000
,  // measure 49
1010
0000
0000
0000
0110
0000
0001
0000
1100
0000
0010
0000
0101
0000
0010
1000
,  // measure 50
0001
0010
0100
1000
1100
0000
0010
0100
1001
0000
0100
0000
0010
0000
0011
0000
,  // measure 51
0100
1000
0000
0000
0101
0100
0010
1100
,  // measure 52
0001
0000
0010
0000
0000
0001
0100
0010
1000
0000
0100
0010
0001
1000
0010
0000
,  // measure 53
0100
0000
0001
0000
1000
0000
0100
0000
0010
0000
0001
0000
0000
0000
0100
0010
,  // measure 54
1000
0000
0000
0000
0100
0000
0000
0000
0010
0001
0100
0010
1000
0001
0010
0100
,  // measure 55
1000
0010
0100
0001
0010
0001
0100
0010
1000
0100
0010
0001
0100
0010
0100
0001
,  // measure 56
1000
0100
0010
0001
1000
0010
0100
0001
0010
0001
0100
1000
0000
0001
0100
1000
,  // measure 57
0000
0001
0100
1000
0000
0001
0100
1000
0001
0010
0100
1000
0010
0100
0001
0010
,  // measure 58
0100
0010
0001
0100
0010
1000
0100
0010
1001
0000
0000
0010
0100
0000
0001
0000
,  // measure 59
1100
0001
0100
0010
1000
0001
1000
0100
0011
1000
0000
0001
0100
0000
0010
0000
,  // measure 60
1100
0001
0100
0010
1000
0001
1000
0010
0101
1000
0000
0010
1000
0100
0010
0001
,  // measure 61
1100
0000
0010
0001
0100
0010
1000
0100
0011
1000
0000
1000
0100
0010
0001
0100
,  // measure 62
1010
0000
0000
1000
0010
0100
0001
1000
0110
0000
0000
1000
0001
0000
1000
0000
,  // measure 63
0110
0001
1000
0100
0010
0001
1000
0010
0101
1000
0000
1000
0001
0000
0010
0000
,  // measure 64
1100
0001
0100
0010
1000
0100
0010
0001
1010
0100
0000
0100
1000
0001
0100
0010
,  // measure 65
1001
0000
0010
0001
0100
0001
0010
0001
1100
0010
0000
0010
0100
0001
1000
0100
,  // measure 66
0011
0000
0000
0001
1000
0010
1000
0100
0011
0000
0000
1000
0001
0000
1000
0000
,  // measure 67
0110
0001
1000
0100
0010
0001
0100
0010
1001
0100
0000
0010
0100
0000
0001
0000
,  // measure 68
1100
0010
0001
1000
0010
0100
0001
1000
0110
0001
0000
1000
0100
1000
0010
0100
,  // measure 69
0011
0000
1000
0100
0010
0001
1000
0010
0101
1000
0000
0100
1000
0010
0100
0001
,  // measure 70
1100
0000
0000
0100
0001
1000
0100
0010
1001
0000
0000
0100
0000
0000
0010
0000
,  // measure 71
0001
0100
0001
1000
0000
0010
0100
0010
1000
0100
0000
0010
0000
0000
0001
0000
,  // measure 72
1000
0010
1000
0001
0000
0010
0100
0010
0001
0100
0000
0010
0000
1000
0100
0010
,  // measure 73
0001
0000
1000
0010
0000
0100
0001
0100
0010
1000
0000
0100
0000
1000
0100
1000
,  // measure 74
0001
0000
0000
0010
0000
0001
0100
0010
1001
0000
0000
0000
0000
0000
0000
0000
;
