#TITLE:Sonata Claro de Luna Mov. 3;
#SUBTITLE:;
#ARTIST:Beethoven;
#TITLETRANSLIT:;
#SUBTITLETRANSLIT:;
#ARTISTTRANSLIT:;
#CREDIT:;
#BANNER:Sonata.png;
#BACKGROUND:Sonata-bg.png;
#LYRICSPATH:;
#CDTITLE:;
#MUSIC:Sonata Claro de Luna Mov3.mp3;
#OFFSET:-0.186;
#SAMPLESTART:0.100;
#SAMPLELENGTH:15.000;
#SELECTABLE:YES;
#DISPLAYBPM:176.000;
#BPMS:0.000=176.000,53.000=158.000,57.000=176.000,286.000=184.000,286.500=189.000,287.000=197.000,287.500=208.000,288.000=185.500,292.000=176.000,383.000=172.000,390.000=170.000,390.333=120.000,391.667=115.000,392.000=110.000,392.333=80.000,392.667=60.000,393.000=55.000,393.667=57.000,394.500=55.000,395.500=75.000,398.000=176.001;
#STOPS:;
#BGCHANGES:;
// cache tags:
#FIRSTBEAT:0.000;
#LASTBEAT:438.000;
#SONGFILENAME:Songs/IzzySM Keyboard Mega Pack/Sonata Claro de Luna Mov 3 (MM989)/Sonata.sm;
#HASMUSIC:1;
#HASBANNER:1;
#MUSICLENGTH:155.794;
// end cache tags

//---------------dance-single - ----------------
#NOTES:
     dance-single:
     :
     Challenge:
     12:
     1.000,1.000,1.000,0.045,1.000,1090.000,210.000,7.000,0.000,0.000:  // measure 1
1000
0001
0100
0010
1000
0100
0010
0001
0100
0010
1000
0001
0100
0001
0010
0100
,  // measure 2
1000
0100
0010
0001
1000
0010
0100
0001
1000
0001
1000
0000
0110
0000
0110
0000
,  // measure 3
0001
0100
0010
1000
0001
0010
0100
0010
0001
1000
0100
0010
0100
1000
0001
0100
,  // measure 4
0010
1000
0010
0100
0001
0010
0100
1000
0100
0010
0001
0000
1100
0000
1100
0000
,  // measure 5
0010
0001
0010
0100
1000
0100
1000
0001
0100
0010
1000
0001
0010
0100
1000
0100
,  // measure 6
0010
0100
1000
0001
0100
0010
0100
0010
1000
0100
0010
0000
0101
0000
0101
0000
,  // measure 7
0000
1000
0001
0100
0001
1000
0100
0010
0100
1000
0001
0000
1001
0000
1001
0000
,  // measure 8
0000
0100
0010
1000
0010
0100
0001
1000
0001
0010
0100
0000
0110
0000
0110
0000
,  // measure 9
1001
0000
0001
0100
0001
0010
0001
1000
0001
0010
0001
0100
0001
1000
0001
0010
,  // measure 10
0100
1000
0100
0010
0100
1000
0100
0001
0100
0010
0100
0001
0100
1000
0100
0010
,  // measure 11
1001
0000
1000
0100
1000
0010
1000
0001
1000
0100
1000
0001
1000
0010
1000
0001
,  // measure 12
0010
0100
0010
0001
0010
0100
0010
1000
0010
0100
0010
1000
0010
0001
0010
0100
,  // measure 13
1001
0110
0101
1100
0110
1100
0101
0110
,  // measure 14
1001
0220
0000
0000
,  // measure 15
0330
0000
0000
0000
0001
0100
0010
1000
0100
1000
0001
0010
0001
0100
0010
1000
,  // measure 16
0010
0100
0001
0010
0100
1000
0100
0010
0100
1000
0001
0100
0010
1000
0001
0000
,  // measure 17
1100
0000
0101
0000
0100
0001
1000
0100
0010
0100
1000
0001
0010
0001
0100
0010
,  // measure 18
0100
0001
1000
0100
1000
0001
0100
0001
0010
0100
1000
0001
0100
0010
1000
0000
,  // measure 19
0101
0000
1100
0000
0010
0100
0001
0100
0010
1000
0001
0010
0100
1000
0001
1000
,  // measure 20
0100
0010
0100
1000
0001
0100
0010
0100
0001
1000
0100
0010
0001
0100
0010
0100
,  // measure 21
0001
1000
0100
0010
1001
0000
0000
0000
0110
0000
0000
0000
0000
0000
0000
0000
,  // measure 22
1001
0000
0000
0000
0000
0000
0000
0000
0000
0100
0000
0000
1000
0000
0100
0000
0001
0000
0000
0000
0000
0000
0000
0000
0110
0000
0000
0000
0000
0000
0000
0000
0000
0000
0000
0000
0000
0000
0000
0000
0000
0000
0011
0000
0000
0000
0000
0000
,  // measure 23
1001
0000
0000
0011
1100
0000
0000
0000
1001
0000
0000
0000
0000
0000
0110
0000
,  // measure 24
1100
0000
0000
0110
0101
0000
0000
0000
0110
0000
0000
0000
0000
0000
0011
0000
,  // measure 25
1001
0000
0000
0110
1001
0000
1010
0000
0001
0000
1010
0000
0001
0000
0110
0000
,  // measure 26
1001
1100
0101
0011
1000
0011
1000
0011
,  // measure 27
1100
0011
0101
1100
0001
1100
0001
1100
,  // measure 28
0110
0011
1001
0101
1000
0101
1000
0101
,  // measure 29
0011
1100
1001
0000
0000
0000
0011
0000
,  // measure 30
0000
0000
0000
0000
0100
1000
0010
0001
0010
0000
0000
0000
0000
0000
0000
0000
,  // measure 31
0000
1010
0000
0110
,  // measure 32
0000
0000
0000
0000
0100
0001
0010
1000
0010
0000
0000
0000
0000
0000
0000
0000
,  // measure 33
0000
0000
0000
0000
1001
0000
0000
0000
0000
0000
0000
0000
0010
0100
0001
1000
,  // measure 34
0100
0010
0001
0100
0001
0010
0100
1000
0001
0100
0010
0100
0001
1000
0010
0100
,  // measure 35
0010
1000
0001
0100
0001
1000
0100
0010
0100
1000
0001
0100
0001
0010
0001
0010
,  // measure 36
0100
1000
0100
1000
0001
0010
0100
0010
0100
0010
0100
0010
0100
0010
0001
0010
,  // measure 37
0001
0010
0001
0010
0001
0000
0000
0000
1001
0000
0000
0000
1000
0100
0010
0001
,  // measure 38
0010
0001
0010
0100
1000
0100
1000
0100
0010
0100
0010
0001
0010
0001
0010
0100
,  // measure 39
1000
0100
0010
0001
0100
0001
1000
0100
0010
0100
1000
0001
0010
0100
1000
0010
,  // measure 40
0100
0010
1000
0001
0100
0001
1000
0100
0010
0001
0100
0001
0100
0010
1000
0100
,  // measure 41
0010
0100
0010
0100
1001
0000
0000
0000
0000
0000
0000
0000
0011
0000
0000
0000
,  // measure 42
0000
1100
0000
0110
,  // measure 43
0000
0000
1001
0101
0101
0101
0101
0101
,  // measure 44
1010
1100
1010
1001
1001
1001
1001
1001
,  // measure 45
0101
0011
0101
1100
1100
1100
1100
1100
,  // measure 46
0110
1100
0110
0011
0011
0011
0011
0011
,  // measure 47
1001
0110
1001
0110
0100
0100
0000
0011
,  // measure 48
0010
0010
0000
1010
1000
1000
0000
0101
,  // measure 49
0001
0001
1001
0110
0101
0110
0101
0110
,  // measure 50
1001
1010
0110
0101
0011
0101
0011
0101
,  // measure 51
1010
1001
1010
0110
1010
0110
1010
0110
,  // measure 52
0101
0011
1100
1001
1100
1001
1100
1001
,  // measure 53
0011
0101
0110
1001
0010
0010
0000
1100
,  // measure 54
0001
0001
0000
0110
1000
1000
0000
0101
,  // measure 55
0010
0010
0000
0101
0101
0101
0000
0011
,  // measure 56
0011
0011
0000
1010
1010
1010
0000
0110
,  // measure 57
0110
0110
1000
0000
0000
0000
0000
0000
,  // measure 58
0001
0000
0000
0010
0100
0000
0000
0000
1100
0000
0000
0000
1100
0000
0000
0000
,  // measure 59
1100
0000
0000
0000
0011
1000
0000
0000
0000
0000
0000
0000
0000
0000
0000
0000
,  // measure 60
0001
0000
0000
0100
0010
0000
0000
0000
1010
0000
0000
0000
1010
0000
0000
0000
,  // measure 61
1010
0000
0000
0000
0101
0010
0000
0000
0000
0000
0000
0000
0110
1000
0000
0000
,  // measure 62
0000
0000
0000
0000
0011
0100
0000
0000
0000
0000
0000
0000
1001
0010
0000
0000
,  // measure 63
0000
0000
0000
0000
0001
0010
0001
0010
0001
0010
0001
0010
0001
0010
0001
0010
,  // measure 64
0001
0010
0001
0010
0100
1000
0100
1000
0100
1000
0100
1000
0100
1000
0100
1000
,  // measure 65
0100
1000
0100
1000
0110
0001
0100
0010
1000
0001
1000
0010
0100
0001
0010
0100
,  // measure 66
1000
0001
0100
0001
0010
0100
0010
0001
1000
0100
0010
0100
1000
0001
0100
0000
,  // measure 67
1001
0000
1001
0000
0100
0010
0100
0001
0100
0010
1000
0100
0010
0100
1000
0010
,  // measure 68
0100
0001
0100
0010
1000
0100
0010
0001
0100
0001
1000
0100
1000
0100
0010
0000
,  // measure 69
1001
0000
0000
1001
0000
0000
1000
0000
0000
0001
0010
0100
1000
0000
0000
1000
0100
0010
0001
0000
0000
0001
0010
0100
,  // measure 70
1000
0000
0000
1000
0100
0010
0001
0000
0000
0001
0010
0100
2000
0000
0000
0000
0000
0000
0000
0000
0000
0000
0000
0000
,  // measure 71
0000
0000
0000
0000
0000
0000
3000
0000
0000
0000
0000
0000
0001
0000
0000
1000
0010
0100
0001
0000
0000
0001
0100
0010
,  // measure 72
1000
0000
0000
0000
0000
0000
1000
0000
0010
0000
0100
0000
0001
0000
0000
0000
0000
0000
0001
0000
0100
0000
0010
0000
1000
0000
0000
0001
0000
0000
0000
0000
0000
0100
0000
0000
0000
0000
0000
0010
0000
0000
0000
0000
0000
0000
0000
0000
,  // measure 73
2002
0000
0000
0000
,  // measure 74
0000
0000
0000
3003
,  // measure 75
1000
0010
1000
0010
1000
0010
1000
0010
1000
0010
1000
0010
1000
0010
1000
0010
,  // measure 76
0100
0001
0100
0001
0100
0001
0100
0001
0100
0001
0100
0001
0100
0001
0100
0001
,  // measure 77
1000
0100
1000
0100
1000
0100
1000
0100
1000
0100
1000
0100
1000
0100
1000
0100
,  // measure 78
0010
0100
0010
0100
0010
0100
0010
0100
0010
0100
0010
0100
0010
0100
0010
0100
,  // measure 79
1001
0000
0000
0000
1010
0000
0000
0000
0000
0000
0000
0000
0101
0000
0000
0001
,  // measure 80
0010
0000
0000
0000
1100
0000
0000
0000
0000
0000
0011
0000
0101
0000
0000
0010
,  // measure 81
1001
0000
0000
0000
0110
0000
0000
0000
0000
0000
0101
0000
0110
0000
0000
1000
,  // measure 82
0101
0000
0000
0000
1100
0000
0000
0000
0000
0000
1010
0000
0101
0000
0000
0010
,  // measure 83
1001
0100
0010
0001
1100
0010
0001
1000
,  // measure 84
0110
0001
1000
0100
0011
1000
0100
0010
,  // measure 85
1001
0100
0010
0001
0100
0010
1000
0010
0100
0001
1000
0100
,  // measure 86
0010
0001
0100
0010
1000
0100
1000
0001
0100
0010
1000
0001
0100
0010
0100
0001
,  // measure 87
1000
0010
0100
0001
0010
0100
1000
0001
0100
0001
1000
0100
,  // measure 88
1000
0001
0100
0001
0010
0100
1000
0010
1000
0001
0010
0100
1000
0100
0010
0001
,  // measure 89
0100
0001
1000
0100
0010
0001
1000
0010
0100
0001
0100
0001
,  // measure 90
1000
0000
0100
0000
0010
0000
0001
0000
1000
0000
0100
0000
0010
0001
1000
0100
0010
0001
1000
0100
0010
0001
1000
0100
,  // measure 91
0010
0001
0100
0010
1000
0001
1000
0100
0010
0001
1000
0001
,  // measure 92
0100
0010
1000
0001
0010
0100
1000
0010
0100
0001
1000
0001
,  // measure 93
0100
0010
0100
0010
0100
0001
0100
0001
0010
0001
0010
0100
0010
0100
1000
0100
,  // measure 94
1000
0000
0010
0000
1000
0000
0010
0000
0100
0000
0010
0000
0100
0000
0001
0000
0100
0000
0001
0000
1000
0000
0001
0000
1000
0100
0010
0001
1000
0100
0010
0001
,  // measure 95
1000
0010
0100
0010
1000
0010
0100
0010
1000
0010
0100
0010
,  // measure 96
1000
0010
0100
0010
1000
0010
0100
0010
1000
0100
0010
0001
,  // measure 97
0100
0001
0010
0100
1000
0100
0010
0100
0010
0001
1000
0010
,  // measure 98
0100
0001
0010
0100
0010
0001
0100
0010
1000
0001
0100
0001
,  // measure 99
1000
0000
0100
0000
1000
0000
0001
0000
1000
0000
0200
0000
0000
0000
0000
0000
0000
0000
0000
0000
0000
2300
0000
0000
,  // measure 100
0000
0000
3001
0000
,  // measure 101
0000
0000
0000
0000
1100
0000
0000
0010
0001
0000
0000
0000
0110
0000
0000
0000
,  // measure 102
0110
0000
0000
0000
0110
0000
0000
0000
1000
0100
0000
0000
0000
0000
0000
0000
,  // measure 103
0000
0000
0000
0000
0101
0000
0000
0010
1000
0000
0000
0000
0110
0000
0000
0000
,  // measure 104
0110
0000
0000
0000
0110
0000
0000
0000
0100
0001
0000
0000
0000
0000
0000
0000
,  // measure 105
1000
0010
0000
0000
0000
0000
0000
0000
0010
0001
0000
0000
0000
0000
0000
0000
,  // measure 106
0001
1000
0000
0000
0000
0000
0000
0000
0010
1000
0001
0100
0010
1000
0001
0100
,  // measure 107
0001
1000
0010
0100
0010
1000
0100
0010
0001
1000
0001
0100
0010
1000
0100
0010
,  // measure 108
0001
0100
0010
1000
0001
0010
0001
0100
0010
1000
0010
1000
0001
0100
0001
0100
,  // measure 109
0010
1000
0010
1000
0001
0100
0001
0100
1001
0000
0000
0000
0000
0000
0000
0000
,  // measure 110
0110
0000
1001
0000
;
