#TITLE:Over The Rainbow;
#SUBTITLE:Stairway to Fairyland (1999);
#ARTIST:Freedom Call;
#TITLETRANSLIT:;
#SUBTITLETRANSLIT:;
#ARTISTTRANSLIT:;
#CREDIT:;
#BANNER:Otr-Bn.png;
#BACKGROUND:Otr-Bg.png;
#LYRICSPATH:;
#CDTITLE:Magnatricktittle!!.png;
#MUSIC:01-Over The Rainbow.mp3;
#OFFSET:-0.360;
#SAMPLESTART:36.284;
#SAMPLELENGTH:12.000;
#SELECTABLE:YES;
#BPMS:0.000=170.020;
#STOPS:;
#BGCHANGES:;
// cache tags:
#FIRSTBEAT:0.000;
#LASTBEAT:988.000;
#SONGFILENAME:Songs/Astronomic Metal Collection/(Magna Trick) Over the Rainbow/Over the Rainbow.sm;
#HASMUSIC:1;
#HASBANNER:1;
#MUSICLENGTH:352.796;
// end cache tags

//---------------dance-single - ----------------
#NOTES:
     dance-single:
     :
     Challenge:
     12:
     1.000,1.000,0.950,0.850,1.000,2366.000,335.000,300.000,0.000,23.000:
2002
0000
0000
0000
0000
0000
0000
3003
,
0200
0000
0000
0300
2000
0000
0000
0000
,
3002
0000
0003
0002
,
2003
0000
0000
3000
0200
0000
0000
0000
,
0320
0000
0000
0000
,
0032
0000
0203
0000
,
0320
0000
0000
1030
,
0002
0000
2003
3000
,
2200
0000
0000
0000
0000
0000
0000
3300
,
0002
0000
2003
0000
,
3200
0000
0000
0320
,
0032
0000
0203
0000
,
0320
0000
0000
0000
,
0000
0000
0000
0000
0000
0000
0000
0030
,
1001
0000
0000
0000
0100
0010
0100
0010
0100
0010
0100
0010
0100
0010
0100
0010
,
0200
0000
0000
0300
2000
0000
0000
3000
,
0001
0010
0100
1000
0001
0010
0100
1000
0001
0010
0100
1000
0001
0010
0100
1000
,
0002
2003
3200
2300
,
3002
0203
0302
0000
,
0000
0000
0000
0000
,
0003
0000
0000
0000
,
2002
0000
0000
0000
0000
3003
0000
0000
,
2200
3300
0202
0303
,
0022
0000
0000
0000
0033
0000
0220
0330
,
2002
0000
0000
3003
2200
3300
2002
3003
,
0202
0000
0000
0303
,
0022
0033
0220
0330
,
2200
0000
0000
0000
3300
0000
2020
3030
,
1001
0101
0000
0000
1100
0110
0000
0000
,
2020
0000
0000
3030
,
0202
0000
0303
0000
0022
0000
0000
0033
,
0220
0000
0000
0000
0330
0000
2020
3030
,
2002
0000
0000
3003
2200
3300
0022
0033
,
0220
0000
0000
0330
,
2200
0000
0000
3300
0022
0000
0033
0000
,
0202
0000
0000
0303
,
1100
0110
0000
0000
0101
1001
0000
0000
,
1001
0001
1000
0100
0010
0001
0010
0100
,
1010
0110
0100
0001
0010
0100
1000
0010
,
1001
0101
0010
0100
0010
0001
1000
0010
,
1000
0101
0000
1001
0000
0220
0000
0330
,
1001
0101
1000
0100
1000
0001
0100
0001
,
0011
0101
0010
1000
0010
0001
0100
0010
,
0011
0101
1000
0010
1000
0100
0010
0001
,
0100
0010
1000
0001
0010
0100
1000
0010
0100
0001
1000
0100
0010
0001
0100
0010
,
1001
0010
1100
0010
0101
1000
0011
1000
,
0110
0011
1000
0100
0010
0001
0100
0010
,
1010
0100
0011
1000
0110
1001
0010
1100
,
0010
1001
0100
0101
1000
1001
1001
0100
,
1001
0100
0010
0001
0100
0010
1000
0001
,
0011
0100
0110
1010
0001
1000
0110
1001
,
0100
1001
0100
0010
0001
0010
0100
1000
,
0020
0000
0000
0000
2030
0000
0000
0000
3001
1000
0001
1000
0001
1000
0001
1000
,
0100
0000
1000
0000
0001
0100
0001
0010
0100
0000
1000
0000
0100
0010
0001
0000
,
1000
0000
0010
0000
0100
0001
0010
0100
1000
0000
0010
0000
0100
0001
0010
0000
,
0100
0000
1000
0000
0001
0100
0001
1000
0010
0000
1000
0000
0001
0100
0001
0000
,
1000
0000
0100
0000
0010
0001
0010
0100
1000
0000
0100
0000
0010
0001
0100
0000
,
0010
0000
1000
0000
0100
0010
0001
1000
0100
0000
0010
0000
0001
0100
0010
0000
,
1000
0000
0001
0000
0100
0010
1000
0001
0010
0000
0100
0000
1000
0001
1000
0000
,
0100
0000
0010
0000
0001
0100
0010
1000
0001
0000
0010
0000
0100
1000
0100
0000
,
1000
0000
0001
0000
0100
0010
1000
0001
2000
0000
3100
0000
1000
0100
0010
0001
,
0100
0010
1000
0100
0010
0001
0100
0010
1000
0001
0010
0100
1000
0100
0010
0001
,
0100
0010
1000
0001
0010
1000
0010
0100
0010
0001
0100
0010
1000
0010
0100
0001
,
1000
0001
1000
0100
0010
0001
0010
0001
1000
0010
0100
0001
1000
0100
0010
0001
,
0010
0100
1000
0100
1000
0010
0100
0010
0100
0001
1000
0001
1000
0100
0010
0100
,
1010
0001
0100
0001
0100
0010
1000
0010
1001
0100
0010
0100
0010
0001
1000
0010
,
1100
0001
1000
0100
0010
0001
0100
0010
1001
0010
1000
0100
0010
0100
0010
0001
,
1100
0001
0100
0010
1000
0100
0010
0001
1100
0001
1000
0010
1000
0001
0100
0001
,
1000
0100
1000
0001
0010
0001
1000
0010
1000
0001
0010
0001
0100
0001
1000
0010
,
1200
2300
0100
0010
3200
0010
2300
0100
,
3012
0023
0001
1230
0010
0001
0010
0301
,
0120
0230
1000
0010
2300
0010
3200
0320
,
0001
0100
0001
0100
0001
0130
0001
0100
,
2001
0010
3200
0010
2300
0010
3002
0010
,
0203
0302
0100
2013
0100
0010
3100
0010
,
1002
0203
0010
2300
0010
0100
3002
0010
,
0203
1000
0010
1300
0010
1000
0010
0100
,
2001
0000
3001
0000
,
2100
0000
3001
0000
,
0202
0000
0303
0022
0000
0033
2020
3030
,
0022
0000
0000
0033
2002
3003
2002
3003
,
0202
0000
0303
2020
0000
3030
2002
3003
,
2200
0000
3300
0022
0000
0033
2002
3003
,
0220
0000
0000
0000
0000
0330
0202
0303
,
0011
0100
1000
0100
0010
0001
0100
0010
2000
0000
0000
0000
0000
0000
0000
0000
,
3010
0000
0001
0000
1000
0010
1000
0100
0010
0000
0001
0000
0010
0100
1000
0000
,
0001
0000
0100
0000
0010
1000
0100
0010
0001
0000
0100
0000
0010
1000
0100
0000
,
0010
0000
0001
0000
1000
0010
1000
0001
0100
0000
0001
0000
1000
0010
1000
0000
,
0001
0000
0010
0000
0100
1000
0100
0010
0001
0000
0010
0000
0100
1000
0010
0000
,
0100
0000
0001
0000
0010
0100
1000
0001
0010
0000
0100
0000
1000
0010
0100
0000
,
0001
0000
1000
0000
0010
0100
0001
1000
0100
0000
0010
0000
0001
1000
0001
0000
,
0010
0000
0100
0000
1000
0010
0100
0001
1000
0000
0100
0000
0010
0001
0010
0000
,
0001
0000
0010
0000
0100
1000
0100
0010
0001
0010
0100
1000
0010
0100
0001
0010
,
0100
1000
0010
1000
0100
0010
0001
0100
0010
1000
0100
0010
0001
0100
1000
0100
,
0001
1000
0010
1000
0001
0010
0100
1000
0010
0100
0001
0010
0100
1000
0010
0100
,
0001
0010
0100
1000
0010
1000
0001
1000
0100
1000
0001
0010
0001
1000
0001
0100
,
0001
1000
0010
0100
0010
0100
0001
1000
0010
0100
0001
0010
0100
1000
0010
0100
,
1001
0100
0001
0100
0001
0100
0001
1000
0110
1000
0010
1000
0010
1000
0010
0100
,
1001
0100
0001
0100
0001
0100
0010
1000
0101
1000
0100
1000
0100
1000
0010
0100
,
0011
0100
0010
0100
0010
1000
0010
1000
0100
0010
0001
0100
0010
1000
0001
0010
,
0100
1000
0010
0100
0001
0010
0100
1000
0010
1000
0100
0010
0001
0010
0100
1000
,
0110
0120
1000
0100
1032
0010
0203
0010
,
2300
3002
1000
0123
1000
0100
1000
0130
,
0002
0023
0100
1030
0120
1000
0032
2003
,
0100
0010
0100
3010
2100
0010
3002
1000
,
0123
1000
0001
0130
2010
0100
3002
0100
,
2003
0010
3200
2300
0010
0100
0010
3100
,
0201
0010
0302
1000
0023
0100
2030
3020
,
0032
0013
0200
0010
2310
0100
3002
0000
,
1103
0100
1000
0100
1000
0100
1000
0100
,
0101
0001
0100
0001
0100
0001
0100
0001
,
1010
0001
1000
1001
0001
0010
0110
0001
,
1010
0001
0100
0010
1001
0100
1001
0001
,
0101
0001
1000
1100
0001
1000
1001
0001
,
0101
0001
1000
1010
0100
0010
0011
0100
,
1010
0001
0100
0010
1000
0100
0010
0001
,
1000
0100
1000
0100
0010
0001
0010
0001
0100
0010
0100
0010
1000
0001
1000
0001
,
0110
0001
1000
1100
0010
0001
0101
0010
,
0101
1000
0001
0101
0010
1000
1100
0010
,
1001
0100
0010
0101
1000
0100
0011
0100
,
1010
0100
0010
0001
0200
0320
2030
3001
,
0101
0010
0100
1000
0100
0010
0001
0010
0100
1000
0010
0100
0001
0010
0100
1000
,
0010
1000
0010
0100
0001
0100
0001
0010
0100
0010
0100
1000
0010
0100
0001
0010
,
0100
1000
0010
1000
0010
0100
0001
0100
0001
0010
0100
0010
0100
1000
0010
0100
,
0002
1000
0100
1000
0100
1000
0100
1003
,
1010
0010
1000
1001
0001
0010
0110
0100
,
1010
0001
0100
0110
0001
1000
1010
0100
,
1001
0100
0010
0011
0100
1000
0110
0001
,
1010
0100
1000
0001
1000
0100
0010
0001
,
0110
1000
0100
0010
0001
0100
0010
1000
0100
0010
0001
0100
0010
1000
0001
1000
,
0010
1000
0001
0010
0001
1000
0001
0010
0001
1000
0010
0100
0001
0010
0100
1000
,
0011
0100
0010
1000
0100
0010
0100
0010
0001
0100
0010
0100
0011
1000
0100
0010
,
0101
1000
0100
0010
0001
1000
0010
1000
0011
0100
0001
1000
0010
0100
0001
1000
,
0101
0010
1000
0100
0010
0001
0100
0010
1100
0010
1001
0100
0010
1000
0001
1000
,
0101
0010
1000
0001
0100
0010
0101
0010
0101
0010
1000
0001
0010
0100
1000
0010
,
0200
0010
1000
0310
2000
0100
0010
3001
0200
0010
1000
0310
2000
0100
0010
3001
,
0200
0010
1000
0310
1000
0001
0010
0100
1000
0100
0010
0001
0200
0010
2300
0100
,
3020
0001
0130
0010
1000
0001
0010
0100
1001
0100
0010
0001
0100
0010
1000
0001
,
0110
0001
0010
0100
1000
0010
1000
0010
0101
0010
1000
0001
0010
0100
1000
0001
,
0110
0001
1000
0010
0100
0001
0010
0100
1001
0010
1000
0100
0010
0001
0100
0010
,
1000
0100
0010
0001
0010
0001
0010
0100
1000
0010
0100
0001
0010
0100
1000
0010
,
2100
3120
0001
0130
2001
0010
3201
0010
,
0312
0213
1000
0311
1000
0100
0010
0001
,
2010
3201
0310
0001
0201
1000
0321
0231
,
0010
1000
0310
1000
2100
0010
3201
0010
,
0302
0010
2003
0100
3002
0010
2003
0100
,
3020
2030
0100
3102
0010
0100
0010
0103
,
0021
1000
0230
1000
0320
0001
0230
2300
,
0200
3010
0301
1000
0100
1000
0001
0100
,
0011
0001
0010
0100
1000
0010
0100
0001
,
0101
0001
1000
0010
1000
0100
0010
0001
,
0110
0100
1000
1010
0010
0100
0101
0001
,
0110
0100
1000
0010
1001
0100
1001
0100
,
0011
0100
1000
0110
0001
0100
1010
0001
,
1100
0100
0010
0011
0100
1000
0110
1000
,
0101
0001
1000
0100
1000
0001
0110
0100
,
1010
0001
0100
0010
1000
0001
0010
0100
1000
0010
1000
0100
0010
0001
1000
0100
,
0011
1000
0001
1001
0100
1000
1100
0100
,
0110
0100
0010
0101
0001
0100
1010
0001
,
1010
0100
1000
0011
0100
1000
0110
0001
,
1010
0100
1000
0001
0100
0010
1000
0001
,
0110
1000
0100
0010
0001
0100
0010
1000
0001
0010
0100
0010
0100
1000
0001
1000
,
0001
0010
0100
0010
0100
1000
0100
0010
0001
0100
0010
1000
0100
0010
0001
0100
,
0010
1000
0100
1000
0100
1000
0100
1000
0100
1000
0100
1000
0010
0100
0001
0010
,
0100
0010
0100
0010
0100
0010
0100
0010
0100
1000
0100
0010
0001
0100
0010
1000
,
0110
0010
1000
1001
0100
0010
0011
0100
,
1010
0001
0100
1010
0001
1000
1100
0100
,
0011
0100
0010
1001
0010
0100
1001
0010
,
1100
0001
0010
0100
1000
0010
0100
0001
,
1010
0001
0100
0010
1000
0001
0010
0100
1000
0010
0100
0001
0010
0100
1000
0010
,
1000
0001
1000
0010
1000
0100
1000
0010
0001
0010
1000
0100
0010
0001
0100
0010
,
1000
0100
0010
0100
0010
0100
0010
0100
0010
0100
0010
0001
0100
0010
1000
0100
,
0010
0001
0100
0001
0100
0001
0100
0001
0100
0001
0100
0010
1000
0100
0010
0001
,
0220
1330
0001
1000
,
0100
1000
0001
0100
,
1001
0000
0110
0000
0001
0100
0001
0100
0001
0000
1100
0000
0010
1000
0010
0000
,
1001
0000
1001
0000
0100
1000
0100
1000
0100
0000
1001
0000
0100
0010
0100
0000
,
0110
0000
0110
0000
0001
0010
0001
0010
0001
0000
0011
0000
0001
1000
0001
0000
,
0101
0000
0101
0000
0010
1000
0010
1000
0010
0000
0110
0000
0100
0010
0100
0000
,
0210
0000
0010
0000
0010
0010
0010
0010
0010
0000
0010
0000
0010
0010
0010
0000
,
2301
0000
0001
0000
0001
0001
0001
0001
3002
0000
0100
0000
0100
0100
0100
0000
,
0203
0000
0010
0000
0010
0010
0010
0010
0010
0000
0010
0000
0010
0010
0310
0000
,
0020
0000
1000
0000
1000
1000
1000
1000
2030
0000
0001
0000
0001
0001
0001
0000
,
3002
0000
1000
0000
1000
1000
1000
1000
1000
0000
1000
0000
1000
1000
1003
0000
,
2000
0000
0100
0000
0100
0100
0100
0100
3200
0000
0010
0000
0010
0010
0010
0000
,
0320
0000
0001
0000
0001
0001
0001
0001
0001
0000
0001
0000
0001
0001
0001
0000
,
0032
0000
1000
0000
1000
1000
1000
1000
1000
0000
1003
0000
1000
0100
0010
0000
,
1001
0000
0110
0000
0010
1000
0010
1000
0010
0000
1001
0000
0100
0010
0100
0000
,
1001
0000
0100
0000
1000
0100
1000
0100
1100
0000
0010
0000
0001
0100
0001
0000
,
0101
0000
0010
0000
0100
1000
0100
1000
0100
0000
0010
0000
0011
0100
0001
0000
,
0110
0000
1000
0000
0100
1000
0100
1000
1100
0000
0010
0000
1001
0100
0010
0000
,
0110
0000
1000
0000
0010
1000
0010
1000
0010
0000
0100
0000
0001
0100
0001
0000
,
0101
0000
1000
0000
0100
0001
0100
0001
0101
0000
1000
0000
0010
0100
0010
0000
,
0110
0000
1000
0000
0001
0010
0001
0010
0001
0000
0100
0000
0010
1000
0010
0000
,
1100
0010
0001
0100
0010
1000
0001
0010
0100
1000
0010
0100
0001
1000
0100
0010
,
0002
0000
0000
0000
0000
0000
0000
0000
0000
0000
0000
0000
1103
0000
0000
1010
,
0000
0000
0000
0000
1200
0000
0000
0000
0000
0000
0000
0000
0000
0000
0000
0000
0000
0000
0301
0000
0000
0010
0000
0000
0002
0000
0000
0000
0000
0000
0000
0000
0000
0000
0000
0000
0003
0000
0000
0000
0000
0000
0000
0000
0000
0000
0000
0000
,
2002
0000
0000
3003
0000
0000
0001
0010
0100
1000
0001
0010
,
0200
0000
0000
0000
0000
0000
0000
0000
0000
0300
0000
0000
1001
0000
0010
0000
0001
0000
1100
0000
0010
0000
0100
0000
,
2002
0000
0000
0000
0000
0000
3003
0000
0000
1001
0000
0000
0100
0000
0010
0000
0001
0000
1100
0000
0010
0000
0100
0000
,
2002
0000
0000
0000
0000
0000
3003
0000
0000
0101
0000
0000
0001
0000
0010
0000
0100
0000
0011
0000
1000
0000
0001
0000
,
0220
0000
0000
0000
0000
0330
0002
0000
,
2003
0000
0000
3000
,
1001
0000
0000
0101
0000
0000
0011
0000
,
0110
0000
0000
1100
0000
0000
1010
0000
,
0110
0001
1000
1100
0001
0100
0101
0001
,
0010
0100
1000
0002
0000
0000
1103
0000
0000
1001
0000
0000
,
0202
0000
0303
2002
3003
0000
1100
0000
,
2002
0000
3003
0202
0000
0303
0011
0000
,
0220
0000
0330
2000
,
3002
0000
0000
0000
0000
0000
0000
0000
0000
0000
0000
0000
1003
0000
0000
0000
0100
0000
0000
0000
0010
0000
0000
0000
0001
0000
0000
0000
1000
0000
0000
0000
0010
0000
0100
0000
0001
0000
0000
0010
0000
0000
0100
0000
0000
1000
0000
0000
,
0220
0000
0330
2002
0000
3003
2200
3300
,
2002
0000
3003
0202
0000
0303
0022
0033
,
0220
0000
0330
1100
1000
1000
1001
1000
,
1010
0000
0000
0000
0000
0000
1000
0000
0000
0000
0000
0000
1000
0000
0000
0000
0000
0000
1000
0000
0000
0100
0000
0000
1000
0000
0000
0100
0000
0000
0010
0000
0001
0000
1000
0000
0100
0000
0000
0010
0000
0000
0001
0000
0100
0000
0010
0000
,
2001
0100
0010
3001
0100
0010
0200
0010
1000
0310
1000
0100
0020
0001
0100
0031
,
0200
0010
1000
0310
1000
0100
0020
0001
0100
0031
0100
0010
0200
0010
1000
0310
,
2000
0100
0010
3001
1000
0100
0010
0001
0100
0010
1000
0001
0200
0010
1000
0301
,
0020
0100
1000
0031
0100
1000
0100
0001
0010
1000
0010
0001
0100
0010
1000
0001
,
0200
0010
1000
0301
0010
0100
2000
0100
0010
3001
0100
0010
2000
0100
0010
3001
,
0020
0100
1000
0130
0001
0100
2000
0010
0001
3010
0100
0001
0200
0001
0010
1300
,
0020
1000
0001
1030
0001
0010
0200
1000
0010
1300
0001
0010
0200
1000
0010
1300
,
0100
0010
0001
0100
0001
1000
0100
0010
0001
0100
0001
1000
0001
0010
0001
0010
,
0200
1000
0010
1300
0001
0010
0200
1000
0010
1300
0001
0010
0002
0010
0100
1003
,
0200
0010
0001
1300
0010
0100
0002
0010
0100
1003
0010
0100
0002
0010
0100
1003
,
0020
0100
0001
0130
0010
1000
0001
0010
0100
1000
0001
0100
0002
0010
0100
1003
,
0020
1000
0100
1030
0100
0010
0001
0100
0010
1000
0001
0010
0100
1000
0010
1000
,
0101
0010
1000
0100
0010
0001
0110
0001
0010
0100
1000
0001
0110
0001
0010
0001
,
1100
0001
0010
0100
1000
0001
0110
1000
0010
0100
0001
0010
1001
0010
0100
0010
,
0101
0010
1000
0001
0010
0100
0011
1000
0100
0010
0001
1000
0110
0001
0100
0001
,
1010
0001
0100
0010
1000
0001
0010
0100
1000
0010
1000
0010
0100
0001
0100
0001
,
0110
0001
1000
0001
0010
0100
1010
0100
0010
0001
0100
0010
1001
0010
0001
0010
,
1100
0010
0100
1000
0010
1000
0101
0010
1000
0001
0010
0100
0011
0100
1000
0100
,
0011
0100
0010
0001
0100
0010
1000
0001
0010
0100
1000
0010
1100
0010
0001
0100
,
0011
0100
1000
0010
0100
0001
0010
0100
1000
0001
0100
0010
1000
0001
0010
0100
,
1001
0100
0010
0001
0010
0001
1100
0010
0100
1000
0010
0100
1001
0100
0010
0001
,
0110
0001
0010
0100
1000
0001
0110
0001
0100
0010
1000
0001
1010
0001
0010
0100
,
1001
0010
0100
1000
0001
0100
1001
0010
0100
0001
0010
0100
1001
0100
0010
0100
,
1001
0010
0001
0100
0010
1000
0001
0010
0100
1000
0010
0100
0001
0010
0100
1000
,
0101
0010
0001
0100
0010
1000
0011
1000
0100
0010
0001
1000
0110
0001
0010
0001
,
1100
0010
0100
0010
0001
0100
1010
0001
0100
0010
1000
0001
1010
0100
0001
0100
,
1010
0001
0100
0010
1000
0001
0010
0100
1000
0010
1000
0001
1100
0010
0001
0010
,
0101
0010
1000
0100
0010
0001
0100
0010
1000
0001
0010
0100
1000
0001
0100
0010
,
2000
0100
0010
3001
0100
0010
2000
0100
0010
3001
0100
0010
2000
0100
0010
3001
,
0200
0010
1000
0301
0010
0100
2000
0010
0100
3001
0010
0100
0020
0100
1000
0031
,
0200
0010
1000
0301
0010
0100
2000
0100
0010
3001
0100
0010
2000
0100
0010
3100
,
2002
0000
0000
0000
,
3003
0000
0000
0000
;
