#TITLE:Holic;
#SUBTITLE:(Bounce-Connected Mix);
#ARTIST:TaQ;
#TITLETRANSLIT:;
#SUBTITLETRANSLIT:;
#ARTISTTRANSLIT:;
#CREDIT:;
#BANNER:holicbounce.png;
#BACKGROUND:holicbounce-bg.png;
#LYRICSPATH:;
#CDTITLE:!plasmixcdtitle.png;
#MUSIC:TaQ_-_bounce-connected_-_Disc1_03_Holic.mp3;
#OFFSET:-0.040;
#SAMPLESTART:37.142;
#SAMPLELENGTH:14.000;
#SELECTABLE:YES;
#BPMS:0.000=155.030;
#STOPS:;
#BGCHANGES:;
// cache tags:
#FIRSTBEAT:0.000;
#LASTBEAT:159.500;
#SONGFILENAME:Songs/Keys of Flames/Holic (Bounce Connected) (plasmix)/holicbounce.sm;
#HASMUSIC:1;
#HASBANNER:1;
#MUSICLENGTH:61.988;
// end cache tags

//---------------dance-single - ----------------
#NOTES:
     dance-single:
     :
     Hard:
     11:
     1.000,0.965,1.000,0.000,1.000,417.000,87.000,0.000,0.000,0.000:
1010
0000
0000
1010
0000
0101
0101
0000
,
0110
0000
0000
0110
0000
1001
1001
0000
,
0101
0000
0000
0101
0000
1010
1010
0000
,
1001
0000
0000
1001
0000
0110
0110
0000
,
1001
0000
0100
0010
0000
0000
0100
0010
0000
0000
0100
0010
0000
0000
0100
0010
,
0000
0000
1000
0001
0000
0000
1000
0001
0000
0000
1000
0001
0000
0000
1000
0001
,
0000
0000
1000
0100
0000
0000
0010
0001
0000
0000
1000
0100
0000
0000
0010
0001
,
0000
0000
0010
0000
0000
0010
0000
0000
0000
0000
0000
0010
0000
0000
0010
0000
,
1001
0000
1000
0010
0100
0000
1000
0010
0100
0001
1000
0010
0101
0000
1000
0000
,
1001
0000
0010
0001
0100
0000
0010
0001
0100
1000
0010
0001
1100
0000
0010
0000
,
1001
0000
1000
0100
0010
0000
1000
0100
0010
0001
1000
0100
0011
0000
1000
0000
,
1001
1000
0010
0100
0001
0000
0010
0100
0001
0000
0010
0100
1001
0000
0010
0000
,
0110
0000
0001
0010
1000
0000
0001
0010
1000
0100
0001
0010
1100
0000
0001
0000
,
0110
0000
0100
0001
1000
0000
0100
0001
1000
0010
0100
0001
1010
0000
0100
0000
,
0110
0000
0010
1000
0100
0000
0010
1000
0100
0001
0010
1000
0101
0000
0010
0000
,
0110
0010
1000
0001
0100
0000
1000
0001
0100
0000
1000
0001
0110
0000
1000
0000
,
1100
0000
0001
0100
0010
0000
0001
0100
0010
1000
0001
0100
1010
0000
0001
0000
,
1100
0000
1000
0001
0010
0000
1000
0001
0010
0100
1000
0001
0110
0000
1000
0000
,
1100
0000
0001
0100
1000
0000
0001
0100
1000
0010
0001
0100
1010
0000
0001
0000
,
1100
0100
0010
0001
1000
0000
0010
0001
1000
0000
0010
0001
1100
0000
0010
0000
,
0101
0000
0010
0100
0001
0000
0010
0100
0001
1000
0010
0100
1001
0000
0010
0000
,
0101
0000
1000
0001
0010
0000
1000
0001
0010
0100
1000
0001
0110
0000
1000
0000
,
0101
0000
1000
0100
0001
0000
1000
0100
0001
0010
1000
0100
0011
0000
1000
0000
,
0101
0001
1000
0010
0100
0000
1000
0010
0100
0000
1000
0010
0101
0000
1000
0000
,
1001
0000
0010
0100
1000
0000
0001
0100
1000
0001
0010
0100
1001
0000
0001
0000
,
1010
0000
0001
0100
0010
0000
1000
0100
0010
1000
0001
0100
1010
0000
1000
0000
,
0011
0000
1000
0100
0010
0000
0001
0100
0010
0001
1000
0100
0011
0000
0001
0000
,
0110
0010
1000
0001
0100
0000
0010
0001
0100
0000
1000
0001
0110
0000
0010
0000
,
1001
0000
0100
0010
1000
0000
0010
0100
0001
1000
0100
0010
1001
0000
0010
0000
,
0101
0000
0010
1000
0001
0000
0100
0001
1000
0100
0010
1000
0101
0000
0100
0000
,
1100
0000
0001
0010
0100
0000
1000
0100
0010
1000
0001
0010
1100
0000
1000
0000
,
0110
0100
0001
1000
0100
0000
1000
0001
0010
0000
0001
1000
0110
0000
1000
0000
,
1001
0100
0100
1001
0100
1010
1010
0100
,
1010
0001
0001
1010
0001
0110
0110
0001
,
0011
0100
0100
0011
0100
1010
1010
0100
,
0110
0010
1000
0001
0100
0000
0001
1000
0010
0000
1000
0001
0110
0000
0001
0000
,
1001
0000
0100
0001
1000
0000
0010
0001
1000
0010
0100
0001
1010
0000
0010
0000
,
1001
0000
0010
1000
0100
0000
0001
0010
0100
0001
0010
1000
0101
0000
0001
0000
,
1001
0000
1000
0100
0001
0000
0100
0010
0001
0010
1000
0100
0011
0000
0100
0000
,
1001
0001
0100
0010
1000
0000
0010
0001
1000
0000
0100
0010
1001
0000
0010
0000
;
