#TITLE:Angelicus;
#SUBTITLE:Andy Moor Radio Edit;
#ARTIST:Delerium featuring isabel Bayrakdarian;
#TITLETRANSLIT:;
#SUBTITLETRANSLIT:;
#ARTISTTRANSLIT:;
#CREDIT:;
#BANNER:Angelicus (Andy Moor Radio Edit).png;
#BACKGROUND:Angelicus (Andy Moor Radio Edit)-bg.png;
#LYRICSPATH:;
#CDTITLE:;
#MUSIC:Angelicus (Andy Moor Radio Edit).ogg;
#OFFSET:-23.580;
#SAMPLESTART:82.920;
#SAMPLELENGTH:12.000;
#SELECTABLE:YES;
#BPMS:0.000=130.000,56.000=65.000,60.000=130.000,120.000=65.000,122.000=440.001,124.000=130.000;
#STOPS:;
#BGCHANGES:;
// cache tags:
#FIRSTBEAT:0.000;
#LASTBEAT:248.250;
#SONGFILENAME:Songs/new cedric/Angelicus (Andy Moor Radio Edit)/Angelicus (Andy Moor Radio Edit).sm;
#HASMUSIC:1;
#HASBANNER:1;
#MUSICLENGTH:142.244;
// end cache tags

//---------------dance-single - ----------------
#NOTES:
     dance-single:
     :
     Challenge:
     12:
     0.883,0.894,0.183,0.176,1.000,828.000,26.000,25.000,20.000,0.000:
1000
0001
1000
0000
0001
0010
0001
0000
0100
0001
0100
0000
0010
1000
0010
0000
,
0100
0010
0100
0000
0010
1000
0010
0000
0100
0001
0100
0000
0001
0010
0001
0000
,
1000
0100
1000
0000
0001
0100
0001
0000
0010
0001
0010
0000
0100
1000
0100
0000
,
1000
0010
1000
0000
0010
0100
0010
0000
0100
0010
0100
0000
0001
0100
0001
0000
,
1000
0001
0100
0000
0001
0010
0100
1000
0000
0001
0100
0010
0000
1000
0100
1000
,
0000
0010
1000
0001
0000
0100
0010
1000
0000
0001
1000
0100
0000
0010
0001
0100
,
0010
1000
0010
1000
0010
0100
0010
0100
0000
0001
1000
0001
1000
0010
0100
0001
,
0000
0100
0001
0100
0010
1000
0001
0010
0100
1000
0100
0010
0001
1000
0100
0000
,
0101
0001
0100
0000
0010
1000
0010
0000
0100
0010
0100
0000
0001
0010
0001
0000
,
0011
0010
0001
0000
0010
1000
0010
0000
1000
0001
1000
0000
0010
0001
0010
0000
,
0110
0010
0100
0000
1000
0100
1000
0000
0001
0100
0001
0000
0010
1000
0010
0000
,
1100
1000
0100
0000
0010
1000
0010
0000
0100
0010
0100
0000
0001
1000
0001
0000
,
0010
1000
0001
0000
0100
0010
1000
0001
0000
0100
0010
0100
0000
0001
1000
0001
,
0000
1000
0010
0100
0000
0001
1000
0010
0000
0001
0010
0100
0000
1000
0010
0100
,
0000
0001
0100
0010
0000
1000
0010
0100
0000
0001
1000
0100
0000
0001
0100
0010
0000
0010
1000
0001
0000
0001
1000
0100
0000
1000
0001
0010
0100
0010
0100
0010
,
0001
1000
0100
1000
0011
0000
0100
0010
0100
1000
0100
0010
0001
0100
0001
0000
,
1000
0001
0010
0100
1100
0000
0100
0001
0010
0100
0010
0001
1000
0010
0100
0000
,
0001
1000
0001
1000
1010
0000
0001
0100
0001
1000
0100
1000
0010
0001
0010
1000
,
0100
0000
1000
0001
0110
0000
1000
0100
1000
0000
0010
0100
0001
0000
0001
1000
,
0010
0100
0001
0100
0000
0001
1000
0100
0000
0001
0100
0010
0000
1000
0001
0010
,
0000
1000
0010
0100
0000
0010
1000
0001
0000
1000
0100
0010
0000
0000
0001
0100
,
0010
1000
0010
1000
0001
1000
0100
1000
0000
0001
0100
0001
0010
0100
1000
0010
,
0000
0100
0001
0010
0100
1000
0100
0010
0001
1000
0010
0100
0001
1000
0010
0000
,
1001
0100
0001
0000
0010
0100
1000
0000
1010
0100
0010
0000
1000
0001
0100
0000
,
0101
0010
0001
0000
1000
0001
1000
0000
1100
0010
0100
0000
0100
0001
0100
0000
,
0011
1000
0010
0000
0001
0100
0010
0000
1010
0001
0100
0000
0010
1000
0001
0000
,
1010
0001
0010
0000
0010
0100
0010
0000
1001
0100
0001
0000
0010
0100
1000
0000
,
0001
0100
0010
1000
0010
0100
0001
0010
0000
1000
0010
1000
0100
1000
0001
0010
,
0000
1000
0100
0010
0100
1000
0001
0100
0000
0001
0100
0010
1000
0100
0001
0000
,
1000
0010
1000
0010
0100
0001
0100
0001
0010
0100
1000
0001
0010
0100
1000
0010
,
0000
0010
0100
0010
0000
0001
0010
0100
0000
1000
0010
0100
0001
1000
0001
0100
0020
0000
0000
0000
0000
0000
0000
0000
0000
0000
0000
0000
0000
0000
0000
0000
,
1030
0001
0100
0010
0100
0001
2000
0000
3001
1000
0001
1000
0010
0100
0002
0000
,
1003
0100
1000
0010
0100
0001
0200
0000
0301
0010
0001
1000
0010
0100
0002
0000
,
0103
0010
1000
0010
1000
0001
0020
0000
0031
0100
0010
1000
0010
1000
0200
0000
,
0310
0100
0010
0001
0100
0001
0020
0000
0130
1000
0010
1000
0001
0010
0002
0000
,
0103
0001
1000
0001
0010
0001
0200
0000
0301
0100
0010
1000
0001
0100
0020
0000
,
1030
0001
0010
0100
1000
0001
0020
0000
0130
1000
0010
0100
0001
0010
0200
0000
,
0310
0001
0100
0001
0100
0010
1000
0010
0100
0001
0010
0100
0010
0001
1000
0000
,
1010
0000
1001
0000
0011
0000
0110
0000
0010
0100
1000
0001
0010
0001
1000
0000
,
1000
0010
1000
0001
0010
0001
2000
0000
3001
0100
0010
1000
0010
1000
0002
0000
,
0103
0010
1000
0001
0100
0001
0020
0000
0130
1000
0100
0010
0001
0010
0002
0000
,
0103
0010
1000
0010
0100
0010
2000
0000
3001
0010
0100
1000
0010
1000
0002
0000
,
0013
0100
1000
0010
0100
0001
0020
0000
0031
0010
0001
1000
0100
1000
0200
0000
,
1300
0001
0100
0010
0100
0010
0200
0000
0301
1000
0001
0010
0100
1000
0020
0000
,
1030
0010
0100
0001
1000
0010
0200
0000
0310
0100
0010
1000
0001
1000
0002
0000
,
0013
0100
0010
0000
1100
0010
0001
0000
1000
0001
0100
0000
0011
0100
0010
0000
,
0010
0100
1000
0100
1000
0010
0100
0001
1000
0010
1000
0001
0010
0001
0100
0010
,
1000
0000
00M0
0001
0100
0010
1000
0010
0100
0000
0M00
0001
0100
0010
1000
0100
,
0010
0000
000M
1000
0001
0100
0001
0010
0100
0000
0M00
0010
0100
0010
0001
1000
,
0100
0000
000M
1000
0001
1000
0001
0100
0010
0000
M000
0010
0100
0001
0010
0100
,
1000
0000
00M0
1000
0001
0100
0010
1000
0100
0000
M000
0001
1000
0001
0100
0001
,
0010
0000
0001
0100
1001
0000
1000
0010
0100
0000
0010
0100
0011
0000
1000
0001
,
0100
0000
0001
1000
0110
0000
1000
0010
0100
0000
0001
0010
1100
0000
1000
0001
,
0100
0000
M000
0010
0100
0010
1000
0010
0100
0000
000M
1000
0010
0100
0010
1000
,
0001
0000
00M0
0001
0100
0010
1000
0001
0100
0001
0010
0100
1000
0010
1000
0010
,
0100
0000
M000
0001
0100
0010
1000
0001
0100
0000
0001
0100
0001
0010
0100
0010
,
0001
0000
0001
0010
0100
0010
0100
0001
1000
0000
00M0
1000
0010
0100
0001
0010
,
0100
0000
0010
0100
1000
0001
1000
0100
0000
0000
000M
1000
0010
0100
0010
1000
,
0001
0000
0001
0100
0010
1000
0001
0100
0001
0000
0001
0100
0010
0100
0001
1000
,
0010
0000
00M0
0001
0100
0010
1000
0100
1000
0000
0M00
0001
0010
0001
1000
0001
,
0100
0000
0010
1000
0010
1000
0100
1000
0001
0000
0001
1000
0010
0100
0010
0000
,
1000
0001
1000
0010
0100
0001
0010
0100
1000
0010
0100
0001
0100
0010
1000
0001
,
MM1M
00M0
0000
0000
0000
0000
0000
0000
0000
0000
0000
0000
0000
0000
0000
0000
;

//---------------dance-single - ----------------
#NOTES:
     dance-single:
     :
     Hard:
     8:
     0.450,0.458,0.281,0.218,0.032,377.000,40.000,31.000,0.000,0.000:
0001
0000
1000
0100
0001
0000
1000
0100
,
0001
0000
1000
0100
0001
0001
0100
1000
,
0001
0000
1000
0010
0001
0000
1000
0010
,
0001
0000
1000
0010
0001
0001
0010
1000
,
0001
0000
1000
0001
0010
0000
1000
0010
,
0100
0000
0001
1000
0010
0000
0001
0010
,
0100
0100
1000
1000
0001
0001
0100
0100
,
0010
1000
0010
1000
0100
0010
0100
0010
,
1000
0000
0001
0100
1000
0000
0001
0100
,
1000
0000
0001
0100
1000
1000
0100
0001
,
1000
0000
0001
0010
1000
0000
0001
0010
,
1000
0000
0001
0010
1000
1000
0010
0001
,
1000
0000
0001
1000
0010
0000
0001
0100
,
0010
0000
1000
0001
0010
0000
1000
0010
,
0100
0000
0001
0100
0001
0000
1000
0010
1000
0000
0001
0100
0001
0100
0010
1000
,
0010
0100
0010
0000
0010
1000
0010
1000
,
0001
0010
0001
0000
0001
0010
0001
0100
,
0010
0100
0001
0011
,
0101
1001
0101
0011
,
0001
0000
0010
0100
0010
0000
0100
0001
,
0100
0000
0001
1000
0001
0000
0100
0010
,
1000
0100
1000
0100
1000
0010
1000
0010
,
0100
0001
0100
0001
0100
0010
1000
0001
,
0100
0010
0100
0000
0001
0010
0001
0010
,
0100
1000
0100
0000
1000
0010
1000
0001
,
0010
0001
1000
1100
,
1010
1001
1010
1100
,
1000
0000
0100
0001
0100
0000
0010
1000
,
0010
0000
0100
0010
0100
0000
0010
0100
,
0001
0010
0001
0010
0001
1000
0001
1000
,
0001
1000
0010
0100
0001
1000
0010
0200
0000
0000
0000
0000
0000
0000
0000
0000
,
0301
2000
0000
0010
0000
3002
0000
0100
,
0000
0023
0000
0100
0000
2030
0000
0010
,
0000
3002
0000
0100
0000
0203
0000
0010
,
0000
0302
0000
0010
0000
0203
0000
0010
,
0000
2300
0000
0001
0000
3200
0000
0010
,
0000
0320
0000
0001
0000
2030
0000
0100
,
0000
3002
0000
0010
0000
0203
0000
1000
,
0000
0320
0000
0001
0000
0130
0000
0010
,
1001
0010
0100
0001
0100
0010
1000
0100
,
1000
0010
0100
0001
1000
0010
0100
0001
,
0010
0100
0010
0001
0010
1000
0010
0100
,
0010
0001
0010
0100
0010
0100
1000
0010
,
1000
0001
0100
0001
0010
0100
0001
0100
,
1000
0100
0001
0100
1000
0100
0010
0100
,
1000
0100
0010
0001
0010
0100
1000
0100
,
0010
0001
0010
0100
1000
0100
0010
0001
,
1000
0100
0000
1010
0000
0101
0000
0010
,
0000
1100
0000
0101
0000
0010
0100
0001
,
1000
0010
0000
0110
0000
1001
0000
0010
,
0000
0011
0000
1100
0000
0010
0001
1000
,
0010
0200
0000
0302
0000
2003
0000
3020
,
0000
0230
0000
0320
0000
1030
0001
1000
,
0010
0200
0000
0302
0000
0023
0000
2030
,
0000
3002
0000
0203
0000
0310
0110
0100
,
1001
1010
0000
1001
0000
0101
0000
0110
,
0000
0011
0000
1100
0000
0001
1100
0001
,
0100
0010
0000
0110
0000
1001
0000
1100
,
0000
0110
0000
0011
0000
1000
0101
1000
,
0010
0100
0000
1001
0000
1100
0000
1001
,
0000
0011
0000
0110
0000
0010
1001
0100
,
0020
0200
0300
0100
0000
0100
0000
0200
,
0330
0000
0000
0000
;

//---------------dance-single - ----------------
#NOTES:
     dance-single:
     :
     Medium:
     6:
     0.315,0.349,0.281,0.077,0.004,263.000,40.000,11.000,0.000,0.000:
0001
1100
0001
1100
,
0010
0101
0010
0101
,
1000
0011
1000
0011
,
0100
1010
0100
1010
,
0001
0100
0000
0010
0000
0100
0000
0001
,
0000
1000
0000
0010
0000
1000
0000
0001
,
1000
0000
0100
0010
0001
0000
0100
0000
,
0010
1000
0100
0001
,
0010
1100
0010
1100
,
0001
1010
0001
1010
,
0100
0011
0100
0011
,
1000
0101
1000
0101
,
1000
0010
0000
0100
0000
0010
0000
1000
,
0000
0010
0000
1000
0000
0001
0000
0100
,
0002
0000
0000
0000
0203
0000
0000
0000
0320
0000
0000
0000
2030
0000
0001
0001
,
3001
0000
0010
0000
0100
0000
0001
1000
,
0001
0010
0100
1000
,
1001
0000
0100
0000
0001
1000
0001
1000
,
0100
1000
0010
0110
,
0001
1000
0000
0001
0000
0100
0000
0001
,
0000
1000
0000
0010
0000
0100
0000
0010
,
0100
0000
0001
0000
1000
0000
0001
0010
,
0100
1000
0010
0001
,
1001
0000
1000
0000
0001
0000
0100
0010
,
0100
0001
1000
0010
,
1001
0000
0010
0000
1000
0010
1000
0001
,
0100
0010
0100
0110
,
0001
0100
0000
1000
0000
0100
0000
0010
,
0000
0001
0000
0010
0000
0001
0000
0100
,
0001
0001
0001
0001
,
1000
0010
0010
2000
0000
0000
0000
0000
,
3001
0000
0100
0000
0001
1000
0000
0000
,
0001
0000
1000
0000
0010
1000
0000
0000
,
0010
0000
0100
0000
0010
1000
0000
0000
,
0100
0000
1000
0000
0001
0010
0000
0000
,
0001
0000
0100
0000
0010
0100
0000
0000
,
0001
0000
0100
0000
0010
0100
0000
0000
,
0010
0000
0010
0000
1000
0100
0000
0000
,
1000
0000
0001
0000
0010
0001
0000
0000
,
0100
0000
1001
0000
0001
0020
0000
0000
,
0031
0000
1100
0000
0100
2000
0000
0000
,
3001
0000
0110
0000
0010
0200
0000
0000
,
0301
0000
0101
0000
1000
0020
0000
0000
,
0130
0000
0011
0000
1000
0002
0000
0000
,
0103
0000
1010
0000
0001
2000
0000
0000
,
3010
0100
0001
1000
,
0010
1000
0100
0001
,
0010
0000
0100
1000
0001
0000
0100
0000
,
0001
1001
1001
0010
,
0100
0000
0100
0110
,
0001
1000
1010
1010
,
0100
0000
0000
0000
0010
0000
1000
0001
,
0100
0001
1000
0001
,
1001
0000
0110
0000
,
1010
0011
0100
0010
,
1001
0000
0000
0000
0001
0100
0001
1000
,
0010
0000
0000
0000
1001
0000
0000
1000
,
0100
0001
0100
0100
,
1010
0000
0000
0000
0101
0000
0000
1000
,
0010
0000
1000
0000
0010
1000
0001
1000
,
0100
1000
0100
0000
,
0010
0000
0100
0000
0001
1000
0001
1000
,
0001
0000
0000
0000
;

//---------------dance-single - ----------------
#NOTES:
     dance-single:
     :
     Easy:
     2:
     0.199,0.236,0.007,0.148,0.000,176.000,1.000,21.000,0.000,0.000:
0020
0000
0000
0031
,
0020
0000
1030
0001
,
0200
0000
0000
0310
,
2000
0000
3001
0010
,
0100
0000
0100
0000
,
0100
0000
0100
0000
,
1000
0001
1000
0001
,
0100
0010
0100
0010
,
2000
0000
0000
3001
,
0020
0000
0130
1000
,
0002
0000
0000
0013
,
0200
0000
1300
0100
,
0010
0000
0010
0000
,
0010
0000
0010
0000
,
2000
0000
3002
0000
,
1003
0001
1000
0001
,
0100
0100
0010
0010
,
0100
0000
0100
0000
,
0010
0000
0010
0000
,
0100
0010
1000
0000
,
0001
0100
0010
0000
,
1000
0010
1000
0010
,
2000
0000
0000
3000
,
0001
1000
0001
1000
,
0010
0010
0100
0100
,
0010
0000
0010
0000
,
0100
0000
0100
0000
,
0001
0010
0100
0000
,
1000
0100
0010
0000
,
0001
0100
0001
0100
,
0001
1000
0000
0000
,
0000
0001
0000
0001
,
0000
0001
0000
0001
,
0000
1000
0000
1000
,
0000
1000
0000
1000
,
0000
0010
0000
0100
,
0000
0010
0000
0100
,
0000
0001
0000
1000
,
0000
0001
0000
1000
,
0020
0001
0031
0000
,
0200
1000
1300
0000
,
0200
0001
0301
0000
,
0020
1000
1030
0000
,
0010
0100
0010
0100
,
0010
1000
0001
1000
,
0002
0000
0000
0000
,
2003
0000
0000
0000
,
3010
0010
0200
0301
,
0010
0010
0200
1300
,
0010
0010
2000
3100
,
0010
0010
0002
1003
,
0001
0001
1000
0001
,
1000
1000
0001
1000
,
0100
0100
0010
0100
,
0010
1000
0100
0001
,
1000
0100
1000
0001
,
0100
0010
0100
0001
,
1000
0010
1000
0100
,
0010
0001
0010
0001
,
1000
0000
1000
0000
,
0001
0000
0001
0000
,
1001
0000
0000
0000
;
