#TITLE:FOR TRUE STORY;
#SUBTITLE:...for SONIC vs SHADOW;
#ARTIST:FUMIE KUMATANI;
#TITLETRANSLIT:;
#SUBTITLETRANSLIT:;
#ARTISTTRANSLIT:;
#CREDIT:;
#BANNER:story-banner.png;
#BACKGROUND:story-bg.PNG;
#LYRICSPATH:;
#CDTITLE:;
#MUSIC:story.mp3;
#OFFSET:-7.629;
#SAMPLESTART:100.000;
#SAMPLELENGTH:12.000;
#SELECTABLE:YES;
#BPMS:0.000=171.980;
#STOPS:;
#BGCHANGES:;
// cache tags:
#FIRSTBEAT:0.000;
#LASTBEAT:400.000;
#SONGFILENAME:Songs/toune 3/FOR TRUE STORY/blank.sm;
#HASMUSIC:1;
#HASBANNER:1;
#MUSICLENGTH:151.483;
// end cache tags

//---------------dance-single - ----------------
#NOTES:
     dance-single:
     :
     Challenge:
     10:
     0.596,0.726,0.370,0.013,0.277,574.000,56.000,2.000,0.000,0.000:
0010
1000
0100
0010
0000
0000
0000
0000
,
0001
0000
0000
0100
0000
1001
0000
0000
,
1100
0000
0000
0011
0000
0000
0000
0000
,
0100
0001
0100
0001
0100
0000
0010
0000
1000
0000
0100
0000
1001
0000
0000
0000
,
1000
0100
0010
0001
0000
0000
0100
0000
,
0010
0000
0001
1000
0000
0001
0000
0000
,
0010
0000
0000
0100
0000
0000
0000
0000
,
1001
1001
0110
0000
1001
1100
1100
0000
,
0010
0000
0001
0000
0100
0000
0010
0000
1000
0000
0100
1000
0100
0000
0000
0000
,
1000
0000
0010
0000
0100
0000
0001
0000
0010
0000
0001
0010
0001
0000
0000
0000
,
0100
0000
0010
0000
1000
0000
0001
0000
0100
0000
0001
0100
0001
0000
0000
0000
,
0010
0000
0001
0000
1000
0000
0100
0000
1000
0000
0100
1000
0100
0000
0000
0000
,
1000
0010
0100
0001
0000
1000
0100
0010
,
0001
0100
0010
0100
0010
0100
0001
0010
,
0100
0000
1000
0001
0000
1000
0010
0100
,
0001
1000
0001
0000
1000
0000
0100
1000
0100
0000
0010
0000
0011
0000
0000
0000
,
0100
0010
1000
0100
0010
0001
0001
0000
,
0100
0010
1000
0100
0010
0001
0001
0000
,
0100
0010
1000
0010
0100
0001
0010
0000
,
0001
0100
0001
1000
0010
1000
0100
0000
,
1000
0000
0000
0001
0010
0000
0000
0010
1000
0000
0000
1000
0010
0000
0000
0010
,
0001
0000
0000
0001
0100
0000
0000
0100
1000
0000
0000
1000
0100
0000
0000
0000
,
0110
0000
0000
0000
1000
0000
0000
1000
0100
0000
0000
0100
0001
0000
0000
0001
,
0100
0000
0000
0100
1000
0000
0000
1000
0100
0000
0000
0100
0001
0000
0000
0000
,
0011
0000
0000
0100
0001
0000
0000
0000
,
0011
0000
0000
0010
0001
0000
0000
0000
,
0101
0000
0000
0100
0001
0000
0000
0000
,
1001
0000
0000
1000
0100
0000
0000
0000
,
1000
0010
1000
0010
1000
0000
0000
0000
0001
0100
0001
0100
0001
0000
0000
0000
,
0010
0001
0010
0001
0010
0000
0000
0000
0100
1000
0100
1000
0100
0000
0000
0000
,
1000
0010
1000
0010
1000
0000
0000
0000
0010
0100
0010
0100
0010
0000
0000
0000
,
0100
0001
0100
0001
0100
0000
0000
0000
0001
1000
0001
1000
0001
0000
0000
0000
,
1000
0100
1000
0100
1000
0000
0000
0000
0100
0010
0100
0010
0100
0000
0000
0000
,
0010
0001
0010
0001
0010
0000
0000
0000
0001
0100
0001
0100
0001
0000
0000
0000
,
0100
0010
0100
0010
0100
0000
0000
0000
0010
1000
0010
1000
0010
0000
0000
0000
,
1000
0001
1000
0001
1000
0000
0000
0000
0001
1000
0001
1000
0001
0000
0000
0000
,
0010
0001
0100
0010
1000
0100
0010
0001
,
0100
0010
1000
0100
0010
0001
0100
0010
,
1000
0100
0010
0001
0100
0010
1000
0100
,
0010
0000
0001
0000
0000
0000
0011
0000
0000
0000
0011
0000
0000
1000
0010
0000
,
0010
0100
1000
0001
0010
0100
1000
0100
,
0010
0001
1000
0100
0010
0100
1000
0001
,
0010
0100
1000
0100
0010
0001
1000
0100
,
1000
1001
0000
1001
0000
1001
0000
0000
,
0100
0010
1000
0010
0000
0000
0000
0000
,
0000
0000
0000
0000
0000
0010
0000
0000
,
0100
0000
0000
0001
0000
0000
0000
0000
,
1000
0010
1000
0000
0010
0000
0100
0001
0100
0000
0001
0000
1001
0000
0000
0000
,
1000
0100
0010
0001
0000
0000
0000
0100
,
0010
0100
0000
1000
0000
0010
0000
0000
,
0100
0000
0000
0001
0000
0000
0000
0000
,
0010
0001
0010
0001
0100
0000
0010
0000
1000
0000
0100
0000
0010
0000
0001
0000
,
0100
0000
0000
0000
0000
0000
0000
0000
0000
0000
0000
0000
0000
0000
0001
1000
,
0001
0000
0000
0000
0000
0000
0000
0000
0000
0000
0000
0000
0000
0000
0001
1000
,
0001
0000
0000
0000
0000
0000
0000
0000
0000
0000
0000
0000
0000
0000
0001
1000
,
0001
0000
0000
0000
0000
0000
0000
0000
0000
0000
0000
0000
0000
0000
0001
1000
,
0001
0000
0000
0000
0000
0000
0000
0000
0000
0000
0000
0000
0000
0000
0001
1000
,
0001
0000
0000
0000
0000
0000
0000
0000
0000
0000
0000
0000
0000
0000
0001
1000
,
0001
0000
0000
0000
0000
0000
0000
0000
0000
0000
0000
0000
0000
0000
0001
1000
,
0001
0000
0000
0000
0000
0000
0000
0000
0000
0000
0000
0000
0000
0000
0001
0010
,
0100
0000
0000
0000
0000
0000
0000
0000
0000
0000
0000
0000
0000
0000
1000
0010
,
0100
0000
0000
0000
0000
0000
0000
0000
0000
0000
0000
0000
0000
0000
0001
0010
,
1000
0000
0000
0000
0000
0000
0000
0000
0000
0000
0000
0000
0000
0000
1000
0100
,
0001
0000
0000
0000
0000
0000
0000
0000
0000
0000
0000
0000
0000
0000
0010
0100
,
0010
0000
0000
0000
0000
0000
0000
0000
0000
0000
0000
0000
0000
0000
1000
0100
,
1000
0000
0000
0000
0000
0000
0000
0000
0000
0000
0000
0000
0000
0000
0001
0010
,
0001
0000
0000
0000
0000
0000
0000
0000
0000
0000
0000
0000
0000
0000
0100
0010
,
0100
0000
0000
0000
,
0001
0010
0100
1000
0010
0100
0001
0010
,
0100
1000
0010
0100
0001
1001
0000
0000
,
1100
0000
0000
1010
0000
0000
0000
0000
,
0001
0010
0001
0010
0001
0000
0100
0000
0010
1000
0010
0000
1001
0000
0000
0000
,
1000
0100
0010
0001
0100
0010
1000
0100
,
0010
0001
0100
0010
1000
0001
0000
0000
,
1100
0000
0000
0101
0000
0000
0000
0000
,
1001
1010
1100
1010
1001
1010
1100
1010
,
0010
0100
0001
0010
0100
1000
1000
0000
,
1000
0010
0100
0001
0010
0100
1000
0000
,
1001
1000
0100
0010
0001
0100
0010
0100
,
0001
0100
0001
0100
0001
0000
1000
0000
0100
0010
0100
1000
1001
0000
0000
0000
,
1000
0010
0100
0001
0000
1000
0100
0010
,
0100
1000
0001
1000
0000
1000
0010
0100
,
0001
0010
0100
1000
0010
0100
0001
0000
,
1000
0001
1000
0001
1000
0000
0100
0000
0010
0000
0001
0000
0101
0000
0000
0000
,
1000
0010
1000
0100
0010
0001
0100
0010
,
1000
0100
0010
0100
1000
0001
0000
0000
,
0100
0000
0000
0010
0000
0000
1000
0000
,
0001
0010
0001
0010
0001
0000
0100
0000
0010
0000
1000
0000
1001
0000
0000
0000
,
1000
0100
0010
0100
0010
0001
1000
0100
,
0010
0100
1000
0001
0010
0001
0010
0100
,
1000
0001
0010
0100
1000
0100
0010
0001
,
1000
0010
0100
0001
0010
0100
1000
0001
,
1001
0110
1001
1001
,
1100
0101
1001
0000
,
0110
1001
1100
1001
,
0101
0011
0101
1010
,
2002
0000
0000
0000
,
0000
0000
0000
0000
,
0000
0000
0000
0000
,
0000
0000
0000
0000
,
3003
0000
0000
0000
;

//---------------dance-single - Copied from----------------
#NOTES:
     dance-single:
     Copied from:
     Hard:
     10:
     0.596,0.726,0.370,0.013,0.277,574.000,56.000,2.000,0.000,0.000:
0010
1000
0100
0010
0000
0000
0000
0000
,
0001
0000
0000
0100
0000
1001
0000
0000
,
1100
0000
0000
0011
0000
0000
0000
0000
,
0100
0001
0100
0001
0100
0000
0010
0000
1000
0000
0100
0000
1001
0000
0000
0000
,
1000
0100
0010
0001
0000
0000
0100
0000
,
0010
0000
0001
1000
0000
0001
0000
0000
,
0010
0000
0000
0100
0000
0000
0000
0000
,
1001
1001
0110
0000
1001
1100
1100
0000
,
0010
0000
0001
0000
0100
0000
0010
0000
1000
0000
0100
1000
0100
0000
0000
0000
,
1000
0000
0010
0000
0100
0000
0001
0000
0010
0000
0001
0010
0001
0000
0000
0000
,
0100
0000
0010
0000
1000
0000
0001
0000
0100
0000
0001
0100
0001
0000
0000
0000
,
0010
0000
0001
0000
1000
0000
0100
0000
1000
0000
0100
1000
0100
0000
0000
0000
,
1000
0010
0100
0001
0000
1000
0100
0010
,
0001
0100
0010
0100
0010
0100
0001
0010
,
0100
0000
1000
0001
0000
1000
0010
0100
,
0001
1000
0001
0000
1000
0000
0100
1000
0100
0000
0010
0000
0011
0000
0000
0000
,
0100
0010
1000
0100
0010
0001
0001
0000
,
0100
0010
1000
0100
0010
0001
0001
0000
,
0100
0010
1000
0010
0100
0001
0010
0000
,
0001
0100
0001
1000
0010
1000
0100
0000
,
1000
0000
0001
0010
0000
0010
1000
0000
1000
0010
0000
0010
,
0001
0000
0001
0100
0000
0100
1000
0000
1000
0100
0000
0000
,
0110
0000
0000
1000
0000
1000
0100
0000
0100
0001
0000
0001
,
0100
0000
0100
1000
0000
1000
0100
0000
0100
0001
0000
0000
,
0011
0000
0000
0100
0001
0000
0000
0000
,
0011
0000
0000
0010
0001
0000
0000
0000
,
0101
0000
0000
0100
0001
0000
0000
0000
,
1001
0000
0000
1000
0100
0000
0000
0000
,
1000
0010
1000
0010
1000
0000
0000
0000
0001
0100
0001
0100
0001
0000
0000
0000
,
0010
0001
0010
0001
0010
0000
0000
0000
0100
1000
0100
1000
0100
0000
0000
0000
,
1000
0010
1000
0010
1000
0000
0000
0000
0010
0100
0010
0100
0010
0000
0000
0000
,
0100
0001
0100
0001
0100
0000
0000
0000
0001
1000
0001
1000
0001
0000
0000
0000
,
1000
0100
1000
0100
1000
0000
0000
0000
0100
0010
0100
0010
0100
0000
0000
0000
,
0010
0001
0010
0001
0010
0000
0000
0000
0001
0100
0001
0100
0001
0000
0000
0000
,
0100
0010
0100
0010
0100
0000
0000
0000
0010
1000
0010
1000
0010
0000
0000
0000
,
1000
0001
1000
0001
1000
0000
0000
0000
0001
1000
0001
1000
0001
0000
0000
0000
,
0010
0001
0100
0010
1000
0100
0010
0001
,
0100
0010
1000
0100
0010
0001
0100
0010
,
1000
0100
0010
0001
0100
0010
1000
0100
,
0010
0000
0001
0000
0000
0000
0011
0000
0000
0000
0011
0000
0000
1000
0010
0000
,
0010
0100
1000
0001
0010
0100
1000
0100
,
0010
0001
1000
0100
0010
0100
1000
0001
,
0010
0100
1000
0100
0010
0001
1000
0100
,
1000
1001
0000
1001
0000
1001
0000
0000
,
0100
0010
1000
0010
0000
0000
0000
0000
,
0000
0000
0000
0000
0000
0010
0000
0000
,
0100
0000
0000
0001
0000
0000
0000
0000
,
1000
0010
1000
0000
0010
0000
0100
0001
0100
0000
0001
0000
1001
0000
0000
0000
,
1000
0100
0010
0001
0000
0000
0000
0100
,
0010
0100
0000
1000
0000
0010
0000
0000
,
0100
0000
0000
0001
0000
0000
0000
0000
,
0010
0001
0010
0001
0100
0000
0010
0000
1000
0000
0100
0000
0010
0000
0001
0000
,
0100
0000
0000
0000
0000
0000
0000
0000
0000
0000
0000
0000
0000
0000
0001
1000
,
0001
0000
0000
0000
0000
0000
0000
0000
0000
0000
0000
0000
0000
0000
0001
1000
,
0001
0000
0000
0000
0000
0000
0000
0000
0000
0000
0000
0000
0000
0000
0001
1000
,
0001
0000
0000
0000
0000
0000
0000
0000
0000
0000
0000
0000
0000
0000
0001
1000
,
0001
0000
0000
0000
0000
0000
0000
0000
0000
0000
0000
0000
0000
0000
0001
1000
,
0001
0000
0000
0000
0000
0000
0000
0000
0000
0000
0000
0000
0000
0000
0001
1000
,
0001
0000
0000
0000
0000
0000
0000
0000
0000
0000
0000
0000
0000
0000
0001
1000
,
0001
0000
0000
0000
0000
0000
0000
0000
0000
0000
0000
0000
0000
0000
0001
0010
,
0100
0000
0000
0000
0000
0000
0000
0000
0000
0000
0000
0000
0000
0000
1000
0010
,
0100
0000
0000
0000
0000
0000
0000
0000
0000
0000
0000
0000
0000
0000
0001
0010
,
1000
0000
0000
0000
0000
0000
0000
0000
0000
0000
0000
0000
0000
0000
1000
0100
,
0001
0000
0000
0000
0000
0000
0000
0000
0000
0000
0000
0000
0000
0000
0010
0100
,
0010
0000
0000
0000
0000
0000
0000
0000
0000
0000
0000
0000
0000
0000
1000
0100
,
1000
0000
0000
0000
0000
0000
0000
0000
0000
0000
0000
0000
0000
0000
0001
0010
,
0001
0000
0000
0000
0000
0000
0000
0000
0000
0000
0000
0000
0000
0000
0100
0010
,
0100
0000
0000
0000
,
0001
0010
0100
1000
0010
0100
0001
0010
,
0100
1000
0010
0100
0001
1001
0000
0000
,
1100
0000
0000
1010
0000
0000
0000
0000
,
0001
0010
0001
0010
0001
0000
0100
0000
0010
1000
0010
0000
1001
0000
0000
0000
,
1000
0100
0010
0001
0100
0010
1000
0100
,
0010
0001
0100
0010
1000
0001
0000
0000
,
1100
0000
0000
0101
0000
0000
0000
0000
,
1001
1010
1100
1010
1001
1010
1100
1010
,
0010
0100
0001
0010
0100
1000
1000
0000
,
1000
0010
0100
0001
0010
0100
1000
0000
,
1001
1000
0100
0010
0001
0100
0010
0100
,
0001
0100
0001
0100
0001
0000
1000
0000
0100
0010
0100
1000
1001
0000
0000
0000
,
1000
0010
0100
0001
0000
1000
0100
0010
,
0100
1000
0001
1000
0000
1000
0010
0100
,
0001
0010
0100
1000
0010
0100
0001
0000
,
1000
0001
1000
0001
1000
0000
0100
0000
0010
0000
0001
0000
0101
0000
0000
0000
,
1000
0010
1000
0100
0010
0001
0100
0010
,
1000
0100
0010
0100
1000
0001
0000
0000
,
0100
0000
0000
0010
0000
0000
1000
0000
,
0001
0010
0001
0010
0001
0000
0100
0000
0010
0000
1000
0000
1001
0000
0000
0000
,
1000
0100
0010
0100
0010
0001
1000
0100
,
0010
0100
1000
0001
0010
0001
0010
0100
,
1000
0001
0010
0100
1000
0100
0010
0001
,
1000
0010
0100
0001
0010
0100
1000
0001
,
1001
0110
1001
1001
,
1100
0101
1001
0000
,
0110
1001
1100
1001
,
0101
0011
0101
1010
,
2002
0000
0000
0000
,
0000
0000
0000
0000
,
0000
0000
0000
0000
,
0000
0000
0000
0000
,
3003
0000
0000
0000
;
