#TITLE:The Missing;
#SUBTITLE:(Speedcore Version);
#ARTIST:Speedcore Front Ost Berlin;
#TITLETRANSLIT:;
#SUBTITLETRANSLIT:;
#ARTISTTRANSLIT:;
#CREDIT:Rynker;
#BANNER:Bn-Missing.png;
#BACKGROUND:Bg-Missing.png;
#LYRICSPATH:;
#CDTITLE:;
#MUSIC:10. Speedcore Front Ost Berlin - The Missing (Speedcore Version).ogg;
#OFFSET:-0.308;
#SAMPLESTART:40.399;
#SAMPLELENGTH:12.000;
#SELECTABLE:YES;
#DISPLAYBPM:200.000;
#BPMS:0.000=180.000,19.000=183.000,21.000=185.000,28.000=186.000,32.000=190.000,423.000=191.000,438.000=192.000,450.000=195.000,453.000=195.000,467.000=198.000,475.000=199.000,483.000=200.000,487.000=200.000,594.000=195.000,595.000=190.000,596.000=183.000,599.000=179.000,601.000=179.000,604.000=177.000,607.000=168.000,609.000=166.000,611.000=162.000,612.000=158.000;
#STOPS:;
#BGCHANGES:;
// cache tags:
#FIRSTBEAT:5.000;
#LASTBEAT:618.000;
#SONGFILENAME:Songs/SPEEEDCOOOORE/The Missing (Speedcore Version) - [Rynker]/The Missing (Speedcore version).sm;
#HASMUSIC:1;
#HASBANNER:1;
#MUSICLENGTH:196.375;
// end cache tags

//---------------dance-single - Rynker----------------
#NOTES:
     dance-single:
     Rynker:
     Challenge:
     15:
     1.000,1.000,0.092,0.321,1.000,1760.000,18.000,63.000,13.000,0.000:

0000
0000
0000
0000
,
0000
0000
0001
0000
0100
0000
0010
1000
,
0001
0100
0001
0010
0100
1000
0010
0100
,
0001
1000
0100
0010
0001
1000
0001
0100
,
0010
0000
1000
0000
0001
0000
0010
0000
0100
0000
0010
0001
1000
0000
0001
0000
,
0100
0010
0100
0001
0010
0100
1000
0100
,
1000
0001
0100
0010
0100
0010
1000
0002
,
0000
0000
0000
1000
,
1003
0000
0100
0000
0100
0010
0000
0010
,
0001
1000
0001
0100
,
0010
1000
0001
0010
0000
0010
0100
0000
,
1000
0000
0101
0000
1010
0000
0001
0010
,
0100
1000
0001
0100
0010
1000
0010
0100
,
0001
0000
1000
0000
0100
0000
0010
0000
0001
0000
0010
0100
1000
0000
0001
0000
,
0100
0010
1000
0100
0010
0001
1000
0001
,
0100
0000
0010
0000
1000
0000
0100
0000
0010
0001
0010
0001
0020
0000
0031
0000
,
0100
0210
0310
1000
2001
3001
0010
0120
,
0130
1000
2001
3001
0102
0103
0120
0030
,
1000
0200
0310
0000
0021
0031
0001
0100
,
0010
0000
0000
0000
1020
0000
0030
1000
0002
0000
1003
0000
120M
0000
0300
0000
,
1000
020M
0310
0000
0M21
0031
0001
M200
,
0310
0000
0000
0000
M020
0000
0030
1000
002M
0000
0130
0000
02M1
0000
0301
0000
,
0001
M020
0130
0000
120M
0300
1000
002M
,
0130
0000
2M01
3000
012M
0030
10M2
1003
,
0100
0010
0001
0010
0100
1000
0001
0100
,
0010
1000
0010
0100
0001
1000
0001
0010
,
0001
1000
0010
0100
0001
0010
0100
1000
,
0010
0100
0001
1000
0001
0010
0100
0010
,
0001
0100
0010
1000
0100
0010
0001
1000
,
0100
0000
1000
0000
0010
0000
0100
0000
0001
0000
0010
0000
0001
0100
0010
1000
,
0010
1000
0001
0010
0001
0010
0100
1000
0100
1000
0001
0100
0001
0100
0010
1000
,
0010
0100
0001
0010
0100
0010
0001
1000
0010
0100
0010
1000
0100
0010
0001
0100
,
0001
0000
0000
0100
0000
0000
0010
0000
0000
1000
0000
0000
0001
0000
0000
0010
0000
0000
0100
0000
0000
0010
0000
0000
0001
0000
0000
1000
0000
0000
0010
0000
0000
0100
0000
0000
0001
0000
0100
0000
0001
0000
0100
0000
0000
0001
0000
0000
,
1000
0100
0010
0001
0010
0100
1000
0100
0010
0001
1000
0001
0100
0010
1000
0010
,
0100
0001
0100
0010
1000
0010
1000
0001
0010
0001
0010
0100
1000
0001
0100
0010
,
1000
0000
0000
0100
0000
0000
0010
0000
0000
0001
0000
0000
0100
0000
0000
0010
0000
0000
1000
0000
0000
0010
0000
0000
0100
0000
0000
0001
0000
0000
0010
0000
0000
0100
0000
0000
1000
0000
0100
0000
1000
0000
0100
0000
0000
1000
0000
0000
,
0001
0000
0000
0100
0000
0000
0010
0000
0000
1000
0000
0000
0001
0000
0000
0100
0000
0000
0001
0000
0000
0100
0000
0000
0010
0000
0000
1000
0000
0000
0001
0000
0000
0010
0000
0000
0100
0000
0010
0000
0100
0000
0010
0000
0000
0100
0000
0000
,
1000
0000
0000
0001
0000
0000
1000
0000
0000
0010
0000
0000
0100
0000
0000
0001
0000
0000
1000
0000
0000
0100
0000
0000
0010
0000
0001
0000
0010
0000
0001
0000
0000
0010
0000
0000
0001
0000
0000
1000
0000
0000
0010
0000
0000
1000
0000
0000
,
0010
0000
0000
0100
0000
0000
0001
0000
0000
1000
0000
0000
0100
0000
0000
0010
0000
0000
0100
0000
0000
1000
0000
0000
0001
0000
0000
1000
0000
0000
0010
0000
0000
0100
0000
0000
0001
0000
0100
0000
0001
0000
0100
0000
0000
0001
0000
0000
,
1000
0000
0000
0100
0000
0000
0010
0000
0000
0001
0000
0000
1000
0000
0000
0001
0000
0000
0100
0000
0000
0010
0000
0000
1000
0000
0001
0000
1000
0000
0001
0000
1000
0000
0001
0000
1000
0000
0000
0001
0000
0000
0010
0000
0000
0100
0000
0000
,
0010
0000
0000
0001
0000
0000
1000
0000
0000
0100
0000
0000
0010
0000
0000
0001
0000
0000
1000
0000
0000
0010
0000
0000
0100
0000
0000
0001
0000
0000
1000
0000
0001
0000
1000
0000
0001
0000
1000
0000
0001
0000
1000
0000
0000
0001
0000
0000
,
0100
0000
0000
0010
0000
0000
1000
0000
0000
0010
0000
0000
0100
0000
0000
0001
0000
0000
0100
0000
0000
0001
0000
0000
1000
0000
0000
0100
0000
0000
1000
0000
0001
0000
1000
0000
0001
0000
1000
0000
0001
0000
1000
0000
0000
0001
0000
0000
,
0100
0000
0000
0010
0000
0000
1000
0000
0000
0001
0000
0000
0010
0000
0000
0100
0000
0000
0010
0000
0000
0001
0000
0000
1000
0000
0000
0001
0000
0000
0100
0000
0001
0000
0100
0000
0001
0000
0000
0100
0000
0000
0001
0000
0000
1000
0000
0000
,
0100
0010
0001
1000
0001
0100
0010
1000
0001
0010
0100
1000
0100
0010
0001
1000
,
0001
0100
0010
0100
0010
0100
0001
0010
0100
0010
0001
1000
0001
1000
0010
0100
,
0001
1000
0100
0010
0100
0010
0001
1000
0010
0100
0001
1000
0100
0010
0001
1000
,
0001
0010
0100
0010
0001
0100
0001
1000
0100
0010
0100
1000
0001
0100
0010
0100
,
0010
0000
0000
1000
0000
0000
0001
0000
0000
0010
0000
0000
0100
0000
0000
1000
0000
0000
0001
0000
0000
0100
0000
0000
0010
0000
0000
0100
0000
0000
0001
0000
0100
0000
0001
0000
0100
0000
0000
0001
0000
0000
0100
0000
0000
0010
0000
0000
,
1000
0000
0000
0001
0000
0000
0010
0000
0000
0100
0000
0000
1000
0000
0000
0100
0000
0000
0010
0000
0000
0001
0000
0000
1000
0000
0000
0100
0000
0000
0010
0000
0000
0001
0000
0000
1000
0000
0001
0000
1000
0000
0001
0000
0000
0010
0000
0000
,
0100
0000
0000
0010
0000
0000
0001
0000
0000
1000
0000
0000
0010
0000
0000
0100
0000
0000
0010
0000
0000
1000
0000
0000
0001
0000
0000
0010
0000
0000
0001
0000
0000
0010
0000
0000
0100
0000
1000
0000
0100
0000
1000
0000
0100
0000
1000
0000
,
0100
0000
0000
1000
0000
0000
0001
0000
0000
0100
0000
0000
0010
0000
0000
0100
0000
0000
0001
0000
0000
1000
0000
0000
0100
0000
0000
1000
0000
0000
0100
0000
0000
0010
0000
0000
0001
0000
1000
0000
0001
0000
1000
0000
0001
0000
1000
0000
,
0001
0010
0100
1000
0010
0100
0002
0003
,
1000
0200
0300
0010
0002
0003
2000
3010
,
0100
0002
0003
1000
0200
0300
0020
0031
,
0100
0020
0030
0100
0002
0003
0000
2000
,
3000
0000
2000
3000
0200
0300
0020
0031
,
0100
0000
0020
0000
0030
0000
0100
0000
0002
0000
1003
0000
0100
0000
1000
0100
,
1000
0001
0100
0010
1000
0100
0020
0030
,
0001
0100
0020
0030
0000
2000
3000
0000
,
0100
0020
0031
2000
3010
0200
0300
0000
,
0000
0002
0013
0200
0300
2000
3000
0000
,
0000
0002
0103
0020
0030
2000
3000
0000
,
0000
0002
0013
0200
0310
0002
0003
0000
,
1000
0020
0030
0100
0001
1000
0100
0000
,
0010
0001
0010
0100
2000
3000
0000
0010
,
0100
0010
1000
0002
0003
0000
0020
0030
,
0000
0200
2300
3000
0000
0000
0002
0000
,
0000
0000
0000
0000
,
0003
0000
0000
0000
,
0000
0000
0000
0000
0000
0000
0000
0000
0000
0000
0000
0000
0001
0100
0010
1000
,
0001
0010
0100
0010
0001
1000
0010
0100
0010
1000
0001
0010
0100
1000
0001
0100
,
0010
0000
0000
0100
0000
0000
0001
0000
0000
1000
0000
0000
0001
0000
0000
0100
0000
0000
0010
0000
0000
1000
0000
0000
0001
0000
1000
0000
0001
0000
1000
0000
0001
0000
1000
0000
0001
0000
0000
1000
0000
0000
0100
0000
0000
0010
0000
0000
,
0001
0100
0001
0010
0100
1000
0100
0010
0001
0100
0010
0100
0001
1000
0100
1000
,
0001
0000
0000
0100
0000
0000
0001
0000
0000
1000
0000
0000
0100
0000
1000
0000
0100
0000
1000
0000
0000
0100
0000
0000
0010
0000
0000
0001
0000
0000
1000
0000
0000
0001
0000
0000
0100
0000
0000
0010
0000
0000
1000
0000
0000
0001
0000
0000
,
0010
0000
0000
0001
0000
0000
0100
0000
0000
0010
0000
0000
0100
0000
0010
0000
0100
0000
0010
0000
0000
0100
0000
0000
0001
0000
0000
1000
0000
0000
0100
0000
0000
0010
0000
0000
0001
0000
0000
1000
0000
0000
0001
0000
0000
0100
0000
0000
,
0001
0000
0000
1000
0000
0000
0010
0000
0000
0100
0000
0000
0010
0000
0000
1000
0000
0000
0100
0000
0000
0010
0000
0000
0001
0000
0010
0000
0001
0000
0010
0000
0001
0000
0010
0000
0001
0000
0000
0010
0000
0000
0100
0000
0000
1000
0000
0000
,
0001
0000
0000
0100
0000
0000
0001
0000
1000
0000
0001
0000
1000
0000
0000
0001
0000
0000
0010
0000
0000
0100
0000
0000
1000
0000
0000
0001
0000
0000
0100
0000
0000
0010
0000
0000
1000
0000
0000
0001
0000
0000
0010
0000
0000
0100
0000
0000
,
0010
0000
0000
0001
0000
0000
1000
0000
0000
0001
0000
0000
0100
0000
0001
0000
0100
0000
0001
0000
0000
0100
0000
0000
0010
0000
0000
1000
0000
0000
0001
0000
0000
0010
0000
0000
0100
0000
0000
0000
0000
0000
1000
0000
0000
0000
0000
0000
,
0001
0000
0100
0010
1000
0010
1000
0000
0001
0000
1000
0100
1000
0100
1000
0000
,
0100
0000
0010
0001
0000
0001
0010
0000
0100
1000
0100
1000
0100
1000
0001
0100
,
0001
0100
0010
1000
0010
1000
0001
0010
0001
0010
0100
1000
0100
1000
0001
1000
,
0001
0000
0000
0100
0000
0000
0001
0000
0000
0100
0000
0000
0010
0000
0000
0100
0000
0000
0010
0000
0000
1000
0000
0000
0001
0000
1000
0000
0001
0000
1000
0000
0000
0001
0000
0000
0010
0000
0000
0100
0000
0000
0010
0000
0000
0001
0000
0000
,
0100
0010
1000
0001
0010
0100
0010
0001
1000
0001
0100
0010
1000
0010
1000
0001
,
0010
0100
1000
0100
1000
0010
0100
0001
0010
0001
1000
0010
1000
0001
0100
0010
,
1000
0001
0010
0100
1000
0100
1000
0001
0100
0010
0100
0001
1000
0100
0010
0001
,
0010
0001
1000
0010
0100
0001
1000
0100
1000
0001
0100
0010
0100
0001
0100
0001
,
1000
0100
0010
0001
0010
0100
1000
0001
0100
0010
0100
0001
1000
0001
0010
0100
,
1000
0100
0010
0001
1000
0001
0100
0010
1000
0010
0100
0001
1000
0100
0010
0100
,
1000
0001
0100
0010
0100
0001
1000
0100
0010
0100
1000
0001
0100
0010
0100
0010
,
1000
0001
0010
0100
1000
0010
0100
0010
1000
0001
0010
0100
1000
0000
0100
0000
,
0010
0001
1001
1000
0100
0010
0100
1000
,
0010
0100
0001
0100
0000
0100
0001
0000
,
1000
0000
0000
0000
0100
0000
0000
0100
0000
0000
0100
0000
0000
0000
0010
0000
,
0001
0000
1000
0010
0100
0010
1000
0000
,
0001
0000
0010
0100
1000
0000
0010
0100
,
0001
1000
0100
1000
0000
0100
0010
0100
,
1000
0000
0000
0000
0001
0000
0000
0001
0000
0000
0001
0000
0000
0000
0000
0000
,
1000
0100
0010
0001
0100
0100
0010
0000
,
0010
0000
1000
0010
0100
0001
0010
0100
,
0010
0000
0100
1000
0100
0010
0001
0100
,
0010
0100
0001
1000
0100
0010
0100
1000
,
0001
0000
0100
0000
0010
0000
1000
0000
0001
0000
0010
0000
0100
1000
0100
0000
,
1000
0000
0001
0100
0001
0100
0001
0000
1000
0000
0100
1000
0100
1000
0100
0000
,
1000
0000
0001
0010
0001
0000
1000
0010
1000
0010
1000
0000
0001
0100
0001
0000
,
1000
0000
0100
0010
0100
0010
0100
0000
1000
0001
1000
0000
0001
0100
0001
0000
,
1000
0100
1000
0000
0001
0010
0001
0000
1000
0010
1000
0000
0010
0000
0100
0000
,
0001
1000
1000
0100
0010
0001
0100
0100
,
0001
0010
0010
0100
1000
0001
0001
0100
,
0010
1000
1000
0001
0010
0010
0100
1000
,
0001
0000
0100
0000
0001
0000
1000
0000
0001
1000
0001
1000
0001
0000
0100
0000
,
0001
0000
0010
0000
0100
0000
1000
0000
0100
1000
0100
1000
0100
0000
1000
0000
,
0001
0000
0100
0000
0010
1000
0010
0000
1000
0001
1000
0000
0001
0000
0010
0000
,
0100
0000
1000
0000
0001
0100
0001
0000
1000
0001
1000
0000
0100
0000
0010
0000
,
0001
0000
1000
0000
0001
0100
0001
0100
0010
1000
0001
1000
0001
0000
1000
0000
,
0100
0000
0010
0000
0001
0000
1000
0001
0100
0000
0001
1000
0010
0000
1000
0000
,
0100
0000
0010
0000
0001
0000
0100
0000
0010
1000
0010
1000
0010
0000
0100
0000
,
0001
0000
1000
0000
0100
0000
0010
0000
0001
1000
0001
1000
0001
0000
0100
0000
,
0010
0000
1000
0000
0100
0000
0010
0000
0001
0010
0001
0010
0001
0000
0010
0000
,
0100
0000
1000
0000
0001
0000
0100
0000
0010
1000
0010
0000
0100
0000
0001
0000
,
1000
0000
0100
0000
0010
0000
0001
0010
0001
0000
1000
0100
1000
0000
0010
0000
,
1000
0100
0010
0001
0100
0010
1000
0001
,
0010
0000
0100
0000
1000
0000
0001
0000
0100
0000
0010
0000
1000
0001
1000
0001
,
1000
0001
0100
0010
0100
0010
0100
0010
1000
0100
1000
0100
0010
0001
0010
0001
,
0010
0001
0100
0010
0100
0010
0100
0010
1000
0001
0010
0100
1000
0100
1000
0100
,
1000
0100
0010
0001
0010
0001
0010
0001
0100
0001
0100
0001
1000
0100
1000
0100
,
1000
0100
0010
0001
0010
0001
0010
0001
0100
0010
0100
0010
1000
0010
1000
0010
,
1000
0010
0100
0001
0100
0001
0100
0001
0010
0100
0010
0100
1000
0100
1000
0100
,
1000
0001
0100
0001
0100
0001
0100
0001
1000
0010
1000
0010
0100
0010
0100
0010
,
0100
0010
1000
0001
1000
0001
1000
0001
0010
0100
0010
0100
1000
0001
0100
0010
,
1000
0010
0100
0001
1000
0100
0010
0100
0010
0001
1000
0001
0100
0001
0100
0001
,
0100
0001
1000
0100
1000
0100
1000
0100
0010
0001
0010
0001
0100
0001
0100
0001
,
0100
0001
1000
0010
1000
0010
1000
0010
1000
0010
0100
0001
1000
0001
1000
0001
,
1000
0001
0010
0100
0010
0100
0010
0100
1000
0100
1000
0100
0010
0001
0010
0001
,
0010
0001
0100
0001
0100
0001
0100
0001
1000
0010
1000
0010
0100
0001
0100
0001
,
0100
0001
1000
0100
1000
0100
1000
0100
0010
0001
0010
0001
0100
0010
0100
0010
,
0100
0010
1000
0100
1000
0100
1000
0100
0010
0001
0010
0001
0100
0001
0100
0001
,
0100
0001
0010
0100
0010
0100
0010
0100
1000
0001
1000
0001
0100
0010
0100
0010
,
0100
0010
1000
0001
1000
0001
1000
0001
0010
0100
0010
0100
1000
0100
0010
0001
,
0100
0001
1000
0100
0010
0001
1000
0001
0100
0010
0100
0001
1000
0010
0100
0001
,
0100
0001
1000
0100
0010
0001
0010
0001
1000
0010
0100
0010
1000
0001
0010
0100
,
0010
0001
1000
0001
0100
0010
0100
0010
1000
0001
0010
0100
1000
0100
1000
0001
,
0100
0000
0000
0010
0000
0000
0100
0000
0000
0001
0000
0000
1000
0000
0000
0100
0000
0000
0010
0000
0000
0001
0000
0000
1000
0000
0001
0000
1000
0000
0001
0000
0000
1000
0000
0000
0001
0000
0000
0010
0000
0000
0001
0000
0000
0100
0000
0000
,
0010
0000
0000
0100
0000
0000
0010
0000
0000
1000
0000
0000
0001
0000
0000
0010
0000
0000
0100
0000
0000
0010
0000
0000
0001
0000
0000
1000
0000
0000
0001
0000
1000
0000
0001
0000
1000
0000
0000
0001
0000
0000
0100
0000
0000
0010
0000
0000
,
0100
0000
0000
0001
0000
0000
1000
0000
0000
0100
0000
0000
0010
0000
0000
0001
0000
0000
1000
0000
0000
0001
0000
0000
0100
0000
0000
0010
0000
0000
0100
0000
0000
0001
0000
0000
1000
0000
0001
0000
1000
0000
0001
0000
0000
1000
0000
0000
,
0001
0000
0000
0010
0000
0000
0100
0000
0000
0010
0000
0000
0001
0000
0000
1000
0000
0000
0001
0000
0000
0100
0000
0000
0010
0000
0000
1000
0000
0000
0001
0000
0000
0010
0000
0000
0001
0000
0010
0000
0001
0000
0010
0000
0000
0100
0000
0000
,
1000
0001
0100
0010
0100
0001
1000
0100
0010
0001
1000
0001
0100
0010
0100
0001
,
1000
0100
0010
0001
1000
0001
0100
0010
0100
0001
1000
0100
0010
0001
1000
0010
,
0100
0000
0000
0010
0000
0000
0100
0000
0000
0001
0000
0000
1000
0000
0000
0100
0000
0000
0010
0000
0000
0001
0000
0000
0010
0000
0000
0100
0000
0000
1000
0000
0000
0001
0000
0000
0100
0000
0001
0000
0100
0000
0001
0000
0000
0100
0000
0000
,
0001
1000
0010
1000
0010
0100
0001
1000
0100
0010
0100
1000
0001
0100
0010
0100
,
0001
0010
0100
0010
0001
1000
0001
0100
0010
1000
0100
1000
0010
0100
0010
1000
,
0001
0010
0100
0010
0001
1000
0100
0010
0001
1000
0001
0100
0010
0100
0001
1000
,
0001
0100
0010
1000
0001
0100
0010
1000
0001
0010
0100
0010
0001
1000
0001
0100
,
0010
1000
0010
0100
0001
1000
0100
1000
0001
0100
0010
0100
0010
1000
0001
0010
,
0001
0010
0100
1000
0010
0100
0010
0100
0001
1000
0100
1000
0002
0000
0000
0000
,
0000
0000
0003
0000
;
