#TITLE:Loaded Futurefile;
#SUBTITLE:SPREAD159 YEAH1 XDXD;
#ARTIST:Anc159;
#TITLETRANSLIT:;
#SUBTITLETRANSLIT:;
#ARTISTTRANSLIT:;
#CREDIT:;
#BANNER:futurefile-bn.png;
#BACKGROUND:futurefile-bg.png;
#LYRICSPATH:;
#CDTITLE:cdtitle.PNG;
#MUSIC:13 anc - loaded futurefile.mp3;
#OFFSET:0.566;
#SAMPLESTART:90.300;
#SAMPLELENGTH:7.160;
#SELECTABLE:YES;
#BPMS:0.000=134.350,33.000=268.700;
#STOPS:33.000=10.718
;
#BGCHANGES:;
// cache tags:
#FIRSTBEAT:2.000;
#LASTBEAT:556.750;
#SONGFILENAME:Songs/Definitive Keyboard Megapack/Loaded Futurefile(Disregard159)/futurefile.sm;
#HASMUSIC:1;
#HASBANNER:1;
#MUSICLENGTH:142.633;
// end cache tags

//---------------dance-single - ----------------
#NOTES:
     dance-single:
     :
     Easy:
     15:
     1.000,1.000,1.000,1.000,0.452,1077.000,682.000,361.000,0.000,296.000:

0000
0000
0000
0000
0000
0000
0000
0000
0000
0000
0000
0000
0000
0000
0000
0000
0000
0000
0000
0000
0000
0000
0000
0000
2200
0000
0000
0000
0000
0000
3022
0000
0000
0300
0000
0000
2233
0000
0000
3000
0000
0000
0020
0000
0000
0000
0300
0000
,
2002
0000
0000
0000
0000
0000
0030
0000
0000
0003
3000
0000
2202
0000
0000
0000
0000
0000
0300
0000
0000
0000
0000
0000
0220
0000
0000
0000
0000
0000
3003
0000
0000
0300
0030
0000
2222
0000
0000
0000
3300
0000
0000
0000
0000
0003
0000
0000
,
2202
3000
0033
0000
2022
0000
3000
0333
0220
0000
2302
0000
0200
3030
2320
3003
,
2200
0000
0000
0000
0000
0000
0000
0000
0000
0030
0000
0000
0022
0000
0000
0000
0000
0000
0300
0000
0000
3000
0033
0000
2200
0000
0000
0000
0000
0000
0000
0000
0000
0000
0000
0000
0022
0000
3000
0000
0000
0000
0000
0000
0333
0000
0000
0000
,
2200
0000
0000
0000
0000
0000
0000
0000
0000
0000
0000
0000
0022
0000
0000
0000
0000
0000
3000
0000
0000
0300
0000
0000
2133
0000
0000
0000
0000
0000
3222
0000
0303
0000
0000
0000
0200
0000
0000
0030
0300
0000
2022
0000
0000
3033
0000
0000
,
2002
0000
0000
0000
0000
3000
0220
0000
0000
0030
0300
0000
2200
0000
0000
0003
3300
0000
0221
0000
0000
0000
0000
0000
,
2002
0000
0000
0000
0000
0000
0000
0000
3003
0330
0000
0000
0220
0000
0000
0000
0000
0000
0000
0000
0000
0000
0000
0000
2332
0000
3000
0000
0000
0000
2023
0000
0000
0000
0000
0000
0202
0000
0000
3030
0000
0000
2020
0000
0000
0333
0000
0000
,
3202
0000
0000
0303
0000
0000
0000
0000
0000
0000
0000
0000
2020
0000
0000
0000
0000
0000
0000
0000
0030
0000
0000
0000
0202
0000
0000
0000
0000
0000
0000
0000
0000
0000
0300
0000
0020
0000
0000
0000
3000
0000
0000
0000
0000
0000
0030
0000
,
2220
0000
0000
0000
3333
0000
2222
0000
0000
0000
0000
0000
3333
0000
0000
0000
0000
0000
1011
0000
0000
0111
0000
0000
,
1110
1110
1110
1011
,
0111
0000
1101
0000
1011
0000
0111
0110
,
1110
1101
1110
1011
,
0111
0000
0111
0000
1101
0000
1011
1010
,
1101
0000
0111
0000
1011
0101
0000
0101
,
1110
1010
0111
0000
1110
0000
1011
0100
,
1110
2200
3310
2200
3310
2200
3310
2200
,
3310
2200
3310
2200
3310
2200
3310
2200
,
3310
2200
3310
2200
3310
2200
3310
2200
,
3320
0030
0022
0000
0133
0000
0022
0000
0133
0000
0022
0000
0133
0000
0022
0000
,
0133
0022
0133
0022
0133
0022
0133
0022
,
0133
0000
0022
0000
0133
0000
0022
0000
1133
0000
2000
3002
0203
0302
0023
0230
,
2300
3200
0320
2030
3020
0230
0302
0203
0320
0032
0023
0230
2300
3200
0320
0032
,
0023
0230
2300
3200
0320
0032
2003
3200
0320
0032
2003
3200
0320
0032
2003
3200
,
0320
0032
2003
3200
0320
0032
0023
0230
2300
3002
0023
0230
2300
3002
0023
0230
,
2300
3002
0023
0230
2300
3200
0320
0032
0003
0020
0230
2300
3200
0320
0032
0200
,
0320
2030
3200
0320
2030
3020
0030
0200
2300
3003
0000
0000
1100
0000
0110
0000
,
0011
0110
1100
0110
0011
0110
1100
0110
,
0011
0110
1100
0110
0011
0110
1100
0110
,
0011
0110
1100
0110
0011
0110
1100
0110
,
0011
0110
1100
0110
0011
0110
1100
0110
,
0011
0110
1100
0110
0011
0110
1100
0110
,
0011
0110
1100
0110
0011
0110
1001
0110
,
1001
0110
1001
0110
1001
0110
1010
0101
,
1010
0101
1010
0101
1010
0101
1100
0011
,
1100
0011
1100
0011
1100
0011
1010
0101
,
1010
0000
1011
0000
0101
0000
0101
0000
1010
0000
1010
0000
2222
3333
0000
0000
,
0000
0000
0000
0000
1100
0000
0011
0000
1100
0000
0011
1100
0011
0000
1100
0011
,
1100
0011
1100
0011
1100
0011
1100
0011
1100
0011
1100
0011
1100
0000
0100
0000
,
1010
0101
1010
0101
1010
0101
1010
0101
,
1010
0101
1010
0101
1010
0101
1010
0011
,
1100
0011
1100
0011
1100
0011
1100
0011
,
1100
0110
1001
0110
1001
0110
1001
0110
,
1001
0110
1001
0110
1001
0110
1001
0110
,
1001
0110
0101
1010
0101
1010
0101
1010
,
0101
1010
0101
1100
0011
1100
0011
1100
,
0011
1100
0011
1100
0011
1100
0011
1100
,
0011
1100
0011
1100
0011
1100
0011
0100
,
1010
0101
1010
1010
0101
0101
0110
0110
,
1100
1100
0011
0011
1100
1100
0011
0011
,
1100
1100
0011
0011
1100
1100
0011
0011
,
0110
0110
1001
1001
0110
0110
1001
1001
,
0110
0110
1001
1001
0110
0110
1001
1001
,
0110
0000
0000
0000
0000
0000
0000
0000
0000
0000
0000
0000
0000
0000
0000
0000
0000
0000
0000
0000
0000
0000
0000
0000
0110
0000
0000
0000
0000
0000
0000
0000
0000
0000
0000
0000
0000
0000
0000
0000
0000
0000
0000
0000
0000
0000
0000
0000
2222
0000
0000
0000
0000
0000
0000
0000
0000
0000
0000
0000
0000
0000
0000
0000
0000
0000
0000
0000
0000
0000
0000
0000
0000
0000
0000
0000
0000
0000
0000
0000
0000
0000
0000
0000
0000
0000
0000
0000
0000
0000
0000
0000
0000
0000
0000
0000
0000
0000
0000
0000
0000
0000
0000
0000
0000
0000
0000
0000
0000
0000
0000
0000
0000
0000
0000
0000
0000
0000
0000
0000
0000
0000
0000
0000
0000
0000
0000
0000
0000
0000
0000
0000
0000
0000
0000
0000
0000
0000
0000
0333
0000
0000
0000
3000
2222
0000
0000
0000
0000
0000
0000
0000
0000
0000
0000
0000
3333
0000
0000
0000
0000
0000
0000
0000
0000
0000
0000
0000
0000
0000
0000
0000
0000
0000
0000
0000
0000
0000
0000
0000
0000
0000
0000
0000
0000
0000
0000
0000
0000
0000
0000
0000
,
0000
0000
0011
1100
0011
0000
0000
0000
1001
0110
1001
0000
0110
0000
0000
0000
,
1001
0000
0100
0000
1001
0000
0100
0000
0011
1000
0000
0000
0101
0000
0001
0000
,
1100
0000
0000
0001
1100
0000
0000
0000
1001
0000
0110
0000
1001
0000
0000
0000
,
0110
0000
1000
0000
0101
0000
0010
0000
1100
0001
0000
0000
1001
0000
0010
0000
,
1001
0000
0000
0100
0011
0000
0000
0000
0110
0000
0000
0000
0110
0000
0000
0000
,
0110
0000
0001
0000
1010
0000
0100
0000
0011
1000
0000
0000
1001
0000
0100
0000
,
1001
0000
0000
0010
1100
0000
0000
0000
0110
0000
1001
0000
0110
0000
0000
0000
,
0110
0000
0001
0000
0110
0000
1000
0000
0011
1100
0000
0000
0110
0000
0101
0000
,
0000
0000
0000
1100
0011
0000
0000
0000
0110
0000
0000
0000
0110
0000
0000
0000
,
0000
0000
1100
0000
1100
0000
1100
0000
0011
1100
0000
0000
1100
0000
1100
0000
,
0000
0000
0000
1100
0011
0000
0000
0000
1001
0000
0000
0000
1001
0000
0000
0000
,
0000
0000
0011
0000
0011
0000
0011
0000
0011
1100
0000
0000
1100
0000
1100
0000
,
0000
0000
0000
0101
1010
0000
0000
0000
0110
0000
0000
0000
0110
0000
0000
0000
,
0000
0000
0110
0000
0110
0000
0110
0000
0110
1001
0000
0000
1001
0000
1001
0000
,
0000
0000
0000
1100
0011
0000
0000
0000
0011
0000
0000
0000
0011
0000
0000
0000
,
0000
0000
1001
0000
1001
0000
1001
0000
1001
0110
0000
0000
0110
0000
0110
0000
,
0000
0000
0000
1100
0011
0000
0000
0000
1010
0000
0000
0000
0101
0000
0000
0000
,
0000
0000
1010
0000
1010
0000
1010
0000
1010
0101
0000
0000
0101
0000
0101
0000
,
0000
0000
0000
1100
0011
0000
0000
0000
0101
0000
0000
0000
1001
0000
0000
0000
,
0000
0000
1001
0000
1001
0000
1001
0000
0101
1010
0000
0000
1100
0000
0011
0000
,
0000
0000
0000
1100
0011
0000
0000
0000
1001
0000
0000
0000
2222
3333
0020
0000
,
0200
0030
0022
0000
2000
0000
0000
0030
0020
0000
0000
0300
0200
0000
0000
0003
,
0002
3000
0000
0300
2200
0000
0000
0030
0020
0000
0000
3000
2000
0030
0020
0300
,
0200
0003
0002
0300
0230
0000
0000
0003
0022
0000
0300
3003
2032
0000
0000
3003
,
0022
0000
0000
0000
0000
0000
0000
0000
0000
0000
0000
0000
2233
0000
3300
0000
0000
0000
0022
0000
0033
0000
2200
0000
3322
0000
0033
0000
2200
0000
3322
0000
0033
0000
0000
0000
2200
0000
3300
0000
0000
0000
0022
0000
0000
0033
0000
0000
,
0200
0000
0020
0300
2000
0030
0000
0000
3022
0033
0000
0000
2002
0000
0000
0000
,
3223
0000
0000
0330
0012
0000
0000
0003
2220
3330
0000
0000
1101
0000
0010
0000
,
1101
0010
1101
0000
1101
0000
0111
1000
,
0111
0100
1011
0100
1011
0100
1101
0010
,
1110
0001
1110
0001
1011
0100
1101
0010
,
1011
0100
1101
0001
1110
0100
1011
0100
,
1101
1110
0010
0111
1000
0111
1000
0111
,
1000
1101
0010
0111
1000
1101
0010
1011
,
0100
0111
1000
1110
0001
1101
0010
1110
,
0001
1011
0100
0111
1001
0100
1001
0101
,
0110
1010
1100
0010
1101
0010
1101
0010
,
1101
0010
1110
0010
1101
1000
0111
1001
,
0111
1100
1011
1000
0111
1000
0111
0100
,
1011
0001
1110
0001
1101
1000
0111
1100
,
1110
0011
1110
0100
1011
0010
1101
0100
,
0111
1000
0111
1000
1110
0001
1110
0011
,
1101
1100
0111
1000
0111
1000
0111
1000
,
0111
1000
0111
1000
0111
0100
1110
1001
,
1100
0011
1101
0001
1110
0001
1110
0010
,
1101
1000
0111
1000
1110
0001
1011
0000
,
0000
1001
0110
1010
0101
0000
1100
0110
,
1011
0000
0000
0110
1001
0000
0000
0000
0111
0000
0000
0000
1110
0000
0000
0000
,
0000
1001
0110
0101
1010
0000
0110
0110
,
1001
0000
0000
0100
1001
0000
0000
0000
1010
0000
0000
0000
1101
0000
1010
0000
,
0111
1010
0111
1000
1011
0100
1110
0010
,
1101
0010
1101
1000
1110
0010
1101
0110
,
1110
0101
1110
0100
1011
0100
1110
0001
,
1110
0010
1101
0010
1011
0100
1101
0101
,
1011
1010
1110
0001
0111
1000
0111
0001
,
1110
0100
0111
0100
1101
0010
1101
1010
,
1110
0101
1011
0100
1011
0100
1011
0100
,
1011
0100
1011
0100
1110
0001
1101
0100
,
1011
0001
0111
1000
0111
0010
1101
0100
,
1110
0000
0010
1000
0111
0000
1000
0000
0111
0000
0010
0000
1101
0000
0100
0000
,
1110
0001
0111
1000
0111
0010
1101
0100
,
1110
0000
0010
0001
1110
0000
1000
0000
0111
0000
0010
0000
1101
0000
0010
0000
,
1101
0010
1101
0010
1101
0010
0111
0010
,
1101
0000
0010
1000
0111
0000
0010
0000
1101
0000
0010
0000
1110
0000
0001
0000
,
1110
0001
1110
0001
1110
0001
1011
0001
,
1101
0000
0001
1000
0111
0000
0100
0000
0111
0000
1000
0000
1011
0000
0001
0000
,
0111
1000
1110
0001
1011
0100
1101
1000
,
0111
0000
0010
1000
0111
0000
0001
0000
1110
0000
1000
0000
1110
0000
0001
0000
,
0111
1000
0111
0001
1011
1000
1011
0001
,
1011
0000
0001
1000
0110
0000
0001
0000
1110
0000
0001
0000
1110
0000
0001
0000
,
1011
0001
1110
0001
1011
0001
1101
0001
,
0100
0000
0000
1100
0011
0000
0000
0000
0001
0000
0000
0000
1001
0000
0000
0000
,
0000
0000
1000
0000
0011
0000
0100
0000
0011
0100
0000
0000
1001
0000
0100
0000
,
1001
0000
0000
0010
1001
0000
0010
0000
0110
0001
1000
0000
0101
0000
0001
0000
,
1111
1000
1111
0010
1111
0100
1111
0001
,
1111
1000
1111
0010
1111
0100
1111
0001
,
1111
1000
1111
0010
1111
0100
1111
0001
,
1111
1000
1111
0010
1111
0100
1111
0101
,
1111
1001
1111
1010
1111
0110
1111
0101
,
1111
1010
1111
0000
0000
0110
1111
1001
,
1111
0000
0000
0000
0101
0000
0000
0000
1111
0000
0000
0000
0011
0000
0000
0000
1111
0000
0000
0000
0101
0000
0000
0000
1111
0000
0000
0000
0000
0000
0001
0010
,
0100
1000
0000
0000
0000
0000
0000
0000
1111
0000
0000
0000
0000
0000
0000
0000
0011
0000
2000
0000
3200
0000
2300
0000
3020
0000
0032
0000
0023
0000
0230
0000
,
2300
3200
0320
0032
0023
0032
0203
2300
3200
0302
0023
0032
0023
2030
3200
2300
,
3200
0320
0032
0203
0320
2030
3200
0320
0032
0023
2030
3020
2030
3002
0023
0230
,
0302
0023
0230
2300
3200
0320
2030
3020
2030
3002
0203
0302
0023
0230
0320
0032
,
2003
3200
0320
2030
3020
2030
3002
0203
0302
0023
0230
2300
3200
0320
0032
2003
,
3200
0320
0032
0023
0230
2300
3002
0023
0230
2300
3200
0320
2030
3200
0022
0000
,
0000
0000
0000
0333
0000
0000
0000
0000
0000
0000
0000
0000
0000
0000
0000
0000
;
