#TITLE:Viva Rock;
#SUBTITLE:Naruto Third Ending Theme;
#ARTIST:Unknown artist;
#TITLETRANSLIT:;
#SUBTITLETRANSLIT:;
#ARTISTTRANSLIT:;
#CREDIT:;
#BANNER:vivarock-bn.bmp;
#BACKGROUND:Viva Rock-bg.bmp;
#LYRICSPATH:;
#CDTITLE:;
#MUSIC:Naruto - 3rd Ending.mp3;
#OFFSET:-0.560;
#SAMPLESTART:43.356;
#SAMPLELENGTH:12.000;
#SELECTABLE:YES;
#BPMS:0.000=140.200;
#STOPS:;
#BGCHANGES:;
// cache tags:
#FIRSTBEAT:9.000;
#LASTBEAT:207.333;
#SONGFILENAME:Songs/toune 1 (2010)/Naruto - Viva Rock (Third Ending)/Naruto - Viva Rock (Third Ending).sm;
#HASMUSIC:1;
#HASBANNER:1;
#MUSICLENGTH:90.346;
// end cache tags

//---------------dance-single - Naruto 3rd Ending----------------
#NOTES:
     dance-single:
     Naruto 3rd Ending:
     Hard:
     9:
     0.631,0.832,0.343,0.708,0.780,300.000,31.000,64.000,0.000,8.000:

0000
0000
0000
0000
,
0000
0000
0000
0000
,
0000
2000
3002
2003
,
3001
0020
0230
0320
,
1031
0000
0001
1000
0000
0001
1000
0001
1000
0000
0000
1000
,
0001
0010
0100
1000
0001
0010
0100
0001
1000
0001
0010
0100
,
2001
0000
3001
0010
0100
1000
0001
0010
1000
0001
0010
1000
,
0002
0003
0010
0200
0300
1000
0002
0003
0010
0200
0300
1000
,
0110
0000
1000
0010
0001
0100
0010
0001
0010
1000
0000
0000
,
1000
0001
1000
0100
0010
0001
0100
0010
1000
0001
0000
0000
,
1001
0000
0000
1000
0010
0100
0001
1000
0100
0010
0001
1000
,
2000
0000
0002
0000
3003
0010
0100
0000
,
1000
0000
0000
0000
0020
0000
0000
0000
0000
0000
0200
0000
0000
0000
0000
0330
1000
0000
0001
0000
0000
0000
0000
0000
,
1000
0000
0000
0000
0002
0000
0000
0000
0000
0000
0020
0000
0000
0000
0000
0033
0100
0000
1000
0000
0000
0000
0000
0000
,
1000
0000
0001
1000
0000
1000
0000
0000
0001
1000
0000
0001
,
2000
0000
0020
0000
0000
0002
0000
3033
0000
0100
0000
0000
,
2000
0000
0000
0000
3000
0010
0001
0000
0000
0001
0000
0000
,
0020
0000
0000
0000
0030
0100
0001
0000
0000
0010
0000
0000
,
2000
0000
0000
0000
3000
0010
0001
0000
0000
1000
0000
0000
,
0000
1100
0110
0011
,
2000
0000
0000
3002
,
2003
3002
2003
3002
,
2003
0000
0000
0001
0010
0000
0000
0000
0000
0000
0000
0000
0000
0000
0000
0000
,
3001
1000
0001
1000
,
1111
2000
3002
2003
,
3000
0020
0230
0320
,
1031
0000
0000
1000
0100
0001
0010
0100
1000
1000
0000
1000
,
2000
0010
3001
0002
0000
0013
0020
0000
1030
2000
0000
3001
,
0110
0000
0001
0010
0000
0001
0010
0100
1000
0001
0000
0010
,
1000
0001
0100
0010
1000
0001
0010
0000
0000
0001
0000
0000
,
1001
0000
0110
1001
0000
0110
1001
0110
1001
0110
0000
1000
,
0001
0000
0100
0010
0000
0100
0001
0010
0100
0010
0001
1000
,
1001
0000
1000
0100
0010
0001
0011
0000
0011
1100
0000
1000
,
0002
0000
0013
0200
0000
1300
0010
0000
0100
1111
0000
0000
,
0001
0000
0000
0000
0200
0000
0000
0000
0000
0000
0020
0000
0000
0000
0000
0330
0001
0000
1000
0000
0000
0000
0000
0000
,
0001
0000
0000
0000
2000
0000
0000
0000
0000
0000
0200
0000
0000
0000
0000
3300
0010
0000
0001
0000
0000
0000
0000
0000
,
0001
0000
1000
0001
0000
0001
0000
0000
1000
0001
0000
1000
,
0002
0000
0200
0000
0000
2000
0000
3303
0000
0010
0000
0000
,
0020
0000
0000
0000
0030
0100
0001
0000
0000
0010
0000
0000
,
2000
0000
0000
0000
3000
0010
0001
0000
0000
1000
0000
0000
,
0002
0000
0000
0000
0003
0100
1000
0000
0000
0110
0000
0000
,
0000
0011
0110
1100
,
0100
0000
0000
0000
2000
0000
0000
0000
0000
0000
0002
0000
0000
0000
0000
3003
0100
0000
0010
0000
0000
0000
0000
0000
,
0100
0000
0000
0000
0020
0000
0000
0000
0000
0000
2000
0000
0000
0000
0000
3030
0001
0000
0100
0000
0000
0000
0010
0000
,
0100
0000
0000
0000
0002
0000
0100
0000
0000
0000
0200
0000
0000
0000
0000
0303
0010
0000
0100
0000
0000
0000
0010
0000
,
0200
0000
2000
0000
0000
0020
0000
3330
0000
0001
0000
0000
,
0002
0000
0000
0000
0003
1000
0100
0000
0000
0001
0000
0000
,
0020
0000
0000
0000
0030
0001
0100
0000
0000
0010
0000
0000
,
0200
0000
0000
0000
0000
1000
0010
0000
0000
0000
0000
0000
,
0000
1301
0110
1100
,
1000
0001
0010
0100
1000
0100
0001
0010
0001
0100
0010
1000
,
0100
0010
0001
0100
0010
1000
0100
0010
0001
0010
1001
0000
;
