#TITLE:Kesenai Tsumi (TV Edit);
#SUBTITLE:- FullMetal Alchemist 1st Ending;
#ARTIST:Nana Kitade;
#TITLETRANSLIT:;
#SUBTITLETRANSLIT:;
#ARTISTTRANSLIT:;
#CREDIT:;
#BANNER:Kesenai Tsumi (TV Edit).png;
#BACKGROUND:Kesenai Tsumi (TV Edit)-bg.png;
#LYRICSPATH:;
#CDTITLE:Dj DMA Otaku Original.png;
#MUSIC:Kesenai Tsumi (TV Edit).mp3;
#OFFSET:0.154;
#SAMPLESTART:40.924;
#SAMPLELENGTH:12.000;
#SELECTABLE:YES;
#BPMS:0.000=157.880,138.500=147.840;
#STOPS:105.500=0.900
;
#BGCHANGES:28.750=FMA ED Vid.avi=1.000=1=0=0,
194.000=Kesenai Tsumi (TV Edit)-bg.png=1.000=1=0=0,
99999=-nosongbg-=1.000=0=0=0 // don't automatically add -songbackground-
;
// cache tags:
#FIRSTBEAT:5.000;
#LASTBEAT:196.000;
#SONGFILENAME:Songs/Otaku's Dream 1st Anime Mix/DJ DMAxel - Kesenai Tsumi (TV Edit)/Kesenai Tsumi (TV Edit).sm;
#HASMUSIC:1;
#HASBANNER:1;
#MUSICLENGTH:80.274;
// end cache tags

//---------------dance-single - ----------------
#NOTES:
     dance-single:
     :
     Hard:
     6:
     0.383,0.396,0.212,0.112,0.000,189.000,17.000,9.000,0.000,0.000:
0000
0000
0000
0000
,
0000
0000
0000
0000
0010
0000
0010
0010
,
0010
0000
0100
0100
0100
0000
0001
0001
,
0001
0000
1000
1000
1000
0000
1000
1000
,
1000
0000
0010
0010
0010
0000
0100
0100
,
0100
0000
0001
0001
0001
0000
0010
0010
,
0010
0000
0100
0100
0100
0000
0001
0010
,
1010
0000
0000
0010
0100
0000
0010
0000
,
1000
0010
1000
0010
,
0100
0000
0101
0000
0010
0001
0010
0000
,
1000
0010
1000
0010
,
1010
0000
0100
0100
0010
0000
0100
0000
,
0010
0011
0001
0101
,
0010
0000
1000
0000
0010
1000
0000
0100
,
0000
0001
0010
0010
,
0001
0000
0100
0000
1000
0000
0100
1000
,
0100
0000
0100
0000
0001
0000
0010
0001
,
0010
1000
0010
0000
1000
0000
0010
1000
,
0010
0000
1000
0010
0100
0000
0010
0000
,
0001
0010
0001
0000
0100
0000
0100
0001
,
0100
0000
0010
0100
0010
0000
0100
0100
,
0100
0001
0010
0001
,
1000
0010
1000
0010
,
0100
0110
1000
0010
,
1010
0010
1000
0100
,
0001
0010
0011
0101
,
1000
0000
1010
1010
0000
0100
0000
0101
,
0000
0010
0000
1000
0000
1010
0000
0100
,
0000
0010
0000
0001
0000
0011
0000
0001
,
0000
0010
0000
0100
0000
0001
0000
1000
,
0000
0010
0000
0001
0000
0002
0000
0000
,
0003
1000
0000
0010
0000
2000
0000
0000
,
3000
0010
0000
0100
0000
0010
0000
0100
,
0000
0010
0000
0001
0000
0010
0000
0100
,
0000
0010
0000
0100
0000
0002
0000
0000
,
0000
0103
0000
0000
0010
0000
0000
0000
,
1010
0000
0100
0000
,
0100
0000
0000
0000
0100
0000
0000
0011
,
0000
0100
0000
2000
0000
0000
0000
0010
,
0000
3000
0000
0100
0000
0000
0002
0000
,
0000
0000
0000
0000
0000
1003
0000
0000
,
0000
0000
0010
0000
0000
0100
0000
0010
,
0000
0100
0000
0000
0000
0110
0000
0000
,
0010
0000
0010
0000
,
0200
0000
0000
0010
0300
0000
0000
0002
,
0000
0000
0000
1003
0000
0010
0000
2000
,
0000
3010
0000
0200
,
0000
0310
0000
0001
,
1000
0000
0010
0000
0100
0000
0010
0100
;

//---------------dance-single - ----------------
#NOTES:
     dance-single:
     :
     Challenge:
     7:
     0.441,0.548,0.523,0.037,0.000,203.000,42.000,3.000,0.000,0.000:
0000
0000
0000
0000
,
0000
0000
1000
1000
1010
0000
0100
0100
,
0110
0000
0100
0100
0101
0000
0010
0010
,
0011
0000
0001
0001
0110
0000
0010
0010
,
1010
0000
0010
0010
1010
0000
0100
0100
,
0101
0000
0100
0100
0110
0000
0100
0100
,
1010
0000
0100
0100
0101
0000
0010
0001
,
0010
1100
1010
0100
,
0110
0010
0011
0100
,
0101
0010
0011
0001
,
0101
0100
1100
0010
,
1010
0100
0110
0100
,
0101
0010
0011
0100
,
0011
0001
0101
0010
,
1010
0010
0100
0010
,
1010
0100
0010
0011
,
0001
0000
0100
0000
0000
0010
0001
0010
,
1000
0010
0010
0000
0100
0000
0010
0000
,
1010
0100
0010
0110
,
0010
0011
0001
0100
,
1000
1010
0100
0010
,
0001
0011
0100
1000
,
0100
0001
0010
0001
,
0010
1001
0001
0100
,
0010
1000
0010
0100
,
0010
1000
0010
0100
,
0010
0100
0100
0100
0000
1001
0000
0010
,
0000
1000
0000
0010
0000
0010
0000
0100
,
0000
0001
0000
0010
0000
0011
0000
0100
,
0000
0001
0000
0100
0000
1000
0000
0010
,
0000
1000
0000
0001
0000
0011
0000
0100
,
0000
0100
0000
1000
0000
1010
0000
0100
,
0000
0010
0000
0100
0000
0010
0000
0001
,
0000
0010
0000
1000
0000
0010
0000
1000
,
0000
0010
0000
0100
0000
0002
0000
0000
,
0000
0000
0000
0003
1000
0000
0000
0000
,
0010
0000
1000
0000
0010
0000
0001
0100
,
0000
1000
0000
0010
0000
1000
0000
0010
,
0000
1000
0000
0010
0000
0100
0000
0110
,
0000
1000
0000
0010
1000
0000
1010
0000
,
0100
0010
0010
0011
,
0100
0001
0000
0010
0000
1000
0000
0100
,
0000
0020
0000
0000
0000
1000
0030
0000
,
0100
0001
0100
0010
,
1000
0010
0110
0100
,
0010
0000
0001
0000
0010
0000
1000
0002
,
0000
0000
0000
1000
0003
0000
0001
0000
,
1000
0010
1000
0100
,
0010
0000
0001
0000
0010
0000
0010
0100
;

//---------------dance-single - ----------------
#NOTES:
     dance-single:
     :
     Medium:
     4:
     0.297,0.336,0.050,0.536,0.000,120.000,4.000,43.000,0.000,0.000:
0000
0000
0000
0000
,
0000
0000
0002
0000
0000
0003
0000
0000
,
2000
0000
0000
3000
0020
0000
0000
0030
,
0200
0000
0000
0300
0002
0000
0000
0003
,
0020
0030
2000
3000
,
0200
0300
0020
0030
,
0002
0000
0000
2003
0000
0000
3000
0000
,
0010
0100
0010
0100
,
0010
0000
0010
0000
,
0001
0000
0100
0000
,
1000
0000
0010
0000
,
0100
0000
0010
0000
,
0001
0000
1000
0000
,
0010
0000
0100
0000
,
0010
0000
0001
0000
,
1000
0000
0010
0000
,
0100
0010
0100
0010
,
0001
0010
0001
0000
0000
0000
0000
0000
,
0100
0000
0010
0000
,
1000
0000
0001
0000
,
0100
0000
0010
0000
,
1000
0000
0100
0000
,
0010
0000
0001
0000
,
0010
0000
1000
0000
,
0100
0000
0001
0000
,
0010
0000
0000
0100
0000
0000
0010
0000
,
0100
0000
0010
0011
0000
0100
0000
0101
,
0000
0010
0000
1000
0000
0010
0000
1000
,
0000
0010
0000
1000
0000
0010
0000
0100
,
0000
0110
0000
1000
0000
0010
0000
0100
,
0000
0001
0000
0010
0000
0011
0000
0001
,
0000
1000
0000
0010
0000
0002
0000
0003
,
0000
1000
0000
0010
0000
1000
0000
0100
,
0000
0010
0000
0001
0000
1000
0000
0010
,
0000
2000
0000
0000
3000
0020
0000
0000
,
0030
0200
0000
0000
0302
0000
0000
0003
,
2000
0000
0000
3000
0020
0000
0000
0030
,
0200
0000
0000
0300
0002
0000
0003
2000
,
0000
0000
3000
0020
0000
0000
0030
0200
,
0000
0300
0000
0002
0000
0003
2000
0000
,
0000
3000
0020
0000
0000
0030
0200
0000
,
0300
0002
0000
0000
0003
0020
0000
0000
,
0030
2000
0000
3000
0200
0000
0000
0000
,
0320
0000
0000
0030
0002
0000
0000
0003
,
2000
0000
0000
3000
0020
0000
0030
0200
,
0000
0000
0300
0002
0000
0000
0003
2000
,
0000
0000
3000
0020
0000
0030
0200
0000
,
0000
0300
0002
0000
0003
0000
0020
0000
,
0030
0200
0000
0000
0300
0010
0000
0000
,
0001
0000
0000
0000
;

//---------------dance-single - ----------------
#NOTES:
     dance-single:
     :
     Easy:
     2:
     0.137,0.183,0.000,0.000,0.000,77.000,0.000,0.000,0.000,0.000:
0000
0000
0000
0000
,
0000
0000
0100
0000
,
0010
0000
1000
0000
,
0001
0000
0010
0000
,
1000
0000
0100
0000
,
0010
0000
0001
0000
,
0010
0000
1000
0000
,
0000
0000
0001
0000
,
1000
0000
0001
0000
,
1000
0000
0010
0000
,
1000
0000
0010
0000
,
1000
0000
0010
0000
,
0100
0000
0010
0000
,
0100
0000
0010
0000
,
0100
0000
0000
0000
0100
0000
0000
0001
,
0000
0000
0000
0100
0000
0000
0000
0000
,
0001
0000
0000
0000
,
0000
0000
0010
0000
0000
0000
0000
1000
,
0000
0000
0100
0000
,
0010
0000
1000
0000
,
0010
0000
0000
0001
0000
0000
0000
0000
,
0010
0000
0001
0000
,
1000
0000
0010
0000
,
0001
0000
0100
0000
,
1000
0000
0010
0000
,
0100
0000
0010
0100
,
0010
0000
0001
0000
0000
1000
0000
0000
,
0000
0000
0000
0000
0000
0001
0000
0000
,
0000
0000
0000
0000
0000
1000
0000
0000
,
0000
0000
0000
0010
0000
0000
0000
0000
,
0000
0000
0000
0000
0000
0100
0000
0000
,
0000
0000
0000
0010
0000
0000
0000
1000
,
0000
0000
0000
0001
0000
0000
0000
1000
,
0000
0000
0000
0010
0000
0000
0000
0100
,
0000
0010
0000
0001
0000
1000
0000
0000
,
0000
0000
0001
0000
,
1000
0000
0000
0000
0000
0000
0000
0001
,
0000
0000
0000
0000
,
0000
0000
0000
0000
0000
0000
0000
0010
,
0000
0000
0000
1000
,
0000
0000
0000
0000
0000
0010
0000
0000
,
0000
0000
0000
0000
0000
0100
0000
0000
,
0000
0010
0000
0000
0000
0001
0000
0000
,
0000
0000
1000
0000
,
0000
0000
0010
0000
,
0000
0000
0000
0000
0000
0000
0000
0100
,
0000
0000
0000
0000
,
0000
0010
0000
0000
,
0000
0000
0000
0000
,
0001
0000
0000
0000
;
