#TITLE:Misery;
#SUBTITLE:Sexuality Violation;
#ARTIST:Maroon 5;
#TITLETRANSLIT:;
#SUBTITLETRANSLIT:;
#ARTISTTRANSLIT:;
#CREDIT:;
#BANNER:Misery-bn.png;
#BACKGROUND:Misery-bg.png;
#LYRICSPATH:;
#CDTITLE:GazeboCD.png;
#MUSIC:Misery.ogg;
#OFFSET:-0.861;
#SAMPLESTART:34.076;
#SAMPLELENGTH:26.550;
#SELECTABLE:YES;
#BPMS:0.000=205.975;
#STOPS:;
#BGCHANGES:;
// cache tags:
#FIRSTBEAT:2.000;
#LASTBEAT:674.000;
#SONGFILENAME:Songs/Sexuality Violation 2/Misery - [Gazebo]/Misery.sm;
#HASMUSIC:1;
#HASBANNER:1;
#MUSICLENGTH:204.904;
// end cache tags

//---------------dance-single - Gazebo----------------
#NOTES:
     dance-single:
     Gazebo:
     Challenge:
     16:
     1.000,1.000,0.049,0.185,1.000,1912.000,10.000,38.000,2.000,0.000:
0000
0000
0000
0000
0101
0000
0100
0001
,
0000
0100
0001
0000
1000
1000
0100
0000
,
1000
0000
0001
0000
0011
0000
0010
0001
,
0000
0010
0001
0000
1000
1000
0010
0000
,
0100
0100
0010
0000
1010
0000
0010
1000
,
0000
0010
1000
0000
0001
0001
0010
0000
,
0001
0000
1000
0000
1100
0000
0100
1100
,
0000
1000
1002
0000
0000
0000
0000
0000
,
M1M3
0000
0001
1000
,
1000
0000
0100
0000
0010
0000
0100
0010
,
0000
0000
0001
0000
1000
0010
0000
0100
,
0010
0000
2000
0000
3001
0001
0010
0000
,
0100
0100
0010
0000
0001
1000
0010
0000
,
0010
0100
0010
1000
,
0001
0000
0100
0000
0001
0010
0000
0100
,
0010
0000
0002
0000
1003
1000
0010
0000
,
0100
0100
0010
0000
1000
0000
0001
0000
,
0001
0000
0010
0000
0100
0000
0010
0100
,
0000
0100
0000
0000
1000
0001
0000
0100
,
0000
0002
0000
0000
2003
0000
0100
0000
,
3001
1000
0001
0010
,
0010
0000
0100
0000
0010
0100
0000
0010
,
0000
0000
0000
0001
1000
0010
0000
0100
,
0000
0002
0000
0000
2003
0000
0100
0000
,
3001
0001
0020
0000
0031
0100
0001
1000
,
0100
1000
0010
0100
0010
0100
0001
1000
,
0001
0010
0100
1000
0001
0010
0001
1000
,
0010
1000
0100
1000
0010
0100
0001
0000
,
0100
0000
0001
0000
1000
0000
0000
0000
0001
0010
0100
1000
0001
0010
0001
1000
,
0100
1000
0001
1000
0010
1000
0100
0010
0001
1000
0001
0100
0001
0010
0100
1000
,
0001
0100
0001
1000
0001
0010
0001
1000
0010
0100
0010
1000
0010
0100
0001
1000
,
0001
0010
0100
1000
0001
0010
0100
1000
0001
0010
0001
1000
0010
1000
0001
0100
,
0001
0010
0100
1000
0001
0100
0001
0100
0010
1000
0001
1000
0100
1000
0010
0100
,
0001
1000
0001
0010
0001
0100
0010
1000
0001
0010
0100
1000
0001
0010
0100
1000
,
0001
0100
0001
1000
0100
1000
0001
1000
0010
0100
0001
0100
0010
0100
0001
0010
,
0001
1000
0100
1000
0001
0100
0010
0100
0001
0100
0010
1000
0001
0010
0001
1000
,
0001
0100
0010
1000
0100
0010
0001
1000
0001
0100
0010
1000
0001
0100
0001
1000
,
0010
1000
0001
1000
0100
1000
0010
0100
0001
1000
0001
0010
0001
0100
0010
1000
,
0001
0010
0001
1000
0001
0100
0001
1000
0100
0010
0100
1000
0100
0010
0001
1000
,
0001
0100
0010
1000
0001
0100
0010
1000
0001
0100
0001
1000
0100
1000
0001
0010
,
0001
0100
0010
1000
0001
0100
0001
1000
0001
0010
0100
1000
0001
0010
0100
1000
,
0001
0100
0001
1000
0001
0010
0001
0100
0010
1000
0001
1000
0100
1000
0010
0100
,
0001
1000
0010
1000
0001
0100
0001
1000
0100
0010
0001
0010
0100
0010
0001
0100
,
0001
1000
0010
1000
0001
0010
0100
0010
0001
0010
0100
1000
0001
0100
0010
1000
,
0001
0100
0001
1000
0001
0010
0001
1000
0001
0010
0100
1000
0010
1000
0001
1000
,
0100
1000
0001
0100
0001
0010
0100
1000
0010
1000
0001
0100
0001
1000
0001
1000
,
0100
0010
0001
0010
0100
1000
0001
1000
0010
1000
0001
0100
0001
0010
0100
1000
,
0010
1000
0001
0100
0001
1000
0001
1000
0100
0010
0001
1000
0010
0100
0001
1000
,
0001
1000
0010
1000
0001
0100
0001
1000
0001
0010
0100
1000
0010
1000
0001
1000
,
0100
1000
0001
0100
0001
0010
0100
1000
0010
1000
0001
0100
0001
1000
0001
1000
,
0100
0010
0001
0010
0100
1000
0001
1000
0010
1000
0001
0100
0001
1000
0100
1000
,
0001
0010
0100
1000
0010
1000
0001
1000
0100
0010
0001
0010
0100
1000
0001
0010
,
0001
0100
0001
1000
0010
1000
0001
0010
0100
0000
0000
0000
0000
0000
0000
0000
,
0000
0000
0000
0000
,
1001
0000
0001
0000
1000
0010
0000
0100
,
0000
0010
0000
1000
0001
0001
0010
0000
,
0100
0100
0010
0000
0001
0000
1000
0002
,
0000
0000
0103
0020
0000
0000
1030
0001
,
0000
0000
0010
0000
0100
1000
0000
0010
,
1000
0000
0002
0000
1003
1000
0010
0000
,
0100
0100
0010
0000
1000
0000
0001
0000
,
0001
0000
0001
0000
1000
0100
0000
2000
,
0000
3000
1000
0000
0010
0000
0010
0000
,
0010
0100
0000
0001
2000
0000
0010
0000
,
3001
1000
0001
0010
,
0010
0000
0010
0000
0100
1000
0000
0002
,
0000
0000
0000
1003
0010
0000
0010
0000
,
0010
0100
0000
0001
1000
1000
0100
0000
,
0010
0010
0200
0000
1300
0010
1000
0001
,
0010
0001
0100
0010
0100
0010
1000
0001
,
1000
0100
0010
0001
0100
0010
0100
0001
,
0010
0001
0100
0010
0100
0001
1000
0000
,
0010
0000
1000
0000
0001
0000
0000
0000
1000
0100
0010
0001
1000
0100
1000
0001
,
0010
0001
1000
0001
0100
0001
0010
0100
1000
0001
1000
0010
1000
0100
0010
0001
,
1000
0010
1000
0001
1000
0100
1000
0001
0100
0010
0100
0001
0100
0010
1000
0001
,
1000
0100
0010
0001
1000
0100
0010
0001
1000
0100
1000
0001
0100
0001
1000
0010
,
1000
0100
0010
0001
1000
0010
1000
0010
0100
0001
1000
0001
0010
0001
0100
0010
,
1000
0001
1000
0100
1000
0010
0100
0001
1000
0100
0010
0001
1000
0100
0010
0001
,
1000
0010
1000
0001
0010
0001
1000
0001
0100
0010
1000
0010
0100
0010
1000
0100
,
1000
0001
0010
0001
1000
0010
0100
0010
1000
0010
0100
0001
1000
0100
1000
0001
,
1000
0010
0100
0001
0010
0100
1000
0001
1000
0010
0100
0001
1000
0010
1000
0001
,
0100
0001
1000
0001
0010
0001
0100
0010
1000
0001
1000
0100
1000
0010
0100
0001
,
1000
0100
1000
0001
1000
0010
1000
0001
0010
0100
0010
0001
0010
0100
1000
0001
,
1000
0010
0100
0001
1000
0010
0100
0001
1000
0010
1000
0001
0010
0001
1000
0100
,
1000
0010
0100
0001
1000
0010
1000
0001
1000
0100
0010
0001
1000
0100
0010
0001
,
1000
0010
1000
0001
1000
0100
1000
0010
0100
0001
1000
0001
0010
0001
0100
0010
,
1000
0001
0100
0001
1000
0010
1000
0001
0010
0100
1000
0100
0010
0100
1000
0010
,
1000
0001
0100
0001
1000
0100
0010
0100
1000
0100
0010
0001
1000
0010
0100
0001
,
1000
0010
1000
0001
1000
0100
1000
0001
1000
0100
0010
0001
0100
0001
1000
0001
,
0010
0001
1000
0010
1000
0100
0010
0001
0100
0001
1000
0010
1000
0001
1000
0001
,
0010
0100
1000
0100
0010
0001
1000
0001
0100
0001
1000
0010
1000
0100
0010
0001
,
0100
0001
1000
0010
1000
0001
1000
0001
0010
0100
1000
0001
0100
0010
1000
0001
,
1000
0001
0100
0001
1000
0010
1000
0001
1000
0100
0010
0001
0100
0001
1000
0001
,
0010
0001
1000
0010
1000
0100
0010
0001
0100
0001
1000
0010
1000
0001
1000
0001
,
0010
0100
1000
0100
0010
0001
1000
0001
0100
0001
1000
0010
1000
0001
0010
0001
,
1000
0100
0010
0001
0100
0001
1000
0001
0010
0100
1000
0100
0010
0001
1000
0100
,
1000
0000
0000
0010
0000
0000
1000
0000
0000
0001
0000
0000
0100
0000
0000
0001
0000
0000
0010
0000
0000
0100
0000
0000
1000
0000
0000
0000
0001
0000
0000
0000
1000
0000
0000
0000
0001
0000
0000
0000
0010
0000
0000
0000
0100
0000
0000
0000
,
1000
0001
0100
0001
1000
0010
1000
0001
0010
0001
1000
0010
,
0100
0001
0010
0100
1000
0001
1000
0010
1000
0010
0100
0001
,
1000
0100
1000
0001
0010
0001
1000
0100
1000
0001
0100
0001
,
1000
0100
0010
0001
0100
0010
1000
0100
1000
0100
0010
0001
,
1000
0010
1000
0001
0100
0001
0010
0100
1000
0100
0010
0001
,
1000
0010
1000
0001
1000
0001
0010
0100
0010
0001
1000
0010
,
1000
0000
0001
0000
0100
0000
0001
0000
0010
0000
0100
0000
1000
0000
0010
0000
1000
0000
0001
0000
0000
0001
0000
0000
,
1000
0000
0000
0000
0000
0000
0001
0000
0000
0001
0000
0000
0010
0000
0001
0000
0010
0000
0001
0000
1000
0000
0010
0000
,
0100
0001
0010
0001
1000
0100
1000
0001
1000
0010
0100
0001
,
1000
0010
1000
0001
0100
0001
1000
0100
1000
0100
0010
0001
,
0100
0001
1000
0010
1000
0100
1000
0001
0010
0001
1000
0001
,
0100
0001
1000
0010
1000
0001
0010
0100
1000
0010
1000
0001
,
0100
0001
0010
0001
1000
0010
0100
0001
0100
0001
1000
0100
,
1000
0001
0010
0001
1000
0010
0100
0010
1000
0010
0100
0001
,
1000
0100
1000
0010
0100
0002
1000
0000
0000
1003
0000
0000
,
1200
0000
1300
0000
1001
0000
0001
0100
,
0020
0000
0130
0001
2000
0000
3100
0010
,
0002
1000
1003
0000
0020
0000
1000
0000
,
1030
0020
1000
1030
,
0010
1000
0001
1000
0010
0000
1000
0100
,
0020
0000
0130
1000
0002
0000
0103
0010
,
2000
0001
3001
0000
0020
0000
0001
0000
,
0031
0020
0001
0031
,
0001
1000
0100
1000
0001
0000
1000
0010
,
0200
0000
0310
1000
0002
0000
0013
0100
,
2000
0001
3001
0000
0200
0000
0001
0000
,
0301
0200
0001
0301
,
0100
0001
1000
0001
0100
0000
0001
0010
,
0200
0000
0310
0001
2000
0000
3010
0100
,
0002
1000
1003
0000
0200
0000
1000
0000
,
1300
0200
1000
1300
,
2001
0000
0000
0000
0000
0000
0000
0000
3001
0010
0100
1000
0001
0010
0001
1000
,
0100
1000
0001
1000
0010
1000
0100
0010
0001
1000
0001
0100
0001
0010
0100
1000
,
0001
0100
0001
1000
0001
0010
0001
1000
0010
0100
0010
1000
0010
0100
0001
1000
,
0001
0010
0100
1000
0001
0010
0100
1000
0001
0010
0001
1000
0010
1000
0001
0100
,
0001
0010
0100
1000
0001
0100
0001
0100
0010
1000
0001
1000
0100
1000
0010
0100
,
0001
1000
0001
0010
0001
0100
0010
1000
0001
0010
0100
1000
0001
0010
0100
1000
,
0001
0100
0001
1000
0100
1000
0001
1000
0010
0100
0001
0100
0010
0100
0001
0010
,
0001
1000
0100
1000
0001
0100
0010
0100
0001
0100
0010
1000
0001
0010
0001
1000
,
0001
0100
0010
1000
0100
0010
0001
1000
0001
0100
0010
1000
0001
0100
0001
1000
,
0010
1000
0001
1000
0100
1000
0010
0100
0001
1000
0001
0010
0001
0100
0010
1000
,
0001
0010
0001
1000
0001
0100
0001
1000
0100
0010
0100
1000
0100
0010
0001
1000
,
0001
0100
0010
1000
0001
0100
0010
1000
0001
0100
0001
1000
0100
1000
0001
0010
,
0001
0100
0010
1000
0001
0100
0001
1000
0001
0010
0100
1000
0001
0010
0100
1000
,
0001
0100
0001
1000
0001
0010
0001
0100
0010
1000
0001
1000
0100
1000
0010
0100
,
0001
1000
0010
1000
0001
0100
0001
1000
0100
0010
0001
0010
0100
0010
0001
0100
,
0001
1000
0010
1000
0001
0010
0100
0010
0001
0010
0100
1000
0001
0100
0010
1000
,
0001
0100
0001
0010
0001
1000
0100
1000
0001
0100
0010
1000
0100
1000
0001
1000
,
0010
1000
0001
0010
0001
0100
0010
1000
0100
1000
0001
0010
0001
1000
0001
1000
,
0010
0100
0001
0100
0010
1000
0001
1000
0100
1000
0001
0010
0001
0100
0010
1000
,
0100
1000
0001
0010
0001
1000
0001
1000
0010
0100
0001
1000
0100
0010
0001
1000
,
0001
1000
0100
1000
0001
0010
0001
1000
0001
0100
0010
1000
0100
1000
0001
1000
,
0010
1000
0001
0010
0001
0100
0010
1000
0100
1000
0001
0010
0001
1000
0001
1000
,
0010
0100
0001
0100
0010
1000
0001
1000
0100
1000
0001
0010
0001
1000
0010
1000
,
0001
0100
0010
1000
0100
1000
0001
1000
0010
0100
0001
0100
0010
1000
0001
0100
,
0001
1000
0001
0010
0100
1000
0010
1000
0001
0100
0010
1000
0100
1000
0001
1000
,
0010
1000
0001
0010
0001
0100
0010
1000
0100
1000
0001
0010
0001
1000
0001
1000
,
0010
0100
0001
0100
0010
1000
0001
1000
0100
1000
0001
0010
0001
0100
0010
1000
,
0100
1000
0001
0010
0001
1000
0001
1000
0010
0100
0001
1000
0100
0010
0001
1000
,
0001
1000
0100
1000
0001
0010
0001
1000
0001
0100
0010
1000
0100
1000
0001
1000
,
0010
1000
0001
0010
0001
0100
0010
1000
0100
1000
0001
0010
0001
1000
0001
1000
,
0010
0100
0001
0100
0010
1000
0001
1000
0100
1000
0001
0010
0001
1000
0010
1000
,
0001
0100
0010
1000
0100
1000
0001
1000
0010
0100
0001
1000
0010
1000
0100
1000
,
0001
0010
0001
0100
0001
1000
0010
1000
0001
0010
0100
1000
0010
1000
0001
1000
,
0100
1000
0001
0100
0001
0010
0100
1000
0010
1000
0001
0100
0001
1000
0001
1000
,
0100
0010
0001
0010
0100
1000
0001
1000
0010
1000
0001
0100
0001
0010
0100
1000
,
0010
1000
0001
0100
0001
1000
0001
1000
0100
0010
0001
1000
0010
0100
0001
1000
,
0001
1000
0010
1000
0001
0100
0001
1000
0001
0010
0100
1000
0010
1000
0001
1000
,
0100
1000
0001
0100
0001
0010
0100
1000
0010
1000
0001
0100
0001
1000
0001
1000
,
0100
0010
0001
0010
0100
1000
0001
1000
0010
1000
0001
0100
0001
1000
0100
1000
,
0001
0010
0100
1000
0010
1000
0001
1000
0100
0010
0001
0010
0100
1000
0001
0010
,
0001
1000
0001
0100
0010
1000
0100
1000
0001
0000
0000
0000
0000
0000
0000
0000
;

//---------------dance-single - Gazebo----------------
#NOTES:
     dance-single:
     Gazebo:
     Medium:
     13:
     1.000,1.000,0.049,0.185,1.000,1560.000,10.000,38.000,2.000,0.000:
0000
0000
0000
0000
0101
0000
0100
0001
,
0000
0100
0001
0000
1000
1000
0100
0000
,
1000
0000
0001
0000
0011
0000
0010
0001
,
0000
0010
0001
0000
1000
1000
0010
0000
,
0100
0100
0010
0000
1010
0000
0010
1000
,
0000
0010
1000
0000
0001
0001
0010
0000
,
0001
0000
1000
0000
1100
0000
0100
1100
,
0000
1000
1002
0000
0000
0000
0000
0000
,
M1M3
0000
0001
1000
,
1000
0000
0100
0000
0010
0000
0100
0010
,
0000
0000
0001
0000
1000
0010
0000
0100
,
0010
0000
2000
0000
3001
0001
0010
0000
,
0100
0100
0010
0000
0001
1000
0010
0000
,
0010
0100
0010
1000
,
0001
0000
0100
0000
0001
0010
0000
0100
,
0010
0000
0002
0000
1003
1000
0010
0000
,
0100
0100
0010
0000
1000
0000
0001
0000
,
0001
0000
0010
0000
0100
0000
0010
0100
,
0000
0100
0000
0000
1000
0001
0000
0100
,
0000
0002
0000
0000
2003
0000
0100
0000
,
3001
1000
0001
0010
,
0010
0000
0100
0000
0010
0100
0000
0010
,
0000
0000
0000
0001
1000
0010
0000
0100
,
0000
0002
0000
0000
2003
0000
0100
0000
,
3001
0001
0020
0000
0031
0100
0001
1000
,
0100
1000
0010
0100
0010
0100
0001
1000
,
0001
0010
0100
1000
0001
0010
0001
1000
,
0010
1000
0100
1000
0010
0100
0001
0000
,
0100
0000
0000
0001
0000
0000
1000
0000
0000
0000
0000
0000
0001
0000
0010
0000
0100
0000
0010
0000
0001
0000
1000
0000
,
0001
0100
0001
0100
0010
1000
0001
0010
0001
0010
0100
1000
,
0001
1000
0001
0100
0010
1000
0100
0010
0100
1000
0100
0010
,
0001
1000
0001
0100
0010
1000
0010
1000
0001
0010
0001
1000
,
0100
1000
0001
0100
0001
1000
0001
0010
0001
0010
0100
1000
,
0001
0100
0001
0100
0010
1000
0001
0010
0001
1000
0100
1000
,
0001
0100
0001
0010
0100
1000
0010
0100
0010
0100
0001
1000
,
0100
1000
0001
0100
0010
0100
0010
1000
0001
0010
0100
1000
,
0001
0100
0001
0010
0100
1000
0001
0100
0010
0100
0001
1000
,
0001
0010
0001
0010
0100
1000
0001
0100
0001
0100
0010
1000
,
0001
1000
0001
0010
0100
1000
0010
0100
0010
1000
0010
0100
,
0001
1000
0001
0010
0100
1000
0100
1000
0001
0100
0001
1000
,
0010
1000
0001
0010
0001
1000
0001
0100
0001
1000
0010
1000
,
0001
0010
0001
0010
0100
1000
0001
0100
0001
0100
0010
1000
,
0001
0010
0100
1000
0001
1000
0010
0100
0010
0100
0001
1000
,
0100
1000
0001
0100
0010
0100
0010
1000
0001
0010
0100
1000
,
0001
0010
0100
1000
0001
1000
0001
0100
0001
0010
0100
0010
,
0100
1000
0001
0100
0010
1000
0100
1000
0001
0010
0001
1000
,
0001
0100
0010
0100
0001
1000
0100
0010
0001
0100
0010
1000
,
0001
0010
0001
1000
0100
1000
0001
0100
0001
1000
0010
1000
,
0100
1000
0001
0010
0001
1000
0001
0100
0001
0010
0100
0010
,
0100
1000
0001
0100
0010
1000
0100
1000
0001
0010
0001
1000
,
0001
0100
0010
0100
0001
1000
0100
0010
0001
0100
0010
1000
,
0001
0010
0001
1000
0100
1000
0001
0100
0001
1000
0010
1000
,
0100
1000
0001
0010
0001
1000
0010
0000
0000
0000
0000
0000
,
0000
0000
0000
0000
,
1001
0000
0001
0000
1000
0010
0000
0100
,
0000
0010
0000
1000
0001
0001
0010
0000
,
0100
0100
0010
0000
0001
0000
1000
0002
,
0000
0000
0103
0020
0000
0000
1030
0001
,
0000
0000
0010
0000
0100
1000
0000
0010
,
1000
0000
0002
0000
1003
1000
0010
0000
,
0100
0100
0010
0000
1000
0000
0001
0000
,
0001
0000
0001
0000
1000
0100
0000
2000
,
0000
3000
1000
0000
0010
0000
0010
0000
,
0010
0100
0000
0001
2000
0000
0010
0000
,
3001
1000
0001
0010
,
0010
0000
0010
0000
0100
1000
0000
0002
,
0000
0000
0000
1003
0010
0000
0010
0000
,
0010
0100
0000
0001
1000
1000
0100
0000
,
0010
0010
0200
0000
1300
0010
1000
0001
,
0010
0001
0100
0010
0100
0010
1000
0001
,
1000
0100
0010
0001
0100
0010
0100
0001
,
0010
0001
0100
0010
0100
0001
1000
0000
,
0010
0000
0000
1000
0000
0000
0001
0000
0000
0000
0000
0000
1000
0000
0100
0000
0010
0000
0100
0000
1000
0000
0001
0000
,
1000
0010
1000
0010
0100
0001
1000
0100
1000
0100
0010
0001
,
1000
0001
1000
0010
0100
0001
0010
0100
0010
0001
0010
0100
,
1000
0001
1000
0010
0100
0001
0100
0001
1000
0100
1000
0001
,
0010
0001
1000
0010
1000
0001
1000
0100
1000
0100
0010
0001
,
1000
0010
1000
0010
0100
0001
1000
0100
1000
0001
0010
0001
,
1000
0010
1000
0100
0010
0001
0100
0010
0100
0010
1000
0001
,
0010
0001
1000
0010
0100
0010
0100
0001
1000
0100
0010
0001
,
1000
0010
1000
0100
0010
0001
1000
0010
0100
0010
1000
0001
,
1000
0100
1000
0100
0010
0001
1000
0010
1000
0010
0100
0001
,
1000
0001
1000
0100
0010
0001
0100
0010
0100
0001
0100
0010
,
1000
0001
1000
0100
0010
0001
0010
0001
1000
0010
1000
0001
,
0100
0001
1000
0100
1000
0001
1000
0010
1000
0001
0100
0001
,
1000
0100
1000
0100
0010
0001
1000
0010
1000
0010
0100
0001
,
1000
0100
0010
0001
1000
0001
0100
0010
0100
0010
1000
0001
,
0010
0001
1000
0010
0100
0010
0100
0001
1000
0100
0010
0001
,
1000
0100
0010
0001
1000
0001
1000
0010
1000
0100
0010
0100
,
0010
0001
1000
0010
0100
0001
0010
0001
1000
0100
1000
0001
,
1000
0010
0100
0010
1000
0001
0010
0100
1000
0010
0100
0001
,
1000
0100
1000
0001
0010
0001
1000
0010
1000
0001
0100
0001
,
0010
0001
1000
0100
1000
0001
1000
0010
1000
0100
0010
0100
,
0010
0001
1000
0010
0100
0001
0010
0001
1000
0100
1000
0001
,
1000
0010
0100
0010
1000
0001
0010
0100
1000
0010
0100
0001
,
1000
0100
1000
0001
0010
0001
1000
0010
1000
0100
0010
0001
,
0100
0001
1000
0010
1000
0001
0100
0001
1000
0001
0010
0100
,
1000
0001
0100
0001
1000
0010
1000
0001
0010
0001
1000
0010
,
0100
0001
0010
0100
1000
0001
1000
0010
1000
0010
0100
0001
,
1000
0100
1000
0001
0010
0001
1000
0100
1000
0001
0100
0001
,
1000
0100
0010
0001
0100
0010
1000
0100
1000
0100
0010
0001
,
1000
0010
1000
0001
0100
0001
0010
0100
1000
0100
0010
0001
,
1000
0010
1000
0001
1000
0001
0010
0100
0010
0001
1000
0010
,
1000
0000
0001
0000
0100
0000
0001
0000
0010
0000
0100
0000
1000
0000
0010
0000
1000
0000
0001
0000
0000
0001
0000
0000
,
1000
0000
0000
0000
0000
0000
0001
0000
0000
0001
0000
0000
0010
0000
0001
0000
0010
0000
0001
0000
1000
0000
0010
0000
,
0100
0001
0010
0001
1000
0100
1000
0001
1000
0010
0100
0001
,
1000
0010
1000
0001
0100
0001
1000
0100
1000
0100
0010
0001
,
0100
0001
1000
0010
1000
0100
1000
0001
0010
0001
1000
0001
,
0100
0001
1000
0010
1000
0001
0010
0100
1000
0010
1000
0001
,
0100
0001
0010
0001
1000
0010
0100
0001
0100
0001
1000
0100
,
1000
0001
0010
0001
1000
0010
0100
0010
1000
0010
0100
0001
,
1000
0100
1000
0010
0100
0002
1000
0000
0000
1003
0000
0000
,
1200
0000
1300
0000
1001
0000
0001
0100
,
0020
0000
0130
0001
2000
0000
3100
0010
,
0002
1000
1003
0000
0020
0000
1000
0000
,
1030
0020
1000
1030
,
0010
1000
0001
1000
0010
0000
1000
0100
,
0020
0000
0130
1000
0002
0000
0103
0010
,
2000
0001
3001
0000
0020
0000
0001
0000
,
0031
0020
0001
0031
,
0001
1000
0100
1000
0001
0000
1000
0010
,
0200
0000
0310
1000
0002
0000
0013
0100
,
2000
0001
3001
0000
0200
0000
0001
0000
,
0301
0200
0001
0301
,
0100
0001
1000
0001
0100
0000
0001
0010
,
0200
0000
0310
0001
2000
0000
3010
0100
,
0002
1000
1003
0000
0200
0000
1000
0000
,
1300
0200
1000
1300
,
2001
0000
0000
0000
0000
0000
3001
0010
0100
0010
0001
1000
,
0001
0100
0001
0100
0010
1000
0001
0010
0001
0010
0100
1000
,
0001
1000
0001
0100
0010
1000
0100
0010
0100
1000
0100
0010
,
0001
1000
0001
0100
0010
1000
0010
1000
0001
0010
0001
1000
,
0100
1000
0001
0100
0001
1000
0001
0010
0001
0010
0100
1000
,
0001
0100
0001
0100
0010
1000
0001
0010
0001
1000
0100
1000
,
0001
0100
0001
0010
0100
1000
0010
0100
0010
0100
0001
1000
,
0100
1000
0001
0100
0010
0100
0010
1000
0001
0010
0100
1000
,
0001
0100
0001
0010
0100
1000
0001
0100
0010
0100
0001
1000
,
0001
0010
0001
0010
0100
1000
0001
0100
0001
0100
0010
1000
,
0001
1000
0001
0010
0100
1000
0010
0100
0010
1000
0010
0100
,
0001
1000
0001
0010
0100
1000
0100
1000
0001
0100
0001
1000
,
0010
1000
0001
0010
0001
1000
0001
0100
0001
1000
0010
1000
,
0001
0010
0001
0010
0100
1000
0001
0100
0001
0100
0010
1000
,
0001
0010
0100
1000
0001
1000
0010
0100
0010
0100
0001
1000
,
0100
1000
0001
0100
0010
0100
0010
1000
0001
0010
0100
1000
,
0001
0010
0100
1000
0001
1000
0001
0100
0001
0010
0100
0010
,
0100
1000
0001
0100
0010
1000
0100
1000
0001
0010
0001
1000
,
0001
0100
0010
0100
0001
1000
0100
0010
0001
0100
0010
1000
,
0001
0010
0001
1000
0100
1000
0001
0100
0001
1000
0010
1000
,
0100
1000
0001
0010
0001
1000
0001
0100
0001
0010
0100
0010
,
0100
1000
0001
0100
0010
1000
0100
1000
0001
0010
0001
1000
,
0001
0100
0010
0100
0001
1000
0100
0010
0001
0100
0010
1000
,
0001
0010
0001
1000
0100
1000
0001
0100
0001
1000
0010
1000
,
0100
1000
0001
0010
0001
1000
0001
0100
0001
0010
0100
0010
,
0100
1000
0001
0100
0010
1000
0100
1000
0001
0010
0001
1000
,
0001
0100
0010
0100
0001
1000
0100
0010
0001
0100
0010
1000
,
0001
0010
0001
1000
0100
1000
0001
0100
0001
1000
0010
1000
,
0100
1000
0001
0010
0001
1000
0001
0100
0001
0010
0100
0010
,
0100
1000
0001
0100
0010
1000
0100
1000
0001
0010
0001
1000
,
0001
0100
0010
0100
0001
1000
0100
0010
0001
0100
0010
1000
,
0001
0010
0001
1000
0100
1000
0001
0100
0001
1000
0010
1000
,
0100
1000
0001
0010
0001
1000
0001
0100
0001
0010
0100
0010
,
0100
1000
0001
0100
0010
1000
0100
1000
0001
0010
0001
1000
,
0001
0100
0010
0100
0001
1000
0100
0010
0001
0100
0010
1000
,
0001
0010
0001
1000
0100
1000
0001
0100
0001
1000
0010
1000
,
0100
1000
0001
0010
0001
1000
0001
0100
0001
0010
0100
0010
,
0100
1000
0001
0100
0010
1000
0100
1000
0001
0010
0001
1000
,
0001
0100
0010
0100
0001
1000
0100
0010
0001
0100
0010
1000
,
0001
0010
0001
1000
0100
1000
0001
0100
0001
1000
0010
1000
,
0100
1000
0001
0010
0001
1000
0001
0000
0000
0000
0000
0000
;

//---------------dance-single - Gazebo----------------
#NOTES:
     dance-single:
     Gazebo:
     Hard:
     15:
     1.000,1.000,0.049,0.185,1.000,1752.000,10.000,38.000,2.000,0.000:
0000
0000
0000
0000
0101
0000
0100
0001
,
0000
0100
0001
0000
1000
1000
0100
0000
,
1000
0000
0001
0000
0011
0000
0010
0001
,
0000
0010
0001
0000
1000
1000
0010
0000
,
0100
0100
0010
0000
1010
0000
0010
1000
,
0000
0010
1000
0000
0001
0001
0010
0000
,
0001
0000
1000
0000
1100
0000
0100
1100
,
0000
1000
1002
0000
0000
0000
0000
0000
,
M1M3
0000
0001
1000
,
1000
0000
0100
0000
0010
0000
0100
0010
,
0000
0000
0001
0000
1000
0010
0000
0100
,
0010
0000
2000
0000
3001
0001
0010
0000
,
0100
0100
0010
0000
0001
1000
0010
0000
,
0010
0100
0010
1000
,
0001
0000
0100
0000
0001
0010
0000
0100
,
0010
0000
0002
0000
1003
1000
0010
0000
,
0100
0100
0010
0000
1000
0000
0001
0000
,
0001
0000
0010
0000
0100
0000
0010
0100
,
0000
0100
0000
0000
1000
0001
0000
0100
,
0000
0002
0000
0000
2003
0000
0100
0000
,
3001
1000
0001
0010
,
0010
0000
0100
0000
0010
0100
0000
0010
,
0000
0000
0000
0001
1000
0010
0000
0100
,
0000
0002
0000
0000
2003
0000
0100
0000
,
3001
0001
0020
0000
0031
0100
0001
1000
,
0100
1000
0010
0100
0010
0100
0001
1000
,
0001
0010
0100
1000
0001
0010
0001
1000
,
0010
1000
0100
1000
0010
0100
0001
0000
,
0100
0000
0001
0000
1000
0000
0000
0000
0001
0010
0100
1000
0001
0010
0001
1000
,
0100
1000
0001
1000
0010
1000
0100
0010
0001
1000
0001
0100
0001
0010
0100
1000
,
0001
0100
0001
1000
0001
0010
0001
1000
0010
0100
0010
1000
0010
0100
0001
1000
,
0001
0010
0100
1000
0001
0010
0100
1000
0001
0010
0001
1000
0010
1000
0001
0100
,
0001
0010
0100
1000
0001
0100
0001
0100
0010
1000
0001
1000
0100
1000
0010
0100
,
0001
1000
0001
0010
0001
0100
0010
1000
0001
0010
0100
1000
0001
0010
0100
1000
,
0001
0100
0001
1000
0100
1000
0001
1000
0010
0100
0001
0100
0010
0100
0001
0010
,
0001
1000
0100
1000
0001
0100
0010
0100
0001
0100
0010
1000
0001
0010
0001
1000
,
0001
0100
0010
1000
0100
0010
0001
1000
0001
0100
0010
1000
0001
0100
0001
1000
,
0010
1000
0001
1000
0100
1000
0010
0100
0001
1000
0001
0010
0001
0100
0010
1000
,
0001
0010
0001
1000
0001
0100
0001
1000
0100
0010
0100
1000
0100
0010
0001
1000
,
0001
0100
0010
1000
0001
0100
0010
1000
0001
0100
0001
1000
0100
1000
0001
0010
,
0001
0100
0010
1000
0001
0100
0001
1000
0001
0010
0100
1000
0001
0010
0100
1000
,
0001
0100
0001
1000
0001
0010
0001
0100
0010
1000
0001
1000
0100
1000
0010
0100
,
0001
1000
0010
1000
0001
0100
0001
1000
0100
0010
0001
0010
0100
0010
0001
0100
,
0001
1000
0010
1000
0001
0010
0100
0010
0001
0010
0100
1000
0001
0100
0010
1000
,
0001
0000
0000
0100
0000
0000
0001
0000
0000
1000
0000
0000
0001
0000
0000
0010
0000
0000
0001
0000
0000
1000
0000
0000
0001
0000
0000
0000
0100
0000
0000
0000
0001
0000
0000
0000
0010
0000
0000
0000
0100
0000
0000
0000
0010
0000
0000
0000
,
0100
1000
0001
0100
0010
1000
0100
1000
0001
0010
0001
1000
,
0001
0100
0010
0100
0001
1000
0100
0010
0001
0100
0010
1000
,
0001
0010
0001
1000
0100
1000
0001
0100
0001
1000
0010
1000
,
0100
1000
0001
0010
0001
1000
0001
0100
0001
0010
0100
0010
,
0100
1000
0001
0100
0010
1000
0100
1000
0001
0010
0001
1000
,
0001
0100
0010
0100
0001
1000
0100
0010
0001
0100
0010
1000
,
0001
0010
0001
1000
0100
1000
0001
0100
0001
1000
0010
1000
,
0100
1000
0001
0010
0001
1000
0010
0000
0000
0000
0000
0000
,
0000
0000
0000
0000
,
1001
0000
0001
0000
1000
0010
0000
0100
,
0000
0010
0000
1000
0001
0001
0010
0000
,
0100
0100
0010
0000
0001
0000
1000
0002
,
0000
0000
0103
0020
0000
0000
1030
0001
,
0000
0000
0010
0000
0100
1000
0000
0010
,
1000
0000
0002
0000
1003
1000
0010
0000
,
0100
0100
0010
0000
1000
0000
0001
0000
,
0001
0000
0001
0000
1000
0100
0000
2000
,
0000
3000
1000
0000
0010
0000
0010
0000
,
0010
0100
0000
0001
2000
0000
0010
0000
,
3001
1000
0001
0010
,
0010
0000
0010
0000
0100
1000
0000
0002
,
0000
0000
0000
1003
0010
0000
0010
0000
,
0010
0100
0000
0001
1000
1000
0100
0000
,
0010
0010
0200
0000
1300
0010
1000
0001
,
0010
0001
0100
0010
0100
0010
1000
0001
,
1000
0100
0010
0001
0100
0010
0100
0001
,
0010
0001
0100
0010
0100
0001
1000
0000
,
0010
0000
1000
0000
0001
0000
0000
0000
1000
0100
0010
0001
1000
0100
1000
0001
,
0010
0001
1000
0001
0100
0001
0010
0100
1000
0001
1000
0010
1000
0100
0010
0001
,
1000
0010
1000
0001
1000
0100
1000
0001
0100
0010
0100
0001
0100
0010
1000
0001
,
1000
0100
0010
0001
1000
0100
0010
0001
1000
0100
1000
0001
0100
0001
1000
0010
,
1000
0100
0010
0001
1000
0010
1000
0010
0100
0001
1000
0001
0010
0001
0100
0010
,
1000
0001
1000
0100
1000
0010
0100
0001
1000
0100
0010
0001
1000
0100
0010
0001
,
1000
0010
1000
0001
0010
0001
1000
0001
0100
0010
1000
0010
0100
0010
1000
0100
,
1000
0001
0010
0001
1000
0010
0100
0010
1000
0010
0100
0001
1000
0100
1000
0001
,
1000
0010
0100
0001
0010
0100
1000
0001
1000
0010
0100
0001
1000
0010
1000
0001
,
0100
0001
1000
0001
0010
0001
0100
0010
1000
0001
1000
0100
1000
0010
0100
0001
,
1000
0100
1000
0001
1000
0010
1000
0001
0010
0100
0010
0001
0010
0100
1000
0001
,
1000
0010
0100
0001
1000
0010
0100
0001
1000
0010
1000
0001
0010
0001
1000
0100
,
1000
0010
0100
0001
1000
0010
1000
0001
1000
0100
0010
0001
1000
0100
0010
0001
,
1000
0010
1000
0001
1000
0100
1000
0010
0100
0001
1000
0001
0010
0001
0100
0010
,
1000
0001
0100
0001
1000
0010
1000
0001
0010
0100
1000
0100
0010
0100
1000
0010
,
1000
0001
0100
0001
1000
0100
0010
0100
1000
0100
0010
0001
1000
0010
0100
0001
,
1000
0000
0000
0010
0000
0000
1000
0000
0000
0001
0000
0000
1000
0000
0000
0100
0000
0000
1000
0000
0000
0001
0000
0000
1000
0000
0000
0000
0010
0000
0000
0000
1000
0000
0000
0000
0100
0000
0000
0000
0010
0000
0000
0000
0100
0000
0000
0000
,
0010
0001
1000
0010
0100
0001
0010
0001
1000
0100
1000
0001
,
1000
0010
0100
0010
1000
0001
0010
0100
1000
0010
0100
0001
,
1000
0100
1000
0001
0010
0001
1000
0010
1000
0001
0100
0001
,
0010
0001
1000
0100
1000
0001
1000
0010
1000
0100
0010
0100
,
0010
0001
1000
0010
0100
0001
0010
0001
1000
0100
1000
0001
,
1000
0010
0100
0010
1000
0001
0010
0100
1000
0010
0100
0001
,
1000
0100
1000
0001
0010
0001
1000
0010
1000
0001
0100
0001
,
0010
0001
1000
0100
1000
0001
0100
0001
0100
0001
0010
0100
,
1000
0001
0100
0001
1000
0010
1000
0001
0010
0001
1000
0010
,
0100
0001
0010
0100
1000
0001
1000
0010
1000
0010
0100
0001
,
1000
0100
1000
0001
0010
0001
1000
0100
1000
0001
0100
0001
,
1000
0100
0010
0001
0100
0010
1000
0100
1000
0100
0010
0001
,
1000
0010
1000
0001
0100
0001
0010
0100
1000
0100
0010
0001
,
1000
0010
1000
0001
1000
0001
0010
0100
0010
0001
1000
0010
,
1000
0000
0001
0000
0100
0000
0001
0000
0010
0000
0100
0000
1000
0000
0010
0000
1000
0000
0001
0000
0000
0001
0000
0000
,
1000
0000
0000
0000
0000
0000
0001
0000
0000
0001
0000
0000
0010
0000
0001
0000
0010
0000
0001
0000
1000
0000
0010
0000
,
0100
0001
0010
0001
1000
0100
1000
0001
1000
0010
0100
0001
,
1000
0010
1000
0001
0100
0001
1000
0100
1000
0100
0010
0001
,
0100
0001
1000
0010
1000
0100
1000
0001
0010
0001
1000
0001
,
0100
0001
1000
0010
1000
0001
0010
0100
1000
0010
1000
0001
,
0100
0001
0010
0001
1000
0010
0100
0001
0100
0001
1000
0100
,
1000
0001
0010
0001
1000
0010
0100
0010
1000
0010
0100
0001
,
1000
0100
1000
0010
0100
0002
1000
0000
0000
1003
0000
0000
,
1200
0000
1300
0000
1001
0000
0001
0100
,
0020
0000
0130
0001
2000
0000
3100
0010
,
0002
1000
1003
0000
0020
0000
1000
0000
,
1030
0020
1000
1030
,
0010
1000
0001
1000
0010
0000
1000
0100
,
0020
0000
0130
1000
0002
0000
0103
0010
,
2000
0001
3001
0000
0020
0000
0001
0000
,
0031
0020
0001
0031
,
0001
1000
0100
1000
0001
0000
1000
0010
,
0200
0000
0310
1000
0002
0000
0013
0100
,
2000
0001
3001
0000
0200
0000
0001
0000
,
0301
0200
0001
0301
,
0100
0001
1000
0001
0100
0000
0001
0010
,
0200
0000
0310
0001
2000
0000
3010
0100
,
0002
1000
1003
0000
0200
0000
1000
0000
,
1300
0200
1000
1300
,
2001
0000
0000
0000
0000
0000
0000
0000
3001
0010
0100
1000
0001
0010
0001
1000
,
0100
1000
0001
1000
0010
1000
0100
0010
0001
1000
0001
0100
0001
0010
0100
1000
,
0001
0100
0001
1000
0001
0010
0001
1000
0010
0100
0010
1000
0010
0100
0001
1000
,
0001
0010
0100
1000
0001
0010
0100
1000
0001
0010
0001
1000
0010
1000
0001
0100
,
0001
0010
0100
1000
0001
0100
0001
0100
0010
1000
0001
1000
0100
1000
0010
0100
,
0001
1000
0001
0010
0001
0100
0010
1000
0001
0010
0100
1000
0001
0010
0100
1000
,
0001
0100
0001
1000
0100
1000
0001
1000
0010
0100
0001
0100
0010
0100
0001
0010
,
0001
1000
0100
1000
0001
0100
0010
0100
0001
0100
0010
1000
0001
0010
0001
1000
,
0001
0100
0010
1000
0100
0010
0001
1000
0001
0100
0010
1000
0001
0100
0001
1000
,
0010
1000
0001
1000
0100
1000
0010
0100
0001
1000
0001
0010
0001
0100
0010
1000
,
0001
0010
0001
1000
0001
0100
0001
1000
0100
0010
0100
1000
0100
0010
0001
1000
,
0001
0100
0010
1000
0001
0100
0010
1000
0001
0100
0001
1000
0100
1000
0001
0010
,
0001
0100
0010
1000
0001
0100
0001
1000
0001
0010
0100
1000
0001
0010
0100
1000
,
0001
0100
0001
1000
0001
0010
0001
0100
0010
1000
0001
1000
0100
1000
0010
0100
,
0001
1000
0010
1000
0001
0100
0001
1000
0100
0010
0001
0010
0100
0010
0001
0100
,
0001
1000
0010
1000
0001
0010
0100
0010
0001
0010
0100
1000
0001
0100
0010
1000
,
0001
0000
0000
0100
0000
0000
0001
0000
0000
0010
0000
0000
0001
0000
0000
1000
0000
0000
0100
0000
0000
1000
0000
0000
0001
0000
0000
0000
0100
0000
0000
0000
0001
0000
0000
0000
0010
0000
0000
0000
0100
0000
0000
0000
0010
0000
0000
0000
,
0100
1000
0001
0100
0010
1000
0100
1000
0001
0010
0001
1000
,
0001
0100
0010
0100
0001
1000
0100
0010
0001
0100
0010
1000
,
0001
0010
0001
1000
0100
1000
0001
0100
0001
1000
0010
1000
,
0100
1000
0001
0010
0001
1000
0001
0100
0001
0010
0100
0010
,
0100
1000
0001
0100
0010
1000
0100
1000
0001
0010
0001
1000
,
0001
0100
0010
0100
0001
1000
0100
0010
0001
0100
0010
1000
,
0001
0010
0001
1000
0100
1000
0001
0100
0001
1000
0010
1000
,
0100
1000
0001
0010
0001
1000
0001
0100
0001
0010
0100
0010
,
0100
1000
0001
0100
0010
1000
0100
1000
0001
0010
0001
1000
,
0001
0100
0010
0100
0001
1000
0100
0010
0001
0100
0010
1000
,
0001
0010
0001
1000
0100
1000
0001
0100
0001
1000
0010
1000
,
0100
1000
0001
0010
0001
1000
0001
0100
0001
0010
0100
0010
,
0100
1000
0001
0100
0010
1000
0100
1000
0001
0010
0001
1000
,
0001
0100
0010
0100
0001
1000
0100
0010
0001
0100
0010
1000
,
0001
0010
0001
1000
0100
1000
0001
0100
0001
1000
0010
1000
,
0100
1000
0001
0010
0001
1000
0001
0100
0001
0010
0100
0010
,
0100
1000
0001
0100
0010
1000
0100
1000
0001
0010
0001
1000
,
0001
0100
0010
0100
0001
1000
0100
0010
0001
0100
0010
1000
,
0001
0010
0001
1000
0100
1000
0001
0100
0001
1000
0010
1000
,
0100
1000
0001
0010
0001
1000
0001
0100
0001
0010
0100
0010
,
0100
1000
0001
0100
0010
1000
0100
1000
0001
0010
0001
1000
,
0001
0100
0010
0100
0001
1000
0100
0010
0001
0100
0010
1000
,
0001
0010
0001
1000
0100
1000
0001
0100
0001
1000
0010
1000
,
0100
1000
0001
0010
0001
1000
0001
0000
0000
0000
0000
0000
;

//---------------dance-single - Gazebo----------------
#NOTES:
     dance-single:
     Gazebo:
     Easy:
     12:
     0.895,1.000,0.127,0.371,0.937,1182.000,26.000,76.000,2.000,0.000:

0000
0000
0000
0000
0101
0000
0100
0001
,
0000
0100
0001
0000
1000
1000
0100
0000
,
1000
0000
0001
0000
0011
0000
0010
0001
,
0000
0010
0001
0000
1000
1000
0010
0000
,
0100
0100
0010
0000
1010
0000
0010
1000
,
0000
0010
1000
0000
0001
0001
0010
0000
,
0001
0000
1000
0000
1100
0000
0100
1100
,
0000
1000
1002
0000
0000
0000
0000
0000
,
M1M3
0000
0001
1000
,
1000
0000
0100
0000
0010
0000
0100
0010
,
0000
0000
0001
0000
1000
0010
0000
0100
,
0010
0000
2000
0000
3001
0001
0010
0000
,
0100
0100
0010
0000
0001
1000
0010
0000
,
0010
0100
0010
1000
,
0001
0000
0100
0000
0001
0010
0000
0100
,
0010
0000
0002
0000
1003
1000
0010
0000
,
0100
0100
0010
0000
1000
0000
0001
0000
,
0001
0000
0010
0000
0100
0000
0010
0100
,
0000
0100
0000
0000
1000
0001
0000
0100
,
0000
0002
0000
0000
2003
0000
0100
0000
,
3001
1000
0001
0010
,
0010
0000
0100
0000
0010
0100
0000
0010
,
0000
0000
0000
0001
1000
0010
0000
0100
,
0000
0002
0000
0000
2003
0000
0100
0000
,
3001
0001
0020
0000
0031
0100
0001
1000
,
0100
1000
0010
0100
0010
0100
0001
1000
,
0001
0010
0100
1000
0001
0010
0001
1000
,
0010
1000
0100
1000
0010
0100
0001
0000
,
0100
0000
0000
0001
0000
0000
1000
0000
0000
0000
0000
0000
0001
0000
0010
0000
0100
0000
0010
0000
0001
0000
1000
0000
,
0001
0100
0001
0100
0010
1000
0001
0010
0001
0010
0100
1000
,
0001
1000
0001
0100
0010
1000
0100
0010
0100
1000
0100
0010
,
0001
1000
0001
0100
0010
1000
0010
1000
0001
0010
0001
1000
,
0100
1000
0001
0100
0001
1000
0001
0010
0001
0010
0100
1000
,
0001
0100
0001
0100
0010
1000
0001
0010
0001
1000
0100
1000
,
0001
0100
0001
0010
0100
1000
0010
0100
0010
0100
0001
1000
,
0100
1000
0001
0100
0010
0100
0010
1000
0001
0010
0100
1000
,
0001
0100
0001
0010
0100
1000
0001
0100
0010
0100
0001
1000
,
0001
0010
0001
0010
0100
1000
0001
0100
0001
0100
0010
1000
,
0001
1000
0001
0010
0100
1000
0010
0100
0010
1000
0010
0100
,
0001
1000
0001
0010
0100
1000
0100
1000
0001
0100
0001
1000
,
0010
1000
0001
0010
0001
1000
0001
0100
0001
1000
0010
1000
,
0001
0010
0001
0010
0100
1000
0001
0100
0001
0100
0010
1000
,
0001
0010
0100
1000
0001
1000
0010
0100
0010
0100
0001
1000
,
0100
1000
0001
0100
0010
0100
0010
1000
0001
0010
0100
1000
,
0001
0010
0100
1000
0001
1000
0001
0000
0000
0201
0000
0000
,
0301
1000
0001
0010
0100
0000
1000
0000
,
2000
0000
3001
0000
0001
0100
0010
1000
,
0100
2000
0010
3001
,
1000
0010
1000
0001
1000
0000
1200
0000
,
1300
0000
0001
0100
0010
0000
1000
0000
,
2000
0000
3001
0000
0001
0010
0001
1000
,
0001
0100
0002
1003
,
1001
0000
0001
0010
0100
0000
0000
0000
,
0000
0000
0000
0000
,
1001
0000
0001
0000
1000
0010
0000
0100
,
0000
0010
0000
1000
0001
0001
0010
0000
,
0100
0100
0010
0000
0001
0000
1000
0002
,
0000
0000
0103
0020
0000
0000
1030
0001
,
0000
0000
0010
0000
0100
1000
0000
0010
,
1000
0000
0002
0000
1003
1000
0010
0000
,
0100
0100
0010
0000
1000
0000
0001
0000
,
0001
0000
0001
0000
1000
0100
0000
2000
,
0000
3000
1000
0000
0010
0000
0010
0000
,
0010
0100
0000
0001
2000
0000
0010
0000
,
3001
1000
0001
0010
,
0010
0000
0010
0000
0100
1000
0000
0002
,
0000
0000
0000
1003
0010
0000
0010
0000
,
0010
0100
0000
0001
1000
1000
0100
0000
,
0010
0010
0200
0000
1300
0010
1000
0001
,
0010
0001
0100
0010
0100
0010
1000
0001
,
1000
0100
0010
0001
0100
0010
0100
0001
,
0010
0001
0100
0010
0100
0001
1000
0000
,
0010
0000
0000
1000
0000
0000
0001
0000
0000
0000
0000
0000
1000
0000
0100
0000
0010
0000
0100
0000
1000
0000
0001
0000
,
1000
0010
1000
0010
0100
0001
1000
0100
1000
0100
0010
0001
,
1000
0001
1000
0010
0100
0001
0010
0100
0010
0001
0010
0100
,
1000
0001
1000
0010
0100
0001
0100
0001
1000
0100
1000
0001
,
0010
0001
1000
0010
1000
0001
1000
0100
1000
0100
0010
0001
,
1000
0010
1000
0010
0100
0001
1000
0100
1000
0001
0010
0001
,
1000
0010
1000
0100
0010
0001
0100
0010
0100
0010
1000
0001
,
0010
0001
1000
0010
0100
0010
0100
0001
1000
0100
0010
0001
,
1000
0010
1000
0100
0010
0001
1000
0010
0100
0010
1000
0001
,
1000
0100
1000
0100
0010
0001
1000
0010
1000
0010
0100
0001
,
1000
0001
1000
0100
0010
0001
0100
0010
0100
0001
0100
0010
,
1000
0001
1000
0100
0010
0001
0010
0001
1000
0010
1000
0001
,
0100
0001
1000
0100
1000
0001
1000
0010
1000
0001
0100
0001
,
1000
0100
1000
0100
0010
0001
1000
0010
1000
0010
0100
0001
,
1000
0100
0010
0001
1000
0001
0100
0010
0100
0010
1000
0001
,
0010
0001
1000
0010
0100
0010
0100
0001
1000
0100
0010
0001
,
1000
0100
0010
0001
1000
0001
1000
0000
0000
1020
0000
0000
,
1030
0001
1000
0100
0010
0000
0001
0000
,
0002
0000
1003
0000
1000
0010
0100
0001
,
0010
0002
0100
1003
,
0001
0100
0001
1000
0001
0000
0021
0000
,
0031
0000
1000
0010
0100
0000
0001
0000
,
0002
0000
1003
0000
1000
0100
1000
0001
,
1000
0000
0010
0000
2000
0000
3001
1000
,
0001
0000
1000
0100
0010
0000
0001
1000
,
0000
1000
0000
0001
0000
0100
0000
0010
,
0000
2000
0000
3000
0101
0000
0000
1000
,
0001
1000
0000
1000
0000
0100
0000
0010
,
0000
0002
0000
0003
0101
0000
1000
0010
,
0000
0100
0000
0002
0000
0000
1003
1000
,
0000
0200
0000
0000
1300
0001
0000
0001
,
0100
0000
0020
0000
1030
0000
0001
0001
,
1000
0000
0001
0001
0010
0100
0000
1000
,
0000
0010
0000
1000
0000
0001
0000
0002
,
0000
0000
0000
0003
1010
0000
1000
0200
,
0000
0000
0310
0002
0000
0000
1003
2000
,
0000
0000
0000
3000
1100
1000
0001
0000
,
0001
0100
0000
0010
0000
0010
0000
0010
,
0000
0010
0000
1000
0000
1000
0000
1000
,
0000
0100
0000
2000
0001
0000
3001
0000
,
0201
0000
0301
0000
1001
0000
0001
0100
,
0020
0000
0130
0001
2000
0000
3100
0010
,
0002
1000
1003
0000
0020
0000
1000
0000
,
1030
0020
1000
1030
,
0010
1000
0001
1000
0010
0000
1000
0100
,
0020
0000
0130
1000
0002
0000
0103
0010
,
2000
0001
3001
0000
0020
0000
0001
0000
,
0031
0020
0001
0031
,
0001
1000
0100
1000
0001
0000
1000
0010
,
0200
0000
0310
1000
0002
0000
0013
0100
,
2000
0001
3001
0000
0200
0000
0001
0000
,
0301
0200
0001
0301
,
0100
0001
1000
0001
0100
0000
0001
0010
,
0200
0000
0310
0001
2000
0000
3010
0100
,
0002
1000
1003
0000
0200
0000
1000
0000
,
1300
0200
1000
1300
,
2001
0000
0000
0000
0000
0000
3001
0010
0100
0010
0001
1000
,
0001
0100
0001
0100
0010
1000
0001
0010
0001
0010
0100
1000
,
0001
1000
0001
0100
0010
1000
0100
0010
0100
1000
0100
0010
,
0001
1000
0001
0100
0010
1000
0010
1000
0001
0010
0001
1000
,
0100
1000
0001
0100
0001
1000
0001
0010
0001
0010
0100
1000
,
0001
0100
0001
0100
0010
1000
0001
0010
0001
1000
0100
1000
,
0001
0100
0001
0010
0100
1000
0010
0100
0010
0100
0001
1000
,
0100
1000
0001
0100
0010
0100
0010
1000
0001
0010
0100
1000
,
0001
0100
0001
0010
0100
1000
0001
0100
0010
0100
0001
1000
,
0001
0010
0001
0010
0100
1000
0001
0100
0001
0100
0010
1000
,
0001
1000
0001
0010
0100
1000
0010
0100
0010
1000
0010
0100
,
0001
1000
0001
0010
0100
1000
0100
1000
0001
0100
0001
1000
,
0010
1000
0001
0010
0001
1000
0001
0100
0001
1000
0010
1000
,
0001
0010
0001
0010
0100
1000
0001
0100
0001
0100
0010
1000
,
0001
0010
0100
1000
0001
1000
0010
0100
0010
0100
0001
1000
,
0100
1000
0001
0100
0010
0100
0010
1000
0001
0010
0100
1000
,
0001
0010
0100
1000
0001
1000
0001
0000
0000
0201
0000
0000
,
0301
1000
0001
0010
0100
0000
1000
0000
,
2000
0000
3001
0000
0001
0100
0010
1000
,
0100
2000
0010
3001
,
1000
0010
1000
0001
1000
0000
1200
0000
,
1300
0000
0001
0100
0010
0000
1000
0000
,
2000
0000
3001
0000
0001
0010
0001
1000
,
0001
0000
0100
0000
0001
1000
0010
1000
,
0100
0010
0001
0100
0001
0000
1020
0000
,
1030
0001
1000
0100
0010
0000
0001
0000
,
0002
0000
1003
0000
1000
0010
0100
0001
,
0010
0002
0100
1003
,
0001
0100
0001
1000
0001
0000
0021
0000
,
0031
0000
1000
0010
0100
0000
0001
0000
,
0002
0000
1003
0000
1000
0100
1000
0001
,
1000
0000
0010
0000
2000
0000
3001
0100
,
0001
0010
0001
0000
1000
0000
1200
0000
,
1300
0001
1000
0010
0100
0000
0001
0000
,
0002
0000
1003
0000
1000
0100
0010
0001
,
0100
0002
0010
1003
,
0001
0010
0001
1000
0001
0000
0201
0000
,
0301
0000
1000
0100
0010
0000
0001
0000
,
0002
0000
1003
0000
1000
0010
1000
0001
,
1000
0100
2000
3001
,
1001
0000
1000
0001
1000
0000
0000
0000
;
