#TITLE:FORCE Interval Build;
#SUBTITLE:;
#ARTIST:96;
#TITLETRANSLIT:;
#SUBTITLETRANSLIT:;
#ARTISTTRANSLIT:;
#CREDIT:;
#BANNER:FORCE Interval Building-bn.png;
#BACKGROUND:FORCE Interval Building-bg.jpg;
#LYRICSPATH:;
#CDTITLE:Type MARS.png;
#MUSIC:FORCE Interval Build.mp3;
#OFFSET:-0.020;
#SAMPLESTART:44.340;
#SAMPLELENGTH:12.720;
#SELECTABLE:YES;
#BPMS:0.000=132.000,91.000=66.000,94.250=264.000;
#STOPS:269.250=0.300
;
#BGCHANGES:;
// cache tags:
#FIRSTBEAT:1.000;
#LASTBEAT:270.000;
#SONGFILENAME:Songs/Definitive Keyboard Megapack/FORCE Interval Build(Type MARS)/FORCE Interval Build.sm;
#HASMUSIC:1;
#HASBANNER:1;
#MUSICLENGTH:88.954;
// end cache tags

//---------------dance-single - ----------------
#NOTES:
     dance-single:
     :
     Hard:
     10:
     1.000,1.000,0.281,0.292,1.000,721.000,25.000,26.000,0.000,0.000:
0000
0000
0000
0000
0010
0000
1001
0000
1001
0000
1000
0100
0010
0001
0000
0001
,
0010
0000
1001
0000
0000
1010
0000
0000
0110
0000
0100
0001
1000
0010
0000
0100
,
0001
0000
0000
0000
0000
0000
0110
0000
0000
0000
0000
0000
0000
0000
0000
1010
0000
0000
0000
0000
0000
0000
0000
0000
1001
0000
0000
0000
0000
0000
0001
0000
1000
0000
0010
0000
1000
0000
0000
0001
0000
0000
0000
0000
0000
0100
0000
0000
,
0010
0000
0000
0000
0000
0000
1010
0000
0000
0000
0000
0000
0000
0000
0000
1001
0000
0000
0000
0000
0000
0000
0000
0000
0010
0000
0001
0000
1000
0000
0100
0000
0001
0000
0010
0000
0100
0000
1000
0000
0001
0000
0010
0000
0000
0000
0000
0000
,
0100
0001
1000
0010
1000
0001
1000
0010
1000
0000
0001
1000
0001
0100
0001
0010
,
0100
0001
0010
1000
0010
0001
0000
0010
1000
0001
0100
1000
0001
0100
0001
0010
,
0100
1000
0001
0000
0010
0001
0000
0100
0001
0100
1000
0100
0001
0010
0100
0001
,
0010
0000
0000
1000
0000
0000
0001
0000
0000
1000
0000
0000
0100
0000
0000
0010
0000
0000
0000
0000
0000
1000
0000
0000
0001
0000
0010
0000
0100
0000
1000
0000
0001
0000
0010
0000
0100
0000
1000
0000
0001
0000
0010
0000
0000
0000
0000
0000
,
1000
0100
0010
0001
0010
0100
1000
0010
0100
0001
1000
0001
0010
0001
0100
0000
,
0001
1000
0001
0100
1001
0010
0100
0010
1000
0010
0100
1000
0001
0010
0001
0000
,
0010
1000
0100
0010
0001
0010
0100
0001
1000
0010
0100
1000
0001
0010
0100
0000
,
0001
0010
0001
0100
0010
0001
0010
0100
1000
0001
0100
0020
0000
0031
0100
1000
,
0010
0000
0100
1000
0010
0000
2000
0000
0100
0000
3010
0000
0100
0000
0001
0000
1000
0000
0100
0000
0010
0000
0001
0000
0010
0000
0100
0000
0001
0000
0010
0000
,
0001
1000
0010
0100
0001
0100
0010
0100
1000
0001
0010
0100
0010
0001
0010
1000
,
0001
0100
1000
0010
1000
0001
1000
0100
1000
0010
1000
0100
0010
0001
0100
1000
,
0010
0001
1000
0010
1000
0001
0010
0100
0001
0010
1000
0102
0000
0013
1000
0010
,
0001
0000
0010
0000
0100
0000
0010
0000
0100
0000
1000
0000
0001
0000
0000
0010
0000
0000
0001
0000
0000
1000
0000
0000
0100
0000
0000
0020
0000
0000
0000
0000
0000
0031
0000
0000
0010
0000
0000
0100
0000
0000
1000
0000
0100
0000
0010
0000
,
0100
0000
0010
0000
0001
0000
1000
0000
0000
0010
0000
0000
0100
0000
0000
1000
0000
0000
0100
0000
0000
0020
0000
0000
0000
0000
0000
0130
0000
0000
0010
0000
0000
0100
0000
0000
0010
0000
0001
0000
0100
0000
0010
0000
1000
0000
0100
0000
,
0010
1000
0010
0001
0010
1200
0300
0001
0010
0001
0100
0010
0001
0010
0100
0010
,
0001
0100
1000
0001
0100
0001
0010
1000
0001
1000
0010
0100
0001
0010
1000
0001
,
1000
0100
0001
1000
0001
1000
0010
0001
0010
0001
0010
0100
1000
0100
0001
0100
,
0001
0010
0001
0010
0100
0010
0001
0100
0010
0001
0010
0100
1000
0010
0100
0001
,
0010
0000
0001
0000
1000
0000
0100
0000
0010
0000
0001
0000
1000
0000
0010
0000
0001
0000
0010
0000
0100
0000
1000
0000
0010
0100
1000
0010
0100
0001
0010
0001
,
0010
0100
0010
0100
0010
0001
1000
0100
1000
0100
0010
0001
1000
0001
1000
0010
0001
0010
0100
0000
0000
0000
0001
0000
0000
0000
0010
0000
0000
0000
1000
0000
,
0000
0010
0000
0001
0000
0100
0000
0010
0000
1000
0000
0100
0000
0010
0001
0100
,
0001
1000
0000
0100
0000
0001
0000
1000
0000
0010
0000
0100
0000
1000
0000
0100
,
0000
1000
0000
0100
0000
0010
0000
1000
0000
0001
1000
0001
0100
0001
0000
1000
,
0000
0010
0000
0001
0000
1000
0000
0010
0000
1000
0000
0010
0000
0001
0000
0010
,
0000
0100
0000
0001
0000
0010
0001
0100
0010
1000
0000
0001
0000
0010
0000
0001
,
0000
0100
0000
1000
0000
0001
0000
1000
0000
0010
0000
0001
0000
0010
0000
0001
,
0000
0010
0000
0001
0000
0010
0000
0001
0000
1000
0000
0001
0000
1000
0000
0010
,
0000
0100
0000
1000
0000
0001
0000
0100
0000
1000
0000
0010
0000
0001
0000
0010
,
0000
0100
0000
1000
0000
0100
0000
1000
0000
0010
0000
0001
0000
1000
0000
0010
,
0000
1000
0000
0100
0000
1000
0000
0001
0000
0010
0000
0100
0000
0010
0000
0100
,
0000
0001
0000
0100
0000
1000
0000
0010
0000
0001
0000
1000
0000
0100
0000
0010
,
0000
0001
0000
0010
0000
1000
0000
0010
0000
0100
0000
0010
0000
0001
0000
1000
,
0000
0010
0000
0100
0000
1000
0000
0100
0000
0010
0000
0100
0000
0010
0000
0001
,
0000
0100
0000
0010
0000
0100
0000
0010
0000
0100
0000
0001
0000
1000
0000
0100
,
0000
0001
0000
0100
0000
0010
0000
0100
0000
1000
0000
0010
0000
0100
0000
0001
,
0000
0010
0000
1000
0000
0010
0000
0001
0000
0100
0000
0001
0000
0100
0000
1000
,
0000
0100
0000
1000
0000
0010
0000
1000
0000
0010
0000
0001
0000
1000
0000
0001
,
0000
1000
0000
0001
0000
1020
0000
0000
0000
1030
0000
0100
0000
0010
0000
0001
,
0000
1000
0000
0010
0000
0100
0000
0001
0000
1000
0000
0100
0000
0010
0000
0001
,
0000
1000
0000
0010
0000
0100
0000
0001
0000
1000
0000
0001
0000
0100
0000
0010
,
0000
1000
0000
0100
0000
0010
0000
1000
0000
0001
0000
0100
0000
1000
0000
0001
,
0000
0100
0000
0001
0000
0120
0000
0000
0000
1030
0000
0100
0000
0001
0000
0100
,
0000
0001
0000
1000
0000
0010
0000
1000
0000
0001
0000
0010
0000
0001
0000
1000
,
0000
0000
0000
0010
0000
0000
0000
1000
0000
0000
0000
0001
0000
0000
0000
0010
0000
0000
0000
1000
0000
0000
0000
0100
0000
0000
0000
0010
0000
0000
0000
0000
0000
0001
0000
0000
0000
0000
0000
1000
0000
0000
0000
0000
0000
0010
0000
0000
,
0000
0100
0000
0010
0000
0100
0000
0001
0000
0010
0000
0001
0000
0100
0000
0001
,
0000
0000
0000
1000
0000
0000
0000
0001
0000
0000
0000
0010
0000
0000
0000
0100
0000
0000
0000
0010
0000
0000
0000
0001
0000
0000
0000
1000
0000
0000
0000
0000
0000
0010
0000
0000
0000
0000
0000
0001
0000
0000
0000
0000
0000
0010
0000
0000
,
0000
1000
0000
0100
0000
0010
0000
1000
0000
0010
0000
1000
0000
0100
0000
0010
,
0000
0000
0000
0100
0000
0000
0000
0001
0000
0000
0000
1000
0000
0000
0000
0010
0000
0000
0000
1000
0000
0000
0000
0001
0000
0000
0000
0100
0000
0000
0000
0000
0000
0001
0000
0000
0000
0000
0000
1000
0000
0000
0000
0000
0000
0010
0000
0000
,
0000
0001
0000
0010
0000
1000
0000
0010
0000
0100
0000
1000
0000
0001
0000
0010
,
0000
0000
0000
0100
0000
0000
0000
0001
0000
0000
0000
1000
0000
0000
0000
0010
0000
0000
0000
0001
0000
0000
0000
0100
0000
0000
0000
0001
0000
0000
0000
0000
0000
0100
0000
0000
0000
0000
0000
0010
0000
0000
0000
0000
0000
0001
0000
0000
,
0000
0010
0000
0100
0000
1000
0000
0100
0000
0010
0000
1000
0000
0001
0000
1000
,
0000
0000
0000
0010
0000
0000
0000
1000
0000
0000
0000
0100
0000
0000
0000
0010
0000
0000
0000
0001
0000
0000
0000
0100
0000
0000
0000
1000
0000
0000
0000
0000
0000
0010
0000
0000
0000
0000
0000
0100
0000
0000
0000
0000
0000
1000
0000
0000
,
0000
0100
0000
1000
0000
0100
0000
1000
0000
0001
0000
0100
0000
0001
0000
1000
,
0000
0000
0000
0010
0000
0000
0000
1000
0000
0000
0000
0001
0000
0000
0000
0100
0000
0000
0000
1000
0000
0000
0000
0001
0000
0000
0000
0010
0000
0000
0000
0000
0000
0001
0000
0000
0000
0000
0000
1000
0000
0000
0000
0000
0000
0010
0000
0000
,
0000
0001
0000
0100
0000
0001
0000
0010
0000
0001
0000
1000
0000
0010
0000
1000
,
0000
0100
0000
1000
0000
0001
0000
1000
0000
0001
0000
0010
0000
0001
0000
0010
,
0000
0100
0000
1000
0000
0010
0000
0100
0000
1000
0000
0001
0000
1000
0000
0100
,
0000
0010
0000
0001
0000
0010
0000
0001
0000
1000
0000
0010
0000
0100
0000
1000
,
0000
0001
0000
0100
0000
0010
0000
0001
0000
0100
0000
0010
0000
2002
0000
3003
,
0000
0000
0000
2020
0000
3030
0000
0000
0000
0220
0000
0330
0000
2002
0000
3003
,
0000
0000
0000
0022
0000
0033
0000
0000
0000
2002
0000
3003
0000
0220
0000
0330
,
0000
0000
0000
0000
0000
0000
0000
0000
0000
2020
0000
0000
0000
0000
0000
3030
0000
0000
0000
0000
0000
0000
0000
0000
0000
0000
0000
2002
0000
0000
0000
0000
0000
3003
0000
0000
0000
0000
0000
1000
0000
0000
0000
0100
0000
0000
0000
0010
,
0000
0000
0000
0001
0000
0000
0000
1000
0000
0000
0000
0100
0000
0000
0000
0010
0000
0000
0000
0001
0000
0000
0000
0010
0000
0000
0000
0100
0000
0000
0000
1000
0000
0000
0000
0001
0000
0000
0000
0010
0000
0000
0000
0100
0000
0000
0000
1000
,
0000
0000
0000
0010
0000
0000
0000
1000
0000
0000
0000
0001
0000
0000
0000
0010
0000
0000
0000
0000
0000
0000
0000
0000
1001
0000
0000
0000
0000
0000
0000
0000
0000
0000
0000
0000
0000
0000
0000
0000
0000
0000
0000
0000
0000
0000
0000
0000
;

//---------------dance-single - ----------------
#NOTES:
     dance-single:
     :
     Challenge:
     12:
     1.000,1.000,1.000,0.292,1.000,724.000,209.000,26.000,0.000,0.000:
0000
0000
0000
0000
0000
0000
0000
0000
1001
0000
0000
0000
0110
0000
0000
0000
0110
0000
0000
0000
0100
0010
0001
0000
1000
0000
0010
0000
0000
0000
0010
0000
,
1001
0000
0000
0000
0110
0000
0000
0000
0000
0000
1100
0000
0000
0000
0000
0000
1001
0000
0000
0000
0001
1000
0010
0000
0100
0000
1000
0000
0000
0000
0001
0000
,
0110
0000
0000
0000
0000
0000
1001
0000
0000
0000
0000
0000
0000
0000
0000
1100
0000
0000
0000
0000
0000
0000
0000
0000
0110
0000
0001
0000
0010
0000
0100
0000
1000
0000
0010
0000
0100
0000
0000
0010
0000
0000
0100
0000
0000
0001
0000
0000
,
1010
0000
0000
0000
0000
0000
1100
0000
0000
0000
0000
0000
0000
0000
0000
0110
0000
0000
0000
0000
0000
0000
0000
0000
1000
0000
0010
0000
0100
0000
0001
0000
0010
0000
1000
0000
0001
0000
0100
0000
0010
0000
1000
0000
0000
0000
0000
0000
,
1001
0010
0100
1000
0101
0010
0100
1000
0110
0000
0010
0100
1010
0001
0010
1100
,
0001
0110
1000
0100
1000
0011
0000
1000
0101
0010
0001
0100
1010
0001
0010
1100
,
0001
1100
0010
0000
1001
0010
0000
0001
0110
0001
0100
0001
0110
1000
0001
0110
,
1000
0000
0000
0101
0000
0000
0010
0000
0000
0100
0000
0000
0011
0000
0000
1000
0000
0000
0000
0000
0000
0100
0000
0000
0010
0000
1000
0000
0001
0000
0100
0000
0010
0000
1000
0000
0001
0000
0100
0000
0010
0000
1000
0000
0000
0000
0000
0000
,
0110
0001
1000
0010
1100
0001
0100
1000
0101
0010
0100
0010
1100
0010
1001
0000
,
0110
1000
0010
0001
0110
1000
0001
1000
0100
1000
0001
0100
0011
1000
0110
0000
,
1010
0100
0001
1000
0110
1000
0001
0010
0100
1000
0001
1000
0110
1000
0101
0000
,
0110
1000
0010
0001
1100
0010
1000
0001
0100
0010
0001
2000
0000
3010
0001
0100
,
1000
0000
0001
0100
1000
0000
0200
0000
0001
0000
1300
0000
0001
0000
0010
0000
0100
0000
0001
0000
1000
0000
0010
0000
1100
0000
0001
0000
0010
0000
1001
0000
,
0010
0101
1000
0001
0110
0001
1000
0001
0100
0010
1000
0001
1100
0010
1000
0101
,
0010
1001
0100
1000
0101
1010
0100
0001
0100
1000
0110
0001
0000
1010
0101
0010
,
1000
0101
0010
0100
1001
0010
1000
0001
0110
1000
0100
0021
0000
1030
0100
1000
,
0010
0000
1000
0000
0001
0000
1000
0000
0001
0000
0100
0000
1010
0000
0000
0100
0000
0000
0011
0000
0000
0100
0000
0000
0001
0000
0000
2010
0000
0000
0000
0000
0000
3010
0000
0000
1000
0000
0000
0001
0000
0000
0100
0000
0001
0000
1000
0000
,
0001
0000
1000
0000
0010
0000
0101
0000
0000
1000
0000
0000
0011
0000
0000
0100
0000
0000
0001
0000
0000
2100
0000
0000
0000
0000
0000
3001
0000
0000
1000
0000
0000
0001
0000
0000
1000
0000
0010
0000
0001
0000
1000
0000
0100
0000
0001
0000
,
1010
0001
1100
0010
1000
0102
0003
0010
1000
0010
0001
1000
0010
1000
0001
1000
,
0110
0001
1100
0010
0001
0110
1000
0101
0010
0100
1000
0001
0010
1000
0101
0010
,
1100
0001
0010
1100
0010
0101
1000
0110
1000
0010
1000
0001
0100
0001
0110
0001
,
0110
1000
0010
1100
0010
1001
0010
0001
1000
0010
1000
0001
0110
1000
0101
0010
,
1000
0000
0110
0000
0001
0000
1010
0000
0100
0000
0011
0000
0100
0000
0010
0000
0100
0000
1000
0000
0001
0000
0100
0000
1010
0001
0100
1000
0001
0010
1100
0011
,
1100
0001
1000
0001
1000
0010
1100
0001
0100
0001
1000
0001
1100
0011
1100
0000
0010
1000
0101
0000
0000
0000
0010
0000
0000
0000
1001
0000
0000
0000
0100
0000
,
0000
1000
0000
0110
0000
0001
0000
1010
0000
0100
0000
0001
0000
1000
0010
0001
,
0010
0100
0000
0001
0000
1010
0000
0100
0000
1001
0000
0010
0000
0100
0000
1001
,
0000
0100
0000
0011
0000
1000
0000
0100
0000
0010
0100
0010
0001
0010
0000
0100
,
0000
1001
0000
0010
0000
0101
0000
1000
0000
0100
0000
1010
0000
0100
0000
1001
,
0000
0100
0000
0010
0000
1000
0010
0001
1000
0100
0000
0010
0000
1001
0000
0010
,
0000
1001
0000
0010
0000
0001
0000
0110
0000
1000
0000
0110
0000
1000
0000
0011
,
0000
1100
0000
0011
0000
1100
0000
0011
0000
1100
0000
0010
0000
0101
0000
1000
,
0000
0001
0000
0100
0000
1010
0000
0001
0000
0100
0000
1000
0000
0011
0000
1000
,
0000
0001
0000
0100
0000
1001
0000
0010
0000
1000
0000
0010
0000
0101
0000
1000
,
0000
0100
0000
0001
0000
1010
0000
0100
0000
1010
0000
0101
0000
1010
0000
0101
,
0000
0010
0000
0001
0000
0110
0000
1000
0000
0010
0000
0100
0000
0011
0000
1000
,
0000
0010
0000
1000
0000
0110
0000
1000
0000
0001
0000
1000
0000
0011
0000
0100
,
0000
1000
0000
0001
0000
1100
0000
0001
0000
1000
0000
0001
0000
1100
0000
0010
,
0000
1001
0000
0110
0000
1001
0000
0110
0000
1001
0000
0010
0000
0100
0000
0001
,
0000
0110
0000
0001
0000
1000
0000
0001
0000
0110
0000
1000
0000
0001
0000
0010
,
0000
1001
0000
0100
0000
1000
0000
0010
0000
0101
0000
0010
0000
0001
0000
0100
,
0000
1001
0000
0100
0000
1000
0000
0110
0000
1000
0000
0011
0000
0100
0000
1010
,
0000
0100
0000
0011
0000
2100
0000
0000
0000
3100
0000
0001
0000
1000
0000
0010
,
0000
0101
0000
1000
0000
0001
0000
0010
0000
1100
0000
0001
0000
1000
0000
0010
,
0000
0101
0000
1000
0000
0001
0000
0010
0000
1100
0000
0010
0000
0001
0000
1000
,
0000
0110
0000
0001
0000
1000
0000
0101
0000
0010
0000
1001
0000
0100
0000
1010
,
0000
0001
0000
0110
0000
2001
0000
0000
0000
3100
0000
0001
0000
0110
0000
0001
,
0000
1010
0000
0100
0000
1000
0000
0101
0000
0010
0000
1001
0000
0010
0000
0100
,
0000
0000
0000
1000
0000
0000
0000
0100
0000
0000
0000
0010
0000
0000
0000
1000
0000
0000
0000
0100
0000
0000
0000
0001
0000
0000
0000
1000
0000
0000
0000
0000
0000
0010
0000
0000
0000
0000
0000
0101
0000
0000
0000
0000
0000
1000
0000
0000
,
0000
0011
0000
1000
0000
0001
0000
0110
0000
1000
0000
0011
0000
0100
0000
0010
,
0000
0000
0000
0100
0000
0000
0000
0010
0000
0000
0000
1000
0000
0000
0000
0001
0000
0000
0000
1000
0000
0000
0000
0010
0000
0000
0000
0100
0000
0000
0000
0000
0000
1000
0000
0000
0000
0000
0000
0110
0000
0000
0000
0000
0000
1000
0000
0000
,
0000
0101
0000
0010
0000
1000
0000
0110
0000
1000
0000
0110
0000
0001
0000
1000
,
0000
0000
0000
0001
0000
0000
0000
0010
0000
0000
0000
0100
0000
0000
0000
1000
0000
0000
0000
0100
0000
0000
0000
0010
0000
0000
0000
0001
0000
0000
0000
0000
0000
0010
0000
0000
0000
0000
0000
0101
0000
0000
0000
0000
0000
1000
0000
0000
,
0000
0110
0000
1000
0000
0100
0000
1010
0000
0001
0000
1100
0000
0010
0000
1000
,
0000
0000
0000
0001
0000
0000
0000
0010
0000
0000
0000
0100
0000
0000
0000
1000
0000
0000
0000
0010
0000
0000
0000
0001
0000
0000
0000
0010
0000
0000
0000
0000
0000
0001
0000
0000
0000
0000
0000
1000
0000
0000
0000
0000
0000
0110
0000
0000
,
0000
1000
0000
0001
0000
0110
0000
0001
0000
1010
0000
0100
0000
0010
0000
0101
,
0000
0000
0000
1000
0000
0000
0000
0100
0000
0000
0000
0001
0000
0000
0000
1000
0000
0000
0000
0010
0000
0000
0000
0001
0000
0000
0000
0100
0000
0000
0000
0000
0000
1000
0000
0000
0000
0000
0000
0001
0000
0000
0000
0000
0000
0110
0000
0000
,
0000
0001
0000
0100
0000
1001
0000
0100
0000
1010
0000
0001
0000
0010
0000
0101
,
0000
0000
0000
1000
0000
0000
0000
0100
0000
0000
0000
0010
0000
0000
0000
0001
0000
0000
0000
0100
0000
0000
0000
0010
0000
0000
0000
1001
0000
0000
0000
0000
0000
0110
0000
0000
0000
0000
0000
0001
0000
0000
0000
0000
0000
1000
0000
0000
,
0000
0110
0000
0001
0000
0010
0000
0100
0000
1001
0000
0010
0000
1000
0000
0110
,
0000
0001
0000
0100
0000
1010
0000
0101
0000
0010
0000
1000
0000
0101
0000
0010
,
0000
0001
0000
0010
0000
1100
0000
0001
0000
0100
0000
1010
0000
0100
0000
0001
,
0000
1100
0000
0011
0000
1000
0000
0010
0000
0101
0000
1000
0000
0001
0000
1000
,
0000
0110
0000
0001
0000
1000
0000
0110
0000
0001
0000
1000
0000
0220
0000
0330
,
0000
0000
0000
2200
0000
3300
0000
0000
0000
2002
0000
3003
0000
0220
0000
0330
,
0000
0000
0000
2020
0000
3030
0000
0000
0000
0220
0000
0330
0000
2002
0000
3003
,
0000
0000
0000
0000
0000
0000
0000
0000
0000
2200
0000
0000
0000
0000
0000
3300
0000
0000
0000
0000
0000
0000
0000
0000
0000
0000
0000
0220
0000
0000
0000
0000
0000
0330
0000
0000
0000
0000
0000
0100
0000
0000
0000
0001
0000
0000
0000
1000
,
0000
0000
0000
0010
0000
0000
0000
0100
0000
0000
0000
0001
0000
0000
0000
1000
0000
0000
0000
0010
0000
0000
0000
1000
0000
0000
0000
0001
0000
0000
0000
0100
0000
0000
0000
0010
0000
0000
0000
1000
0000
0000
0000
0001
0000
0000
0000
0100
,
0000
0000
0000
1000
0000
0000
0000
0100
0000
0000
0000
0010
0000
0000
0000
1000
0000
0000
0000
0000
0000
0000
0000
0000
0110
0000
0000
0000
0000
0000
0000
0000
0000
0000
0000
0000
0000
0000
0000
0000
0000
0000
0000
0000
0000
0000
0000
0000
;
