#TITLE:5.1.1.;
#SUBTITLE:(12.25 Mix);
#ARTIST:dj nagureo (Remixed by X0-000);
#TITLETRANSLIT:;
#SUBTITLETRANSLIT:;
#ARTISTTRANSLIT:;
#CREDIT:;
#BANNER:5111225mix.png;
#BACKGROUND:5111225mixbg.png;
#LYRICSPATH:;
#CDTITLE:;
#MUSIC:5111225mix.mp3;
#OFFSET:-0.029;
#SAMPLESTART:46.183;
#SAMPLELENGTH:12.000;
#SELECTABLE:YES;
#BPMS:0.000=130.000;
#STOPS:;
#BGCHANGES:;
// cache tags:
#FIRSTBEAT:16.000;
#LASTBEAT:159.000;
#SONGFILENAME:Songs/toune/5111225mix/5111225mix.sm;
#HASMUSIC:1;
#HASBANNER:1;
#MUSICLENGTH:74.639;
// end cache tags

//---------------dance-single - ----------------
#NOTES:
     dance-single:
     :
     Easy:
     3:
     0.310,0.373,0.348,0.134,0.000,126.000,26.000,10.000,0.000,0.000:  // measure 1
0000
0000
0000
0000
,  // measure 2
0000
0000
0000
0000
,  // measure 3
0000
0000
0000
0000
,  // measure 4
0000
0000
0000
0000
,  // measure 5
0100
0100
0100
0100
,  // measure 6
0010
0010
0010
0010
,  // measure 7
1000
1000
1000
1000
,  // measure 8
0001
0001
0001
0001
,  // measure 9
1000
0100
0110
0110
,  // measure 10
0001
1000
1010
1010
,  // measure 11
0100
0000
0000
0001
0000
0000
1000
0000
,  // measure 12
0100
0000
0000
0010
0000
0000
0001
0000
,  // measure 13
1000
0010
0001
0010
,  // measure 14
1000
0100
0010
0001
,  // measure 15
0200
0000
0320
0000
,  // measure 16
2030
0000
3002
0000
,  // measure 17
0013
0100
1100
1100
,  // measure 18
0001
0100
0110
0110
,  // measure 19
1000
0000
0000
0010
0000
0000
0100
0000
,  // measure 20
0001
0000
0000
1000
0000
0000
0100
0000
,  // measure 21
0020
0000
0001
0031
,  // measure 22
0200
0000
1000
1300
,  // measure 23
0002
0000
0100
0103
,  // measure 24
0020
0000
1000
1030
,  // measure 25
1100
0010
0101
0010
,  // measure 26
1100
0001
1010
0001
,  // measure 27
0011
0100
1010
0100
,  // measure 28
0011
1000
0101
1000
,  // measure 29
0001
0010
1100
1100
,  // measure 30
1000
0010
0101
0101
,  // measure 31
0001
1000
0100
0010
,  // measure 32
0001
0100
0010
1000
,  // measure 33
1000
0100
0010
0010
,  // measure 34
0001
1000
0010
0010
,  // measure 35
0100
0001
1000
0000
,  // measure 36
0100
0010
0001
0000
,  // measure 37
0100
0100
0100
0100
,  // measure 38
0010
0010
1001
0000
,  // measure 39
1100
0011
0101
1010
,  // measure 40
2002
0000
0000
3003
;

//---------------dance-single - ----------------
#NOTES:
     dance-single:
     :
     Medium:
     5:
     0.394,0.399,0.375,0.000,0.040,178.000,28.000,0.000,0.000,0.000:  // measure 1
0000
0000
0000
0000
,  // measure 2
0000
0000
0000
0000
,  // measure 3
0000
0000
0000
0000
,  // measure 4
0000
0000
0000
0000
,  // measure 5
1001
0000
0000
0000
1000
0100
0010
0000
,  // measure 6
1001
0000
0000
0000
0001
0100
0010
0000
,  // measure 7
1000
0100
0010
0001
0000
0000
0101
0000
,  // measure 8
0010
1000
0001
0010
0000
0000
1100
0000
,  // measure 9
0001
0100
0010
0000
1000
0100
0001
0000
,  // measure 10
0100
0010
0001
0000
0100
1000
0100
0000
,  // measure 11
0011
0000
0100
1000
0000
0000
0010
0000
,  // measure 12
1001
0000
0100
0010
0000
0000
0001
0000
,  // measure 13
0101
0000
0010
0000
0000
1000
0100
0000
,  // measure 14
0011
0000
1000
0000
0000
0010
0100
0000
,  // measure 15
1001
0000
0100
0000
0000
0010
0001
0000
,  // measure 16
1100
0000
0010
0000
0000
0100
0001
0000
,  // measure 17
1000
0100
0010
0000
0001
0100
1000
0000
,  // measure 18
0100
0001
0010
0000
0100
1000
0001
0000
,  // measure 19
0101
0000
0010
1000
0000
0000
0001
0000
,  // measure 20
1010
0000
0100
0010
0000
0000
0001
0000
,  // measure 21
1000
0010
0100
0000
0001
1000
0100
0000
,  // measure 22
0010
0001
0100
0000
1000
0100
0001
0000
,  // measure 23
1000
0100
0010
0000
0001
1000
0010
0000
,  // measure 24
0100
0001
1000
0000
0100
0010
0001
0000
,  // measure 25
0101
1010
1001
0000
,  // measure 26
0011
0110
1100
0000
,  // measure 27
1001
0101
1010
0000
,  // measure 28
1100
0011
0101
0000
,  // measure 29
0010
0000
0010
0000
0000
0010
0000
0000
0010
0000
0000
0010
0000
0000
0010
0000
,  // measure 30
0100
0000
0100
0000
0000
0100
0000
0000
0100
0000
0000
0100
0000
0000
0100
0000
,  // measure 31
1000
0100
1000
0010
0000
0000
0101
0000
,  // measure 32
0001
1000
0001
0010
0000
0000
1100
0000
,  // measure 33
0010
0100
1000
0000
0001
0100
1000
0000
,  // measure 34
0100
0010
1000
0000
0001
0010
0100
0000
,  // measure 35
1000
0000
0000
0010
0000
0000
0100
0000
0000
0000
0001
0000
0000
0000
0000
0000
,  // measure 36
0010
0000
0000
0100
0000
0000
1000
0000
0000
0000
0001
0000
0000
0000
0000
0000
,  // measure 37
1000
0100
0010
0000
1001
0000
0001
0100
,  // measure 38
0010
0000
1001
0000
0010
0100
0010
0000
,  // measure 39
1000
0100
1000
0100
0010
0001
1000
0001
,  // measure 40
1000
0001
0010
1000
0010
0001
0100
0000
;

//---------------dance-single - ----------------
#NOTES:
     dance-single:
     :
     Hard:
     7:
     0.456,0.426,0.442,0.107,0.114,197.000,33.000,8.000,0.000,0.000:  // measure 1
0000
0000
0000
0000
,  // measure 2
0000
0000
0000
0000
,  // measure 3
0000
0000
0000
0000
,  // measure 4
0000
0000
0000
0000
,  // measure 5
1100
0000
0010
0000
0001
1000
0010
0000
,  // measure 6
0101
0000
1000
0000
0100
0010
0001
0000
,  // measure 7
1010
0000
0100
0001
0000
0010
0001
0000
,  // measure 8
1100
0000
0010
0001
0000
0100
0010
0000
,  // measure 9
1000
0000
0100
0000
0010
0000
0000
0000
0011
0000
0000
0100
0001
0000
0000
0000
,  // measure 10
1000
0000
0100
0010
0100
0000
0000
0000
1000
0000
0001
0000
0100
0000
0000
0000
,  // measure 11
0010
1000
0100
0001
0000
0100
0100
0000
,  // measure 12
0010
0001
0100
0010
0000
1000
1000
0000
,  // measure 13
0021
0000
0000
0000
0100
0000
0000
1000
0000
0000
0100
0000
0130
0000
0000
0000
,  // measure 14
2001
0000
0000
0000
0010
0000
0000
0100
0000
0000
0001
0000
3001
0000
0000
0000
,  // measure 15
0201
0000
0000
0000
0010
0000
0000
1000
0000
0000
0001
0000
0301
0000
0000
0000
,  // measure 16
2010
0000
0000
0000
0100
0000
0000
0001
0000
0000
0010
0000
3010
0000
0000
0000
,  // measure 17
0100
0000
0001
0000
0010
0000
0000
0000
1100
0000
0000
0010
1000
0000
0000
0000
,  // measure 18
0100
0000
0010
0001
0010
0000
0000
0000
0100
0000
1000
0000
0010
0000
0000
0000
,  // measure 19
0100
0001
0010
0001
0000
0100
0100
0000
,  // measure 20
0010
1000
0100
0001
0000
0100
1000
0010
,  // measure 21
1000
0001
0010
0100
1000
0010
1000
0000
,  // measure 22
0001
0010
0100
1000
0010
0001
0010
0000
,  // measure 23
1000
0001
0010
1000
0010
0001
0100
0000
,  // measure 24
0010
1000
0001
0100
1000
0100
0001
0000
,  // measure 25
0011
0101
1010
1100
,  // measure 26
0010
0000
0001
0100
0001
0000
0000
0000
,  // measure 27
0011
1100
1001
0101
,  // measure 28
0010
0000
0100
0000
1000
0001
1000
0000
,  // measure 29
0200
0000
0010
0000
0000
1000
0000
0000
0010
0000
0000
1000
0000
0000
0310
0000
,  // measure 30
0002
0000
0100
0000
0000
1000
0000
0000
0100
0000
0000
1000
0000
0000
0103
0000
,  // measure 31
1001
0000
0100
0010
0000
0000
0011
0000
,  // measure 32
0101
0000
0000
1010
0000
0000
1001
0000
0000
0000
0000
0000
0100
0000
0000
0000
,  // measure 33
0010
0000
0001
0000
1000
0000
0000
0000
1010
0000
0000
0100
0001
0000
0000
0000
,  // measure 34
0010
0000
0100
1000
0100
0000
0000
0000
0010
0000
0001
0000
1000
0000
0000
0000
,  // measure 35
0010
0000
0000
0100
0000
0000
0101
0000
0000
0000
0011
0000
0000
0000
0100
0000
,  // measure 36
1000
0000
0000
0001
0000
0000
1100
0000
0000
0000
0110
0000
0000
0000
0001
0000
,  // measure 37
1000
0100
1000
0010
0100
0001
0010
1000
,  // measure 38
0010
0001
0100
0010
1000
0000
0000
0000
,  // measure 39
1100
0011
0101
1010
,  // measure 40
2002
0000
0000
3003
;

//---------------dance-single - ----------------
#NOTES:
     dance-single:
     :
     Challenge:
     8:
     0.494,0.533,0.590,0.000,0.141,214.000,44.000,0.000,0.000,0.000:  // measure 1
0000
0000
0000
0000
,  // measure 2
0000
0000
0000
0000
,  // measure 3
0000
0000
0000
0000
,  // measure 4
0000
0000
0000
0000
,  // measure 5
1100
0000
0010
0000
0001
0000
0000
0100
0010
0000
0100
0001
0000
0000
1000
0000
,  // measure 6
0011
0000
0100
0000
1000
0000
0000
0010
0100
0000
0010
1000
0000
0000
0001
0000
,  // measure 7
1010
0000
1000
0100
0000
0010
0001
0000
,  // measure 8
0101
0000
0010
1000
0000
0100
0010
0000
,  // measure 9
1001
0000
0100
0000
0010
0000
0000
0000
0001
0000
0000
0100
0001
0000
0000
0000
,  // measure 10
0011
0000
0100
1000
0100
0000
0000
0000
1001
0000
0010
0000
0110
0000
0000
0000
,  // measure 11
1000
0100
0001
0100
0000
0000
1100
0000
,  // measure 12
1000
0010
0001
0010
0000
0000
1010
0000
,  // measure 13
1100
0000
0000
0000
0010
0000
0000
0001
0000
0000
0100
0000
0010
0000
0000
0000
,  // measure 14
1010
0000
0000
0000
0001
0000
0000
0010
0000
0000
1000
0000
0010
0000
0000
0000
,  // measure 15
0101
0000
0000
0000
0010
0000
0000
1000
0000
0000
0001
0000
0010
0000
0000
0000
,  // measure 16
1100
0000
0000
0000
0001
0000
0000
0100
0000
0000
1000
0000
0100
0000
0000
0000
,  // measure 17
0011
0000
0100
0000
1000
0000
0000
0000
0001
0000
0000
0010
0001
0000
0000
0000
,  // measure 18
1001
0000
0100
0010
0100
0000
0000
0000
1100
0000
0010
0000
0011
0000
0000
0000
,  // measure 19
1000
0100
1000
0011
0000
0000
0101
0000
,  // measure 20
0100
0010
0100
1001
0000
0010
0100
0001
,  // measure 21
1000
0100
0010
0001
0100
1000
0100
0001
,  // measure 22
0010
0100
1000
0010
0001
0010
1000
0100
,  // measure 23
0001
0100
1000
0001
0010
0100
1000
0010
,  // measure 24
0100
0001
1000
0100
0000
0001
0100
0000
,  // measure 25
1100
0010
0100
0000
0011
1000
0100
0000
,  // measure 26
0010
0001
0100
0010
0010
0000
0000
0000
,  // measure 27
1010
0001
1000
0000
0110
0001
0100
0000
,  // measure 28
0010
1000
0100
0001
0100
0000
1100
0000
,  // measure 29
1010
0000
0100
0000
0000
0011
0000
0000
1000
0000
0000
0101
0000
0000
0010
0000
,  // measure 30
1001
0000
0100
0000
0000
1010
0000
0000
0001
0000
0000
1100
0000
0000
0010
0000
,  // measure 31
0101
0000
1000
0100
0000
0010
0001
0000
,  // measure 32
0101
0000
0000
1010
0000
0000
1100
0000
0000
0000
0010
0000
0001
0000
0000
0000
,  // measure 33
1001
0000
0100
0000
0010
0000
0000
0000
0001
0000
0000
1000
0001
0000
0000
0000
,  // measure 34
1100
0000
0010
0100
0010
0000
0000
0000
0011
0000
0100
0000
0101
0000
0000
0000
,  // measure 35
1000
0000
0000
0100
0000
0000
1001
0000
0000
0000
0101
0000
0000
0000
0010
0000
,  // measure 36
1000
0000
0000
0001
0000
0000
0011
0000
0000
0000
1100
0000
0000
0000
0001
0000
,  // measure 37
1000
0100
0001
0100
,  // measure 38
1000
0010
0100
0000
,  // measure 39
0010
1000
0100
0001
0100
1000
0001
0100
,  // measure 40
1000
0100
0001
0010
0100
1000
0010
0000
;

//---------------dance-double - ----------------
#NOTES:
     dance-double:
     :
     Hard:
     7:
     0.446,0.426,0.402,0.080,0.114,197.000,30.000,6.000,0.000,0.000:  // measure 1
00000000
00000000
00000000
00000000
,  // measure 2
00000000
00000000
00000000
00000000
,  // measure 3
00000000
00000000
00000000
00000000
,  // measure 4
00000000
00000000
00000000
00000000
,  // measure 5
00011000
00000000
01000000
00000000
10000000
00100000
01000000
00000000
,  // measure 6
00110000
00000000
01000000
00000000
00010000
00001000
00000100
00000000
,  // measure 7
00001001
00000000
00000100
00000010
00000000
00000001
00000100
00000000
,  // measure 8
00011000
00000000
01000000
10000000
00000000
00100000
00010000
00000000
,  // measure 9
00100000
00000000
10000000
00000000
01000000
00000000
00000000
00000000
00010000
00000000
00000000
00001000
00010000
00000000
00000000
00000000
,  // measure 10
00000100
00000000
00000010
00000001
00000010
00000000
00000000
00000000
00000100
00000000
00001000
00000000
00000010
00000000
00000000
00000000
,  // measure 11
00001000
00000100
00010000
01000000
00000000
10000000
10000000
00000000
,  // measure 12
00100000
00010000
00100000
10000000
00000000
01000000
01000000
00000000
,  // measure 13
01020000
00000000
00000000
00000000
00001000
00000000
00000000
00100000
00000000
00000000
00001000
00000000
00031000
00000000
00000000
00000000
,  // measure 14
00001200
00000000
00000000
00000000
00000001
00000000
00000000
00000010
00000000
00000000
00000001
00000000
00000301
00000000
00000000
00000000
,  // measure 15
00000120
00000000
00000000
00000000
00001000
00000000
00000000
00000001
00000000
00000000
00000100
00000000
00000130
00000000
00000000
00000000
,  // measure 16
00021000
00000000
00000000
01000000
00000000
00000000
00001000
00000000
00000000
00000000
00100000
00000000
00130000
00000000
00000000
00000000
,  // measure 17
10000000
00000000
01000000
00000000
00100000
00000000
00000000
00000000
00001000
00000000
00000000
00010000
01000000
00000000
00000000
00000000
,  // measure 18
00010000
00000000
00001000
00000100
00001000
00000000
00000000
00000000
00000100
00000000
00000010
00000000
00001000
00000000
00000000
00000000
,  // measure 19
00000100
00000010
00001000
00000010
00000000
00000001
00000001
00000000
,  // measure 20
00000100
00000001
00000010
00001000
00000000
00000010
00000100
00001000
,  // measure 21
00000001
00000100
00001000
00010000
01000000
10000000
00100000
00000000
,  // measure 22
00010000
00001000
00000100
00001000
00010000
00001000
00000100
00000000
,  // measure 23
00010000
01000000
00100000
10000000
01000000
00010000
01000000
00000000
,  // measure 24
10000000
00010000
01000000
00100000
00010000
00001000
00000010
00000000
,  // measure 25
00001001
00001100
00000011
00000101
,  // measure 26
00001000
00000000
00010000
00001000
00000100
00000000
00000000
00000000
,  // measure 27
00000110
00010010
00011000
01001000
,  // measure 28
00100000
00000000
10000000
00000000
01000000
00010000
01000000
00000000
,  // measure 29
10000000
00000000
00100000
00000000
00000000
00010000
00000000
00000000
00001000
00000000
00000000
00010000
00000000
00000000
01000000
00000000
,  // measure 30
00010000
00000000
00001000
00000000
00000000
00000100
00000000
00000000
00001000
00000000
00000000
00010000
00000000
00000000
00001000
00000000
,  // measure 31
00010100
00000000
00001000
00000010
00000000
00000000
00000101
00000000
,  // measure 32
00000110
00000000
00000000
00010010
00000000
00000000
00011000
00000000
00000000
00000000
00000000
00000000
01000000
00000000
00000000
00000000
,  // measure 33
00100000
00000000
10000000
00000000
01000000
00000000
00000000
00000000
00010000
00000000
00000000
00001000
00010000
00000000
00000000
00000000
,  // measure 34
00100000
00000000
01000000
00010000
01000000
00000000
00000000
00000000
00001000
00000000
00010000
00000000
00000100
00000000
00000000
00000000
,  // measure 35
00000010
00000000
00000000
00000001
00000000
00000000
00000101
00000000
00000000
00000000
00000110
00000000
00000000
00000000
00001000
00000000
,  // measure 36
00000100
00000000
00000000
00010000
00000000
00000000
00011000
00000000
00000000
00000000
01001000
00000000
00000000
00000000
00100000
00000000
,  // measure 37
00010000
00001000
00000100
00001000
00010000
01000000
00010000
00001000
,  // measure 38
00000010
00001000
00010000
00100000
10000000
00000000
00000000
00000000
,  // measure 39
11000000
00110000
01010000
01001000
,  // measure 40
00022000
00000000
00000000
00033000
;

//---------------dance-double - ----------------
#NOTES:
     dance-double:
     :
     Challenge:
     8:
     0.480,0.533,0.496,0.000,0.141,214.000,37.000,0.000,0.000,0.000:  // measure 1
00000000
00000000
00000000
00000000
,  // measure 2
00000000
00000000
00000000
00000000
,  // measure 3
00000000
00000000
00000000
00000000
,  // measure 4
00000000
00000000
00000000
00000000
,  // measure 5
10100000
00000000
01000000
00000000
00100000
00000000
00000000
10000000
01000000
00000000
00010000
01000000
00000000
00000000
00100000
00000000
,  // measure 6
01010000
00000000
00001000
00000000
00010000
00000000
00000000
00001000
00000100
00000000
00000001
00000100
00000000
00000000
00000010
00000000
,  // measure 7
00001001
00000000
00000100
00000010
00000000
00000001
00000100
00000000
,  // measure 8
00001010
00000000
00000100
00010000
00000000
01000000
00100000
00000000
,  // measure 9
11000000
00000000
00100000
00000000
00010000
00000000
00000000
00000000
01000000
00000000
00000000
00100000
10000000
00000000
00000000
00000000
,  // measure 10
01000000
00000000
00010000
00001000
00010000
00000000
00000000
00000000
00110000
00000000
01000000
00000000
01010000
00000000
00000000
00000000
,  // measure 11
00100000
00001000
00010000
01000000
00000000
00000000
00011000
00000000
,  // measure 12
00000100
00000001
00000010
00001000
00000000
00000000
00011000
00000000
,  // measure 13
00000110
00000000
00000000
00000000
00001000
00000000
00000000
00000001
00000000
00000000
00000100
00000000
00001000
00000000
00000000
00000000
,  // measure 14
00011000
00000000
00000000
00000000
01000000
00000000
00000000
00100000
00000000
00000000
00010000
00000000
10000000
00000000
00000000
00000000
,  // measure 15
01010000
00000000
00000000
00000000
00100000
00000000
00000000
00010000
00000000
00000000
00001000
00000000
00010000
00000000
00000000
00000000
,  // measure 16
00001100
00000000
00000000
00000000
00000010
00000000
00000000
00001000
00000000
00000000
00000001
00000000
00000010
00000000
00000000
00000000
,  // measure 17
00000110
00000000
00010000
00000000
00001000
00000000
00000000
00000000
00000100
00000000
00000000
00000001
00000010
00000000
00000000
00000000
,  // measure 18
00000100
00000000
00000010
00001000
00000010
00000000
00000000
00000000
00000011
00000000
00000100
00000000
00001100
00000000
00000000
00000000
,  // measure 19
00000100
00010000
01000000
10000000
00000000
00000000
01010000
00000000
,  // measure 20
00100000
01000000
10000000
01000000
00000000
00100000
00010000
01000000
,  // measure 21
00100000
10000000
01000000
00010000
00001000
00000100
00000001
00000010
,  // measure 22
00000100
00001000
00000010
00000001
00000010
00000100
00000001
00000010
,  // measure 23
00001000
00010000
01000000
00010000
00001000
00000100
00001000
00010000
,  // measure 24
00100000
10000000
01000000
00100000
00000000
00010000
01000000
00000000
,  // measure 25
10100000
00010000
01000000
00000000
00101000
00010000
00001000
00000000
,  // measure 26
00000100
00000010
00001000
00000100
00000100
00000000
00000000
00000000
,  // measure 27
00000011
00000100
00000001
00000000
00001100
00000010
00000001
00000000
,  // measure 28
00000100
00001000
00010000
01000000
10000000
00000000
00110000
00000000
,  // measure 29
10010000
00000000
01000000
00000000
00000000
00110000
00000000
00000000
01000000
00000000
00000000
10100000
00000000
00000000
01000000
00000000
,  // measure 30
00110000
00000000
00001000
00000000
00000000
00010100
00000000
00000000
00000010
00000000
00000000
00001001
00000000
00000000
00000100
00000000
,  // measure 31
00000010
00000000
00000001
00000100
00000000
00001000
00000100
00000000
,  // measure 32
00000011
00000000
00000000
00001100
00000000
00000000
00010100
00000000
00000000
00000000
00001000
00000000
00010000
00000000
00000000
00000000
,  // measure 33
01100000
00000000
00010000
00000000
10000000
00000000
00000000
00000000
00100000
00000000
00000000
01000000
00010000
00000000
00000000
00000000
,  // measure 34
10000000
00000000
01000000
00010000
01000000
00000000
00000000
00000000
10010000
00000000
01000000
00000000
00010000
00000000
00000000
00000000
,  // measure 35
00100000
00000000
00000000
00001000
00000000
00000000
00011000
00000000
00000000
00000000
00001100
00000000
00000000
00000000
00000010
00000000
,  // measure 36
00001000
00000000
00000000
00000001
00000000
00000000
00000011
00000000
00000000
00000000
00001100
00000000
00000000
00000000
00000001
00000000
,  // measure 37
00000100
00001000
00010000
01000000
,  // measure 38
00010000
00001000
00000100
00000000
,  // measure 39
00000001
00000010
00001000
00010000
00100000
10000000
01000000
00100000
,  // measure 40
00010000
01000000
10000000
01000000
00010000
00100000
01000000
00000000
;
